#TITLE:Anisakis -somatic mutation type 'Forza'-;
#SUBTITLE:;
#ARTIST:朱雀;
#TITLETRANSLIT:;
#SUBTITLETRANSLIT:;
#ARTISTTRANSLIT:SUZAKU;
#GENRE:;
#CREDIT:TaroNuke;
#MENUCOLOR:#FF0000;
#METERTYPE:DDR X;
#BANNER:Anisakis -somatic mutation type 'Forza'-.png;
#BACKGROUND:Anisakis -somatic mutation type 'Forza'--bg.png;
#LYRICSPATH:;
#CDTITLE:;
#MUSIC:Anisakis -somatic mutation type 'Forza'-.mp3;
#OFFSET:-0.466;
#SAMPLESTART:88.646;
#SAMPLELENGTH:15.800;
#SELECTABLE:YES;
#LISTSORT:;
#BPMS:0.000=185.000,32.000=92.500,36.000=185.000,164.000=92.500,187.000=185.000,188.000=370.000,190.000=185.000,193.000=370.000,195.000=185.000,198.000=370.000,200.000=185.000,203.000=370.000,205.000=185.000,208.000=370.000,210.000=185.000,234.000=370.000,242.000=185.000,246.000=370.000,382.000=92.500,396.000=370.000,470.000=185.000;
#STOPS:234.000=0.162
,235.000=0.162
,236.000=0.162
,237.000=0.162
,238.000=0.054
,238.333=0.054
,238.667=0.054
,239.000=0.054
,239.333=0.054
,239.667=0.054
,240.000=0.108
,240.667=0.054
,241.000=0.054
,241.333=0.054
,241.667=0.054
;
#BGCHANGES:;
#ATTACKS:;

//---------------dance-single - TaroNuke----------------
#NOTES:
     dance-single:
     TaroNuke:
     Hard:
     17:
     0.821,1.000,0.379,0.138,0.346:
0000
0000
0000
0000
,
0000
0000
0000
0000
,
0000
0000
0000
0000
,
2100
3001
0120
1030
,
2001
3001
0010
0100
,
2100
3100
0010
0001
,
0120
1030
0001
0100
,
0101
0110
1100
1001
,
0020
0000
0000
0030
,
1000
0100
1000
0010
0100
0001
0100
0010
,
1010
1000
0010
0100
0001
0100
0010
1000
,
0001
0100
0010
1000
0100
1000
0001
0100
,
0101
0001
0100
0010
1000
0100
0020
0031
,
0011
0010
0001
0100
1000
0100
0001
0100
,
0110
0010
1000
0100
0001
0100
1000
0010
,
0110
0010
0001
0010
0100
0010
1000
0001
,
1001
0001
0000
0000
1100
0100
0110
0010
,
0011
0001
0010
1000
0010
0001
0100
0010
,
1000
0000
0000
0000
0000
0000
0000
0000
0000
0000
0000
0010
0100
0000
0000
0000
0000
0000
0000
0000
0000
0000
0000
0000
,
0001
0010
0100
1000
0100
0001
0100
1000
,
0010
0000
0000
0000
0000
0000
0000
0000
0000
0000
0000
1000
0001
0000
0000
0000
0000
0000
0000
0000
0000
0000
0000
0000
,
1100
0110
0011
0110
,
1000
0010
0001
0010
1000
0100
0010
0001
,
0100
0010
0100
0001
0101
0100
0010
0100
,
0001
0000
1000
0010
1000
0000
0001
0000
0100
0001
0010
0001
0100
0000
0010
0000
,
1000
0010
0100
1000
0100
0010
1000
0010
,
0100
1000
0100
0001
1000
0100
0001
0100
,
1000
0100
0010
1000
0010
0100
1000
0100
,
0010
0100
1000
0100
0001
0100
1000
0000
,
0010
0100
0010
0100
0010
0000
1000
0100
1000
0100
1000
0000
0001
0010
0001
0010
,
0001
0000
0100
0010
0100
0010
0100
0000
0001
0000
0100
0000
1000
0000
0100
0000
,
0001
0100
0001
0100
0001
0000
1000
0010
1000
0010
1000
0000
0001
1000
0001
1000
,
0001
0100
0010
1000
0100
0010
0001
0100
,
0001
0010
0001
0010
0100
0000
1000
0010
1000
0010
0100
0000
0001
0100
0001
0100
,
0010
0000
1000
0010
0100
0001
0010
0000
0001
0000
0010
0000
0100
0000
1000
0000
,
0001
0010
0100
1000
0001
0000
1000
0100
0010
0001
1000
0000
0001
0010
0100
1000
,
0010
0000
0000
0000
0000
0000
0000
0000
0101
0000
0000
0000
0000
0000
0000
0010
0000
0100
0000
0000
0000
0000
0000
0000
1010
0000
0000
0000
0000
0000
0000
0000
,
1000
0000
0100
0000
0001
0000
1000
0010
0001
0010
0001
0000
1000
0000
0010
0000
,
0001
0000
1000
0100
0001
0100
0001
0000
1000
0000
0100
0000
0001
0000
0100
0000
,
1100
1000
0010
0100
0110
0100
0001
0010
,
0011
0000
0000
0000
0000
0000
1010
0000
0000
0000
0000
0000
0001
0000
0000
1000
0001
1000
0001
0000
0000
0100
0010
0100
,
0020
0000
0000
0030
,
0000
0000
0000
0000
,
1000
0010
0100
0001
0010
0000
0011
0000
1100
0000
0000
0000
0000
0000
0000
0000
,
1000
0010
0100
0010
1000
0000
0011
0000
1100
0000
0110
0000
2001
0000
3000
0000
,
0001
0100
0010
0100
0001
0000
0101
0000
1010
0000
0000
0000
0000
0000
0000
0000
,
1100
0000
0110
0000
1010
0000
0011
0000
0001
0100
1000
0100
0001
0000
0000
0000
,
0020
0000
0031
0100
,
0010
0000
1000
0200
0000
0000
0000
0000
0000
1300
0000
0000
,
0010
0000
0000
0100
0000
0001
2000
0000
0000
0000
0000
0000
,
3001
0000
0000
0100
0000
0000
1000
0000
0100
0020
0000
0000
,
0000
0000
0000
0130
0000
0000
0001
0000
0000
1000
0000
0100
,
0020
0000
0000
0000
0000
0000
0130
0000
1000
0001
0000
0100
,
0010
0000
1000
0010
0000
0100
0001
0000
1000
0100
0000
0010
,
0001
0000
0010
0100
0000
0000
1000
0100
1000
0100
1000
0100
,
0010
0001
0010
0001
0010
0001
1000
0100
0010
0001
0010
0100
,
1000
0010
0100
0001
0100
0001
0020
0000
0000
1000
0000
0000
,
0001
0100
0001
1000
,
0001
0130
0110
0011
,
1100
0000
0000
0101
0000
0000
1000
0100
0010
0001
0100
0010
,
1000
0000
0000
0000
1000
0000
0100
0000
0010
0000
0001
0000
0100
0000
0000
0100
0000
0000
0100
0000
0000
0100
0000
0000
,
0100
0100
0100
0100
0020
0000
0000
0000
,
0000
0000
0000
0000
,
0000
0000
0000
0000
1030
0000
0100
1000
,
0100
0000
1000
0000
0010
0100
0010
0000
,
0100
0000
0001
0010
0001
0000
0100
0010
,
0100
0000
0001
0010
0001
0010
0001
0010
,
0001
0100
0001
0100
0010
0000
1000
0000
,
0100
1000
0010
0100
,
0001
0000
0100
0000
0010
0000
1000
0100
,
1000
0000
0010
0100
0001
0100
0010
0000
,
1000
0100
1000
0100
0010
0000
0001
0000
,
0100
1000
0100
0010
,
1000
0100
0001
0100
,
1000
0010
0100
0010
,
1000
0000
0001
0000
0100
0000
0010
0100
,
0010
0000
1000
0100
1000
0000
0010
0100
,
0010
0000
0100
0001
0100
0000
0010
0100
,
0010
0100
0010
0000
1000
0100
0010
0001
,
1000
0100
0010
0000
0001
0000
0100
0000
,
0010
0000
1000
0000
0100
1000
0100
0000
,
0010
0000
0001
0100
0001
0000
1000
0100
,
1000
0000
0010
0000
1000
0100
0010
0001
,
0010
0100
1000
0000
0001
0000
0100
0000
,
0010
0000
1000
0000
0001
0100
0001
0000
,
1000
0000
0010
1000
0001
0000
0100
0000
,
0010
0000
1000
0000
0001
0010
0100
1000
,
0100
0010
0001
0000
1000
0100
1000
0000
,
0010
0100
0010
0000
0100
0001
0100
0000
,
0001
0010
0001
0000
1000
0010
1000
0000
,
0010
0100
0010
0000
1000
0010
1000
0000
,
0001
0100
0001
0000
1000
0000
0010
0000
,
0100
0001
0010
0001
,
0100
0000
0010
0000
1000
0100
1000
0100
,
1000
0000
0001
0100
0001
0000
0010
0001
,
0010
0001
0100
0000
0001
0100
0010
0100
,
0001
1000
0100
0010
0011
0001
0100
0010
,
1100
0000
0000
0000
0010
0000
0000
0000
0101
0000
0000
0000
1010
0000
0000
0000
1100
0000
0000
0000
0010
0000
0000
0000
0001
0000
0000
0000
1000
0000
0010
0100
,
0010
0100
0001
1100
1100
0010
0001
1000
,
0020
0000
0000
0000
,
0000
0000
0030
0000
,
1000
0010
0100
0010
1000
0000
0001
0100
,
0010
0100
0001
0000
0100
0010
0100
0000
,
0001
0010
0100
0010
0001
0000
1000
0100
,
0010
0100
1000
0000
0010
0100
0010
0000
,
1000
0100
0010
0100
,
1000
0000
1000
0000
0010
0100
0010
0100
,
0010
0010
1000
0001
,
0100
0100
0001
0001
,
1000
0100
1000
0000
0000
0000
0000
0000
,
0001
0100
0001
0100
0010
1000
0010
1000
,
0001
0100
0001
0000
0000
0000
0000
0000
,
1000
0100
1000
0100
0010
0001
0010
0001
,
1000
0000
0100
0010
0100
0000
0010
0001
,
0010
0000
0100
0010
0100
0000
1000
0100
,
1000
0000
0010
0000
0100
0000
0001
0000
0010
0000
0100
0000
,
1000
0000
0010
0000
0100
0000
0001
0000
0010
0000
0100
0000
,
2000
0000
0002
0000
,
0000
0000
0000
0000
,
0000
0000
0000
0000
,
0000
0000
0000
0000
,
0000
0000
3003
0000
;

//---------------dance-single - TaroNuke----------------
#NOTES:
     dance-single:
     TaroNuke:
     Medium:
     14:
     0.667,0.841,0.131,0.496,0.095:
0000
0000
0000
0000
,
0000
0000
0000
0000
,
0000
0000
0000
0000
,
2000
3200
0320
2030
,
3001
0100
1000
0010
,
0200
0301
1000
0010
,
0200
0310
1000
0010
,
0200
0320
2030
3002
,
0023
0000
0000
0030
,
0001
0100
0010
0100
0001
1000
0100
0010
,
0002
0000
1003
0100
0001
0100
1000
0010
,
1000
0100
0010
0001
0100
0010
0100
0001
,
1000
0001
1000
0010
0001
0010
0100
0001
,
1000
0010
0100
0001
0100
0000
0001
0100
,
0020
0000
1030
0100
0001
0100
1000
0100
,
0010
0001
0100
0010
1000
0000
0010
0100
,
0002
0000
0003
0000
1000
0100
0001
0100
,
1000
0010
1000
0010
0001
0010
0001
0010
,
0100
0000
0110
0000
,
0001
0100
0001
0100
1000
0100
1000
0100
,
0010
0000
1001
0000
,
0101
0110
1010
0110
,
1000
0100
0010
0001
1000
0010
0100
0001
,
1000
0100
1000
0000
0001
0100
0001
0000
,
2000
3200
0320
0032
,
1003
0100
0010
0001
0100
0010
1000
0100
,
0010
0001
0100
0010
1000
0100
0010
0100
,
1000
0010
0100
0001
0010
0100
1000
0010
,
0100
0010
1000
0001
0100
0010
0100
0000
,
0001
0010
0100
1000
0010
0100
0001
0010
,
0100
1000
0010
0100
0001
0010
0100
0010
,
0001
0100
0010
1000
0100
0010
0001
0100
,
0010
0100
0001
1000
0100
1000
0010
0000
,
1000
0100
1000
0100
0010
0000
0001
0100
,
0010
0000
0000
0000
1100
0000
0000
0000
0010
0001
0000
0000
1100
0000
0000
0000
,
0001
0100
0001
0100
0010
0000
1000
0010
,
0100
0000
0000
0000
0011
0000
0000
0000
1000
0100
0000
0000
0011
0000
0000
0000
,
1000
0100
1000
0100
0010
0000
0001
0100
,
0010
0100
0001
1000
0001
0010
0100
1000
,
0001
0010
0001
0000
0100
0010
0100
0000
,
0001
0000
0000
0000
0100
0000
0000
0000
0010
0000
1000
0001
1000
0000
0010
0100
,
0020
0000
0000
0030
,
0000
0000
0000
0000
,
1000
0010
0100
0002
1003
0000
0000
0000
,
0001
0010
0100
2000
3010
0100
0002
0003
,
1000
0100
0010
0002
1003
0000
0000
0000
,
0001
0000
0100
0000
0010
0000
2000
0000
3001
0100
0010
0100
0001
0000
0000
0000
,
2000
0000
3001
0100
,
0010
2000
0000
3001
,
0100
0010
2000
0000
,
3001
0100
0010
2000
,
0000
3001
0100
0010
,
2000
0000
3001
0100
,
0010
2000
3001
0100
,
0010
0000
0000
2000
0000
0000
3001
0000
0001
0100
0000
0100
,
0010
0000
0010
1000
0000
1000
0001
0000
0010
0000
0100
0000
,
1000
0000
0100
0000
0010
0000
0002
0000
0000
1000
0000
0000
,
1000
1000
1000
1000
,
1000
1003
1001
0110
,
1001
0000
0000
0110
0000
0000
1000
0000
0100
0000
0010
0000
,
0001
0000
0010
0000
0100
0000
2000
0000
0000
0000
0000
0000
,
0000
0000
3020
0000
,
0000
0000
0000
0000
,
0000
0000
1030
1000
,
0010
1000
1000
0010
,
0100
0001
0100
0010
,
1000
0100
0010
0100
,
0001
0100
0010
0010
,
0001
0010
0010
0001
,
0100
1000
0100
0010
,
0100
0010
1000
0001
,
1000
0001
2000
3200
,
0320
0032
2003
3020
,
0230
0302
2003
3200
,
0320
0032
2003
3200
,
0302
0000
0203
0000
1300
0000
0010
1000
,
0010
0000
0100
0010
0100
0000
0001
0100
,
0001
0000
1000
0001
1000
0000
0100
0000
,
0010
0001
1000
0001
,
0010
0100
1000
0100
,
0001
1000
0010
0001
,
1000
0100
0001
0100
,
1000
0010
0100
0001
,
1000
0001
1000
0010
,
0001
1000
0100
0001
,
1000
0100
0001
0100
,
1000
0010
0001
0010
,
1000
0001
1000
1000
,
0100
0100
0010
0010
,
0001
0001
1000
1000
,
0010
0010
0100
0100
,
0001
0000
0001
0000
1000
0000
0001
0100
,
0001
0000
0100
0010
0100
0000
0010
1000
,
0010
0000
1000
0100
1000
0000
0001
0000
,
0010
0100
1000
0100
,
0010
0000
0001
0000
1010
0010
0100
0010
,
0001
0010
1000
0100
1000
0100
0010
0100
,
0001
0100
1000
1000
1010
0010
0100
0001
,
0101
0100
0010
1000
1100
0000
0000
0000
,
2000
0000
0000
0000
,
0000
0000
3000
0000
,
1000
0100
1000
0100
,
0001
0100
0001
0100
,
1000
0010
1000
0010
,
0001
0010
0001
0010
,
1000
0010
0001
0010
,
1000
0010
0100
0000
,
0001
0010
1000
0010
,
0001
0010
0100
0000
,
2000
3000
0000
0000
0200
0300
0000
0000
0020
0000
0030
0000
0002
0000
0003
0000
,
2000
0000
0000
3000
0020
0000
0000
0030
0200
0000
0000
0000
0302
0000
0000
0000
,
2003
0000
0000
0000
0200
3000
0000
0000
0020
0300
0000
0000
0002
0000
0030
0000
,
2000
0000
0003
0000
0020
0000
0000
3000
0200
0000
0000
0030
0001
0000
0000
0000
,
0301
0000
0100
0001
0100
0000
0010
0100
,
0010
0000
1000
0100
1000
0000
0001
0100
,
0001
0000
0100
0000
0010
0000
1000
0000
0010
0000
0100
0000
,
0001
0000
0010
0000
0100
0000
1000
0000
0100
0000
0010
0000
,
0002
0000
2000
0000
,
0000
0000
0000
0000
,
0000
0000
0000
0000
,
0000
0000
0000
0000
,
0000
0000
3003
0000
;

//---------------dance-single - TaroNuke----------------
#NOTES:
     dance-single:
     TaroNuke:
     Easy:
     10:
     0.451,0.753,0.204,0.518,0.000: // measure 1
0000
0000
0000
0000
,  // measure 2
0000
0000
0000
0000
,  // measure 3
0000
0000
0000
0000
,  // measure 4
0000
0000
0000
0000
,  // measure 5
1000
1000
0100
0010
,  // measure 6
0001
1000
0100
0001
,  // measure 7
1000
0001
0100
1000
,  // measure 8
0001
0010
0100
1000
,  // measure 9
2002
0000
3003
0000
,  // measure 10
1000
0010
0100
0010
,  // measure 11
1000
0000
0001
0100
,  // measure 12
0010
0100
0001
1000
,  // measure 13
0100
0000
1000
0010
,  // measure 14
0100
0001
0100
0010
,  // measure 15
1000
0100
0010
0001
,  // measure 16
0100
0010
1000
0100
,  // measure 17
0100
0000
0010
0000
,  // measure 18
1000
1010
0010
0110
,  // measure 19
0100
0000
0101
0000
,  // measure 20
0001
1001
1000
1010
,  // measure 21
0110
0000
0101
0000
,  // measure 22
1100
0011
1100
0011
,  // measure 23
0101
1010
0101
0000
,  // measure 24
1000
0100
0001
0100
,  // measure 25
1000
0010
0001
0010
,  // measure 26
2000
0000
3010
0200
0000
0301
0020
0000
,  // measure 27
0031
0020
0000
0130
1000
0000
0001
0000
,  // measure 28
2000
0000
3100
0020
0000
0031
0010
0000
,  // measure 29
0001
0001
1000
1000
,  // measure 30
2000
0000
3100
0002
0000
0103
2000
0000
,  // measure 31
3010
0200
0000
0301
0010
0000
0001
0000
,  // measure 32
2000
0000
3010
0002
0000
0013
2000
0000
,  // measure 33
3001
0100
0010
1000
,  // measure 34
0100
0021
0130
0021
,  // measure 35
0130
0000
1100
0000
,  // measure 36
0001
0210
0301
0210
,  // measure 37
0301
0000
1010
0000
,  // measure 38
0100
1020
0130
1020
,  // measure 39
0130
0010
0100
0000
,  // measure 40
0010
1002
0103
2001
,  // measure 41
0010
0000
3001
0000
1000
0002
0103
0002
,  // measure 42
2003
0000
0000
0000
,  // measure 43
3000
0000
0000
0000
,  // measure 44
0001
0100
0010
2000
3010
0000
0000
0000
,  // measure 45
1000
0010
0100
0002
0103
0100
0200
0300
,  // measure 46
0001
0100
0010
2000
3010
0000
0000
0000
,  // measure 47
1000
0010
0100
0002
1003
0010
0200
0000
,  // measure 48
0302
0000
0103
0000
,  // measure 49
0000
0002
0000
0103
,  // measure 50
0000
0000
0002
0000
,  // measure 51
0103
0000
0000
0002
,  // measure 52
0000
0103
0000
0000
,  // measure 53
0002
0000
0103
1000
,  // measure 54
0010
0002
0103
1000
,  // measure 55
0010
0002
1003
0002
,  // measure 56
1003
0002
0103
0010
,  // measure 57
0110
1001
2001
0000
,  // measure 58
0000
0000
0000
0000
,  // measure 59
0000
0000
0001
0001
,  // measure 60
0001
0001
3002
0000
,  // measure 61
0000
0000
2003
0000
,  // measure 62
0000
0000
3020
0000
,  // measure 63
0000
0000
0000
0000
,  // measure 64
0000
0000
1030
0000
,  // measure 65
0010
1000
0010
0000
,  // measure 66
1000
0000
0001
0100
,  // measure 67
0001
0000
1000
0010
,  // measure 68
1000
0000
0010
0000
,  // measure 69
0100
0010
0100
0000
,  // measure 70
0001
0000
0100
0010
,  // measure 71
0100
0000
0001
1000
,  // measure 72
0001
0000
1000
0000
,  // measure 73
0100
0000
0010
0000
,  // measure 74
0001
0000
1000
0000
,  // measure 75
0010
0000
0100
0000
,  // measure 76
0001
0000
1000
0100
,  // measure 77
1000
0100
0010
0000
,  // measure 78
0001
0000
0100
0000
,  // measure 79
0010
0000
1000
0000
,  // measure 80
0000
0000
0001
0000
,  // measure 81
0100
0001
0100
0000
,  // measure 82
0001
0000
1000
0010
,  // measure 83
1000
0000
0001
0100
,  // measure 84
0001
0000
0100
0000
,  // measure 85
0010
0100
0010
0000
,  // measure 86
1000
0000
0010
0100
,  // measure 87
0010
0000
1000
0001
,  // measure 88
1000
0000
0001
0000
,  // measure 89
0010
0000
0100
0000
,  // measure 90
1000
0000
0001
0000
,  // measure 91
0100
0000
0010
0000
,  // measure 92
1000
0000
0001
0010
,  // measure 93
0001
0010
0100
0000
,  // measure 94
1000
0000
0010
0000
,  // measure 95
0100
0000
0001
0100
,  // measure 96
0010
1000
0020
0000
,  // measure 97
0000
0000
0000
0100
0230
0000
0000
0000
,  // measure 98
0302
2003
3020
0000
,  // measure 99
0230
0000
0302
0000
,  // measure 100
2003
0000
0000
0000
,  // measure 101
0000
0000
3000
0000
,  // measure 102
0001
0000
0001
0000
,  // measure 103
1000
0000
1000
0000
,  // measure 104
0001
0000
1000
0000
,  // measure 105
0001
1000
0001
1000
,  // measure 106
0010
0000
0010
0000
,  // measure 107
0100
0000
0100
0000
,  // measure 108
0010
0000
0100
0000
,  // measure 109
0010
0100
0010
0000
,  // measure 110
2000
3000
0000
0000
0200
0300
0000
0000
0020
0000
0030
0000
0002
0000
0003
0000
,  // measure 111
2000
0000
0000
3000
0020
0000
0000
0030
0200
0000
0000
0000
0302
0000
0000
0000
,  // measure 112
2003
3200
0320
0032
,  // measure 113
2003
3020
0230
0302
,  // measure 114
1003
0000
0100
0000
,  // measure 115
0010
0000
0001
0000
,  // measure 116
1000
0100
0010
0000
,  // measure 117
0001
0010
0100
0000
,  // measure 118
2000
0000
0002
0000
,  // measure 119
0000
0000
0000
0000
,  // measure 120
0000
0000
0000
0000
,  // measure 121
0000
0000
0000
0000
,  // measure 122
0000
0000
3003
0000
;

//---------------dance-single - TaroNuke----------------
#NOTES:
     dance-single:
     TaroNuke:
     Beginner:
     6:
     0.260,0.487,0.131,0.248,0.000:
0000
0000
0000
0000
,
0000
0000
0000
0000
,
0000
0000
0000
0000
,
0000
0000
0000
0000
,
2000
0000
0000
0000
,
3200
0000
0000
0000
,
0302
0000
0000
0000
,
0023
0000
0000
0030
,
0220
0000
0330
0000
,
1000
0000
0010
0000
,
0100
0000
0000
0000
,
0001
0000
0100
0000
,
0010
0000
1000
0000
,
0001
0100
0010
0000
,
1000
0100
0010
0000
,
0100
0010
0001
0100
,
0100
0000
0010
0000
,
1010
0000
0110
0000
,
0101
0000
0000
0000
,
1001
0000
0110
0000
,
1001
0000
0101
0000
,
1000
0001
1000
0001
,
1000
0000
0000
0000
,
0010
0100
0010
0100
,
0020
0000
0000
0030
,
1000
0000
0001
0000
,
0100
0000
0001
1000
,
0001
0000
0100
0000
,
0010
0000
1000
0010
,
1000
0000
0100
0000
,
0001
0000
0010
1000
,
0001
0000
0100
0000
,
1000
0000
0010
0001
,
1000
0000
1000
0000
,
0010
0000
0010
0000
,
0100
0000
0100
0000
,
0001
0000
0001
0000
,
1000
1000
1000
0000
,
0010
0010
0010
0000
,
0100
0100
0100
0000
,
0001
0001
0001
0001
,
2001
0000
0000
0000
,
3000
0000
0000
0000
,
0001
1000
0010
0000
,
1000
0001
0100
0010
,
1000
0001
0010
0000
,
0001
1000
0010
0200
,
0320
0000
0030
0000
,
0000
2000
0000
3000
,
0000
0000
0002
0000
,
0003
0000
0000
0200
,
0000
0300
0000
0000
,
0002
0000
1003
0000
,
1000
0000
0001
0000
,
0001
0000
1000
0001
,
1000
0001
0100
0010
,
0100
0010
0000
0000
,
0200
0000
0000
0000
,
0000
0000
0010
0010
,
0010
0010
0020
0000
,
0000
0000
0330
0000
,
0000
0000
2002
0000
,
0000
0000
3003
0000
,
0000
0000
1000
0000
,
1000
0000
1000
0000
,
0000
0000
0001
0000
,
0001
0000
0001
0000
,
0000
0000
0100
0000
,
0100
0000
0100
0000
,
0000
0000
0010
0000
,
0010
0000
0010
0000
,
0000
0000
1000
0000
,
0010
0000
1000
0000
,
0000
0000
0001
0000
,
0100
0000
0001
0000
,
0000
0000
0100
0000
,
0010
0000
0100
0000
,
0000
0000
0010
0000
,
1000
0000
0010
0000
,
1000
0000
0010
0000
,
0000
0000
0010
0000
,
0000
0000
0100
0000
,
0000
0000
0100
0000
,
0000
0000
0001
0000
,
0000
0000
0001
0000
,
0000
0000
1000
0000
,
0000
0000
1000
0000
,
0000
0000
0002
0000
,
0000
0000
1003
0000
,
0000
0000
2000
0000
,
0000
0000
3010
0000
,
0000
0000
0020
0000
,
0000
0000
0130
0000
,
0000
0000
0200
0000
,
0000
0000
0301
0000
,
0000
0000
0101
0000
,
0000
0000
0000
0100
0110
0000
0000
0000
,
1001
1010
0101
0000
,
0110
0000
1001
0000
,
0220
0000
0000
0000
,
0330
0000
0000
0000
,
0001
0000
0000
0000
,
1000
0000
0000
0000
,
0001
0000
0000
0000
,
1000
0000
0000
0000
,
0010
0000
0000
0000
,
0100
0000
0000
0000
,
0010
0000
0010
0000
,
0010
0000
0000
0000
,
2000
0000
3200
0000
,
0320
0000
0032
0000
,
2003
0000
3200
0000
,
0320
0000
0032
0000
,
1003
0000
0100
0000
,
0010
0000
0001
0000
,
1000
0000
0010
0000
,
0001
0000
0100
0000
,
2000
0000
0002
0000
,
0000
0000
0000
0000
,
0000
0000
0000
0000
,
0000
0000
0000
0000
,
0000
0000
3003
0000
;
