#TITLE:Animal;
#SUBTITLE:;
#ARTIST:Neon Trees;
#TITLETRANSLIT:;
#SUBTITLETRANSLIT:;
#ARTISTTRANSLIT:;
#GENRE:;
#CREDIT:Chewi☆;
#MENUCOLOR:#FFFF00;
#METERTYPE:DDR X;
#BANNER:Animal (Neon Trees).png;
#BACKGROUND:Animal (Neon Trees)-bg.png;
#LYRICSPATH:;
#CDTITLE:./CDTITLES/DanceDanceRevolution skyMIX2 -FREEDOM-.png;
#MUSIC:Animal (Neon Trees).mp3;
#OFFSET:-1.683;
#SAMPLESTART:37.364;
#SAMPLELENGTH:15.000;
#SELECTABLE:YES;
#LISTSORT:;
#DISPLAYBPM:148.000;
#BPMS:0.000=148.000;
#STOPS:;
#BGCHANGES:-20.000=X2_Julio.avi=1.000=0=0=1,
99999=-nosongbg-=1.000=0=0=0 // don't automatically add -songbackground-
;
#ATTACKS:;

//---------------dance-single - Chewi----------------
#NOTES:
     dance-single:
     Chewi:
     Easy:
     5:
     0.275,0.323,0.196,0.196,0.000: // measure 1
0000
0000
0000
0000
,  // measure 2
0000
0000
0000
0000
,  // measure 3
0000
0000
0000
0000
,  // measure 4
0000
0000
0000
0000
,  // measure 5
1000
0100
0200
0000
,  // measure 6
0000
0300
0010
0100
,  // measure 7
0001
0010
0020
0000
,  // measure 8
0030
0100
0010
0100
,  // measure 9
1000
0000
1001
0000
,  // measure 10
0001
0000
0110
0000
,  // measure 11
0001
0010
1000
0100
,  // measure 12
0002
0000
0000
0003
,  // measure 13
0001
0100
0200
0000
,  // measure 14
0300
1000
0001
1000
,  // measure 15
0001
0010
0020
0000
,  // measure 16
0030
0100
1000
0001
,  // measure 17
1001
0000
1000
0000
,  // measure 18
0110
0000
0001
0000
,  // measure 19
0001
0100
1000
0010
,  // measure 20
0001
0010
1000
0100
,  // measure 21
0002
0000
0000
0000
,  // measure 22
2000
0000
0000
3003
,  // measure 23
0001
0001
0010
0010
,  // measure 24
0200
0000
0320
0000
,  // measure 25
1030
1000
0001
0001
,  // measure 26
2000
0000
3200
0000
,  // measure 27
0310
0010
0100
0100
,  // measure 28
0020
0000
0032
0000
,  // measure 29
1003
1000
0001
0000
,  // measure 30
0110
0000
1001
0000
,  // measure 31
0010
0010
0100
0000
,  // measure 32
0110
0000
1001
0000
,  // measure 33
0001
0100
1000
0010
,  // measure 34
0010
0010
0010
0000
,  // measure 35
0010
1000
0100
0001
,  // measure 36
0010
0010
0010
0000
,  // measure 37
0110
0000
1001
0000
,  // measure 38
0001
0100
1000
0010
,  // measure 39
1001
0000
0110
0000
,  // measure 40
0001
0010
1000
0100
,  // measure 41
0110
0000
1001
0000
,  // measure 42
0001
0100
1000
0010
,  // measure 43
0110
0000
1001
0000
,  // measure 44
0010
0010
0100
0100
,  // measure 45
0110
0100
0200
0300
,  // measure 46
0001
0010
0100
1000
,  // measure 47
1001
0001
0002
0003
,  // measure 48
0001
0100
1000
0100
,  // measure 49
0002
0010
0013
0000
,  // measure 50
0010
0100
1000
0100
,  // measure 51
2000
0100
3100
0000
,  // measure 52
0010
0001
0100
1000
,  // measure 53
0020
0000
0000
0000
,  // measure 54
0000
0000
0000
0000
,  // measure 55
0030
0000
0000
0000
;

//---------------dance-single - Chewi----------------
#NOTES:
     dance-single:
     Chewi:
     Medium:
     8:
     0.369,0.441,0.338,0.120,0.000: // measure 1
0000
0000
0000
0000
,  // measure 2
0000
0000
0000
0000
,  // measure 3
0000
0000
0000
0000
,  // measure 4
0000
0000
0000
0000
,  // measure 5
1000
0000
0001
1000
0002
0000
0000
0000
,  // measure 6
0000
0103
1000
0010
,  // measure 7
0100
0000
0010
0100
0020
0000
0000
0000
,  // measure 8
0030
0001
0010
0100
,  // measure 9
1000
1001
0001
1001
,  // measure 10
0100
0010
1000
0100
,  // measure 11
0001
0010
0101
0010
,  // measure 12
1100
0000
0001
0000
1000
0001
1000
0000
,  // measure 13
0001
0010
0100
0000
2000
0000
0000
0000
,  // measure 14
3000
0001
1000
0010
,  // measure 15
0100
0000
0001
0100
2000
0000
0000
0000
,  // measure 16
3000
0010
0001
0010
,  // measure 17
0100
0110
1000
1001
,  // measure 18
0001
0101
1000
1100
,  // measure 19
0001
0011
1000
0100
,  // measure 20
0001
1000
0100
0001
,  // measure 21
0002
0000
0000
0000
,  // measure 22
2000
0000
0000
3003
,  // measure 23
0001
0110
1001
0000
,  // measure 24
1000
0100
0001
0100
1000
0000
0000
0000
,  // measure 25
1000
1001
0110
0000
,  // measure 26
1000
0010
0001
0010
1000
0000
0001
0000
,  // measure 27
0010
1010
0100
1000
,  // measure 28
1000
1001
0010
0110
,  // measure 29
0100
0001
0100
0010
,  // measure 30
1000
0001
0010
0000
0100
0000
0011
0000
,  // measure 31
0000
0100
1000
0001
,  // measure 32
0100
0000
0010
1000
0001
0000
0010
0000
,  // measure 33
0100
0010
0100
0000
0010
0000
0001
0000
,  // measure 34
1000
0010
0001
0000
0100
1000
0001
0000
,  // measure 35
0100
0010
0100
0010
,  // measure 36
1010
0100
0011
0100
,  // measure 37
0001
1000
0001
1000
0002
0000
0000
0000
,  // measure 38
0000
0000
1000
0010
,  // measure 39
1003
0100
1000
0100
2000
0000
0000
0000
,  // measure 40
0000
0001
0010
3100
,  // measure 41
0010
0100
0010
0100
0020
0000
0000
0000
,  // measure 42
0000
0100
1000
0130
,  // measure 43
1000
0100
0010
0000
0001
0000
0010
0000
,  // measure 44
1000
0100
0001
0010
,  // measure 45
0110
0000
0001
0000
0010
0100
1000
0000
,  // measure 46
1001
0110
1001
0110
,  // measure 47
1000
0000
0001
0000
1000
0001
0100
0000
,  // measure 48
0101
1100
0011
1010
,  // measure 49
1000
0001
0010
0000
0100
0000
1001
0000
,  // measure 50
0010
1000
0100
0001
,  // measure 51
0010
0100
0010
0000
0001
0000
1100
0000
,  // measure 52
1000
0000
0001
1000
0010
0100
0001
0000
,  // measure 53
0220
0000
0000
0000
,  // measure 54
0000
0000
0000
0000
,  // measure 55
0330
0000
0000
0000
;

//---------------dance-single - Chewi----------------
#NOTES:
     dance-single:
     Chewi:
     Hard:
     10:
     0.520,0.529,0.229,0.218,0.000: // measure 1
0000
0000
0000
0000
,  // measure 2
0000
0000
0000
0000
,  // measure 3
0000
0000
0000
0000
,  // measure 4
0000
0000
0000
0000
,  // measure 5
1000
0100
0001
0100
2000
0000
0000
0000
,  // measure 6
0000
0000
3001
0100
0010
1000
0001
0100
,  // measure 7
0010
1000
0010
0001
0020
0000
0000
0000
,  // measure 8
0000
0000
1030
0100
0010
0001
0010
0100
,  // measure 9
1000
0001
0101
0000
0001
1000
1100
0000
,  // measure 10
0010
0100
1000
0001
0100
0010
1000
0001
,  // measure 11
2000
0100
0001
3010
,  // measure 12
0002
0100
1000
0013
,  // measure 13
0001
0010
1000
0010
0002
0000
0000
0000
,  // measure 14
0000
0000
1003
0010
0100
0001
0100
1000
,  // measure 15
0100
0001
0100
1000
0200
0000
0000
0000
,  // measure 16
0000
0000
1300
0010
0100
1000
0001
1000
,  // measure 17
0100
1000
1001
0000
0100
0010
1001
0000
,  // measure 18
1000
0100
0010
0001
1000
0100
0010
0001
,  // measure 19
1000
0010
0002
0000
0203
0000
0320
0000
,  // measure 20
0032
2003
3020
0130
,  // measure 21
0202
0000
0000
0300
,  // measure 22
2000
0000
0000
0000
3003
1000
0001
1000
,  // measure 23
0001
0110
0011
0110
,  // measure 24
0010
0001
0100
1000
0010
0100
1000
0000
,  // measure 25
0010
0101
1010
1000
,  // measure 26
0001
0010
1000
0100
0001
0010
0100
1000
,  // measure 27
0001
1000
1100
0000
1000
0001
0101
0000
,  // measure 28
0010
0100
0010
0100
0001
1000
0001
1000
,  // measure 29
0001
0010
0110
0000
1001
0000
1010
0000
,  // measure 30
1000
0010
0001
0100
1000
0100
0001
0010
,  // measure 31
0100
0001
0010
0000
0110
0000
0011
0000
,  // measure 32
0010
0100
1000
0001
0100
1000
0100
0001
,  // measure 33
1000
0100
1100
0000
0001
0010
0110
0000
,  // measure 34
0010
0001
0100
0001
0010
1000
0100
1000
,  // measure 35
0010
0100
0010
0000
0100
0000
1001
0000
,  // measure 36
0100
0010
1000
0100
0010
0001
0100
0010
,  // measure 37
0100
0001
0010
0001
0020
0000
1000
0000
,  // measure 38
0100
0001
0100
0130
,  // measure 39
0001
0010
0100
1000
0020
0000
0100
0000
,  // measure 40
1000
0001
0100
0130
,  // measure 41
1000
0010
0100
0001
0020
0000
0100
0000
,  // measure 42
0001
1000
0001
0031
,  // measure 43
0001
0010
0100
0000
1000
0100
0010
0000
,  // measure 44
0001
0010
0100
1000
0010
0100
0001
0100
,  // measure 45
0010
1000
0100
1000
0010
1000
0100
1000
,  // measure 46
0010
0100
0010
0100
0001
1000
0001
1000
,  // measure 47
0001
0010
0100
0010
0001
0010
0100
0010
,  // measure 48
0001
0010
0001
0010
0001
0100
0001
0100
,  // measure 49
0001
0100
0010
1000
0001
0010
0100
1000
,  // measure 50
0001
1000
0010
0100
0001
1000
0100
0010
,  // measure 51
0001
0010
0100
1000
0001
0010
0100
1000
,  // measure 52
0001
1000
0010
1000
0001
0010
0100
0010
,  // measure 53
2002
0000
0000
0000
,  // measure 54
0000
0000
0000
0000
,  // measure 55
3003
0000
0000
0000
;

//---------------dance-single - Chewi----------------
#NOTES:
     dance-single:
     Chewi:
     Beginner:
     2:
     0.159,0.206,0.044,0.044,0.000:
0000
0000
0000
0000
,
0000
0000
0000
0000
,
0000
0000
0000
0000
,
0000
0000
0000
0000
,
1000
1000
1000
0000
,
0000
0000
0001
0000
,
0001
0001
0001
0000
,
0000
0000
1000
0000
,
1000
0000
0100
0000
,
0010
0000
0001
0000
,
1001
0000
0000
0000
,
0110
0000
0000
0000
,
0001
0001
0001
0000
,
0000
0000
1000
0000
,
1000
1000
1000
0000
,
0000
0000
0001
0000
,
0001
0000
0010
0000
,
0100
0000
1000
0000
,
1001
0000
0000
0000
,
0110
0000
0000
0000
,
0200
0000
0000
0000
,
0000
0000
0000
0300
,
0100
0100
0100
0000
,
0010
0000
0100
0000
,
0010
0010
0010
0000
,
0010
0000
0100
0000
,
0001
0000
1000
0000
,
0100
0000
0010
0000
,
1000
1000
1000
0000
,
0001
0000
1000
0000
,
0001
0001
0001
0000
,
1000
0000
0001
0000
,
0010
0000
0100
0000
,
1000
0000
0001
0000
,
0100
0000
0010
0000
,
1000
0000
0100
0000
,
0001
0001
0001
0000
,
0000
0000
0100
0000
,
1000
1000
1000
0000
,
0000
0000
0010
0000
,
0010
0010
0010
0000
,
0000
0000
1000
0000
,
0100
0100
0100
0000
,
0000
0000
0001
0000
,
2000
0000
0000
3000
,
1000
0000
1000
0000
,
0002
0000
0000
0003
,
0001
0000
0001
0000
,
0100
0100
0100
0000
,
0010
0010
0010
0000
,
1000
0000
0001
0000
,
0001
0000
1000
0000
,
0200
0000
0000
0000
,
0000
0000
0000
0000
,
0300
0000
0000
0000
;
