#TITLE:Angel In The Night;
#SUBTITLE:;
#ARTIST:Basshunter;
#TITLETRANSLIT:;
#SUBTITLETRANSLIT:;
#ARTISTTRANSLIT:;
#GENRE:;
#CREDIT:xRGTMx;
#MENUCOLOR:;
#METERTYPE:DDR;
#BANNER:Angel In The Night.png;
#BACKGROUND:Angel In The Night-bg.png;
#LYRICSPATH:;
#CDTITLE:;
#MUSIC:Angel In The Night.mp3;
#OFFSET:-0.040;
#SAMPLESTART:80.540;
#SAMPLELENGTH:12.000;
#SELECTABLE:YES;
#LISTSORT:;
#BPMS:0.000=140.000;
#STOPS:;
#BGCHANGES:;
#ATTACKS:;

//---------------dance-single - xRGTMx----------------
#NOTES:
     dance-single:
     xRGTMx:
     Hard:
     9:
     0.468,0.488,0.215,0.368,0.009: // measure 1
0000
0000
0000
0000
,  // measure 2
0000
0000
0000
0000
,  // measure 3
0000
0020
0230
0000
,  // measure 4
0000
0000
0301
0020
0000
0130
1000
0020
,  // measure 5
0000
0000
0230
0000
0302
0000
0000
1003
,  // measure 6
0200
0000
0000
0020
0300
0032
0000
1003
,  // measure 7
0001
0000
1000
0010
0100
0000
0001
0000
,  // measure 8
1000
0000
0100
0010
0100
0000
1000
0000
,  // measure 9
0010
0100
0010
1000
0100
0010
0001
0100
,  // measure 10
0010
0100
0001
0010
0100
1000
0010
0200
,  // measure 11
0002
0000
0000
0000
0303
0001
0100
0001
,  // measure 12
1000
1100
0110
0011
,  // measure 13
0001
0000
0100
0000
0110
0000
1000
0002
,  // measure 14
1000
0000
1003
0001
1000
0000
0100
0000
,  // measure 15
0120
0000
0001
0000
0031
0000
0100
0010
,  // measure 16
1000
0000
1000
0100
0020
0000
0001
0000
,  // measure 17
0032
1000
0000
1000
0000
1000
0003
1000
,  // measure 18
0001
0000
0100
0010
1000
0000
0100
0010
,  // measure 19
0001
0000
1000
0000
0010
0100
0000
1001
,  // measure 20
1000
0011
0110
1100
,  // measure 21
1000
0000
0001
0000
0010
0100
1000
0001
,  // measure 22
2000
0000
0100
0000
3100
0010
0002
0000
,  // measure 23
1000
0000
1000
0000
1003
0001
0010
0000
,  // measure 24
0200
1000
0010
0001
,  // measure 25
0010
1000
0001
1300
,  // measure 26
0010
0110
1001
1100
,  // measure 27
0010
0000
0001
0100
0000
0010
2000
0002
,  // measure 28
0000
0000
0000
0000
,  // measure 29
0000
0000
3003
1001
,  // measure 30
1000
0100
0010
0100
2000
0000
0001
0000
,  // measure 31
3002
0000
0000
0103
0020
0000
1000
0000
,  // measure 32
1030
0200
0000
0310
0002
0000
1000
0000
,  // measure 33
2003
0000
0000
3020
0000
0230
0000
0001
,  // measure 34
0302
0023
0230
1000
,  // measure 35
2300
0010
0001
0100
,  // measure 36
3002
0000
0023
0000
0230
0000
1300
0020
,  // measure 37
0000
0000
0130
0002
0000
0000
0013
0100
,  // measure 38
1000
0010
0100
0001
,  // measure 39
0010
0000
0000
0000
0100
0000
0000
0000
1000
0000
0000
0000
0010
0000
0000
0010
,  // measure 40
0100
0001
0010
0100
,  // measure 41
1000
0000
0000
0000
0001
0000
0000
0000
0100
0000
0000
0000
0010
0000
0000
0010
,  // measure 42
1000
0001
1000
0001
1000
0001
1000
0001
,  // measure 43
0100
0010
0100
0010
0100
0010
0100
0010
,  // measure 44
1000
0100
0010
0001
0100
0010
1000
0100
,  // measure 45
0010
0001
0100
0010
1000
0100
0010
0002
,  // measure 46
2000
0000
0000
0000
,  // measure 47
0000
0000
0000
0000
3003
1000
0001
1000
,  // measure 48
0001
0000
0100
0010
1000
0000
1001
0000
,  // measure 49
1000
0000
0100
0010
0100
1000
0001
0000
,  // measure 50
0100
0000
0010
0100
0001
0000
0011
0000
,  // measure 51
0010
0000
0100
1000
0001
0100
0010
0000
,  // measure 52
0100
0010
1000
0100
0010
0000
1100
0000
,  // measure 53
0010
0000
0100
1000
0001
0000
0100
0000
,  // measure 54
0010
0000
0100
0001
0010
0000
0100
0000
,  // measure 55
1000
0001
1000
0000
0110
0000
1001
0000
,  // measure 56
1000
0000
0100
0010
0001
0000
1001
0000
,  // measure 57
0001
0000
0100
0010
0100
0001
1000
0000
,  // measure 58
0100
0000
0010
0100
1000
0000
1010
0000
,  // measure 59
0010
0000
0100
0001
1000
0100
0010
0000
,  // measure 60
0100
0010
0001
0100
0010
0000
0101
0000
,  // measure 61
0010
0000
0100
0001
1000
0000
0100
0000
,  // measure 62
0010
0000
0100
1000
0010
0000
0100
0000
,  // measure 63
0001
1000
0001
0000
0110
0000
1001
0000
,  // measure 64
0220
0000
0000
0000
,  // measure 65
0330
0000
0000
0000
;

//---------------dance-single - xRGTMx----------------
#NOTES:
     dance-single:
     xRGTMx:
     Beginner:
     3:
     0.163,0.230,0.090,0.072,0.000: // measure 1
0000
0000
0000
0000
,  // measure 2
0000
0000
0000
0000
,  // measure 3
1000
0000
0000
0000
,  // measure 4
0001
0000
0000
0000
,  // measure 5
0100
0000
0000
0000
,  // measure 6
0010
0000
0000
0000
,  // measure 7
1000
0000
1000
0000
,  // measure 8
0001
0000
0001
0000
,  // measure 9
0200
0000
0300
0000
,  // measure 10
0020
0000
0030
0000
,  // measure 11
1001
0000
0000
0000
,  // measure 12
1000
0000
1000
0000
,  // measure 13
0001
0000
0001
0000
,  // measure 14
0100
0000
0100
0000
,  // measure 15
0010
0000
0010
0000
,  // measure 16
1000
0000
1000
0000
,  // measure 17
0100
0000
0100
0000
,  // measure 18
0010
0000
0010
0000
,  // measure 19
0001
0000
0001
0000
,  // measure 20
1000
0000
1000
0000
,  // measure 21
0010
0000
0010
0000
,  // measure 22
0100
0000
0100
0000
,  // measure 23
0001
0000
0001
0000
,  // measure 24
1000
0000
0100
0000
,  // measure 25
0010
0000
0001
0000
,  // measure 26
2000
0000
3000
0000
,  // measure 27
0002
0000
0003
0000
,  // measure 28
2002
0000
0000
0000
,  // measure 29
3003
0000
0000
0000
,  // measure 30
1000
0000
0000
0000
,  // measure 31
0000
0000
0000
0000
,  // measure 32
0001
0000
0000
0000
,  // measure 33
0000
0000
0000
0000
,  // measure 34
0100
0000
0000
0000
,  // measure 35
0000
0000
0000
0000
,  // measure 36
0010
0000
0000
0000
,  // measure 37
0000
0000
0000
0000
,  // measure 38
1000
1000
1000
1000
,  // measure 39
1000
1000
1000
0000
,  // measure 40
0001
0001
0001
0001
,  // measure 41
0001
0001
0001
0000
,  // measure 42
0100
0100
0100
0100
,  // measure 43
0100
0100
0100
0000
,  // measure 44
0010
0010
0010
0010
,  // measure 45
0010
0010
0010
0000
,  // measure 46
1001
0000
0000
0000
,  // measure 47
0000
0000
0000
1000
,  // measure 48
1000
0000
1000
0000
,  // measure 49
0001
0000
0001
0000
,  // measure 50
0100
0000
0100
0000
,  // measure 51
0010
0000
0010
0000
,  // measure 52
1001
0000
0100
0000
,  // measure 53
1001
0000
0010
0000
,  // measure 54
0110
0000
1000
0000
,  // measure 55
0110
0000
0001
0000
,  // measure 56
1000
0000
0001
0000
,  // measure 57
1000
0000
0001
0000
,  // measure 58
0100
0000
0010
0000
,  // measure 59
0100
0000
0010
0000
,  // measure 60
1001
0000
0010
0000
,  // measure 61
1001
0000
0100
0000
,  // measure 62
1000
0000
0100
0000
,  // measure 63
0001
0000
0010
0000
,  // measure 64
2002
0000
0000
0000
,  // measure 65
3003
0000
0000
0000
;

//---------------dance-single - xRGTMx----------------
#NOTES:
     dance-single:
     xRGTMx:
     Easy:
     4:
     0.227,0.258,0.054,0.144,0.000: // measure 1
0000
0000
0000
0000
,  // measure 2
0000
0000
0000
0000
,  // measure 3
1000
0000
0000
0000
0000
0010
0000
0000
,  // measure 4
0010
0000
0000
0000
0000
0100
0000
0000
,  // measure 5
0100
0000
0000
0000
0000
0001
0000
0000
,  // measure 6
0001
0000
0000
0000
,  // measure 7
1000
0000
1000
0000
,  // measure 8
0001
0000
0001
0000
,  // measure 9
0200
0000
0300
0000
,  // measure 10
0020
0000
0030
0000
,  // measure 11
1001
0000
0000
0000
,  // measure 12
1000
1000
1000
0000
,  // measure 13
0001
0000
0100
0000
,  // measure 14
0001
0001
0001
0000
,  // measure 15
1000
0000
0100
0000
,  // measure 16
0010
0010
0010
0000
,  // measure 17
0100
0000
1000
0000
,  // measure 18
0010
0010
0010
0000
,  // measure 19
0100
0000
0001
0000
,  // measure 20
1000
1000
0001
0000
,  // measure 21
1000
0000
0100
0000
,  // measure 22
1000
1000
0001
0000
,  // measure 23
0010
0000
0001
0000
,  // measure 24
0100
0100
0010
0000
,  // measure 25
1000
1000
0100
0000
,  // measure 26
0010
0000
0001
0000
,  // measure 27
1001
0100
0100
0000
,  // measure 28
2002
0000
0000
0000
,  // measure 29
3003
0000
0000
1001
,  // measure 30
0010
0000
0010
0000
,  // measure 31
1000
0000
1000
0000
,  // measure 32
0001
0000
0001
0000
,  // measure 33
0010
0000
0010
0000
,  // measure 34
0002
0000
2003
0000
,  // measure 35
3002
0000
2003
0000
,  // measure 36
3020
0000
0230
0000
,  // measure 37
0320
0000
0230
0000
,  // measure 38
0301
0001
0001
0001
,  // measure 39
0001
0001
0001
0001
,  // measure 40
1000
1000
1000
1000
,  // measure 41
1000
1000
1000
1000
,  // measure 42
0100
0100
0100
0100
,  // measure 43
0100
0100
0100
0100
,  // measure 44
0010
0010
0010
0010
,  // measure 45
0010
0010
0010
0010
,  // measure 46
2002
0000
0000
0000
,  // measure 47
3003
0000
0000
0000
,  // measure 48
1000
1000
1000
0000
,  // measure 49
0100
0100
0100
0000
,  // measure 50
0010
0010
0010
0000
,  // measure 51
0001
0001
0001
0000
,  // measure 52
1000
1000
1000
0000
,  // measure 53
0010
0010
0010
0000
,  // measure 54
0100
0100
0100
0000
,  // measure 55
0001
0001
0001
0000
,  // measure 56
1000
0100
1000
0000
,  // measure 57
0100
0010
0100
0000
,  // measure 58
0010
0001
0010
0000
,  // measure 59
0001
1000
0001
0000
,  // measure 60
1000
0100
0010
0000
,  // measure 61
0100
0010
0001
0000
,  // measure 62
0010
0001
1000
0000
,  // measure 63
0001
1000
0010
0000
,  // measure 64
0220
0000
0000
0000
,  // measure 65
0330
0000
0000
0000
;

//---------------dance-single - xRGTMx----------------
#NOTES:
     dance-single:
     xRGTMx:
     Medium:
     7:
     0.305,0.488,0.117,0.126,0.000: // measure 1
0000
0000
0000
0000
,  // measure 2
0000
0000
0000
0000
,  // measure 3
1001
0000
0000
0000
0000
1100
0000
0000
,  // measure 4
0101
0000
0000
0000
0000
1001
0000
0000
,  // measure 5
0110
0000
0000
0000
0000
0110
0000
0000
,  // measure 6
1001
0000
0000
0000
0000
0001
1000
0001
,  // measure 7
1000
1000
0100
0100
,  // measure 8
0010
0010
0001
0001
,  // measure 9
2000
3200
0320
0032
,  // measure 10
0203
0320
2030
3001
,  // measure 11
2002
0000
0000
3003
,  // measure 12
1000
1000
0001
0001
,  // measure 13
1000
1000
0001
0000
,  // measure 14
0100
0100
0010
0010
,  // measure 15
0100
0100
0010
0000
,  // measure 16
1000
1000
0100
0100
,  // measure 17
0010
0010
0001
0000
,  // measure 18
0100
0100
0001
0001
,  // measure 19
1000
0001
1000
0000
,  // measure 20
0100
1000
0010
0010
,  // measure 21
0100
0001
1000
0000
,  // measure 22
0001
0010
0100
0100
,  // measure 23
0010
0001
0100
0000
,  // measure 24
0010
1000
0100
0010
,  // measure 25
0100
1000
0001
0000
,  // measure 26
0100
0010
1000
0001
,  // measure 27
0010
0100
1000
0001
,  // measure 28
2002
0000
0000
0000
,  // measure 29
0000
0000
3003
1001
,  // measure 30
1000
0000
0000
0010
0000
0000
0100
0000
,  // measure 31
0001
0000
0000
0010
0000
0000
0100
0000
,  // measure 32
1000
0000
0000
0001
0000
0000
0100
0000
,  // measure 33
0010
0000
0000
0100
0000
0000
0001
0000
,  // measure 34
0010
0000
0000
0100
0000
0000
1000
0000
,  // measure 35
0010
0000
0000
0100
0000
0000
0001
0000
,  // measure 36
1000
0000
0000
0100
0000
0000
0010
0000
,  // measure 37
0001
0000
0000
0100
0000
0000
0010
0000
,  // measure 38
1000
0001
1000
0001
,  // measure 39
0100
0010
0100
0010
,  // measure 40
1000
0001
1000
0001
,  // measure 41
0010
0100
0010
0100
,  // measure 42
1000
1000
0001
0001
,  // measure 43
0100
0100
0010
0010
,  // measure 44
1000
0001
1000
0000
0001
1000
0001
0000
,  // measure 45
0100
0010
0100
0000
0010
0100
0010
0000
,  // measure 46
0200
0000
0000
0000
,  // measure 47
0000
0000
0000
0310
,  // measure 48
0010
1000
0100
0010
,  // measure 49
0100
0100
1000
1000
,  // measure 50
0001
0100
0010
1000
,  // measure 51
0001
0001
1000
1000
,  // measure 52
0100
0010
0001
0100
,  // measure 53
0010
0010
0100
0100
,  // measure 54
0001
0010
0100
1000
,  // measure 55
0001
1000
1001
0000
,  // measure 56
0010
0001
0100
0010
,  // measure 57
0100
0100
0001
0001
,  // measure 58
1000
0100
0010
0001
,  // measure 59
1000
1000
0001
0001
,  // measure 60
0100
0010
1000
0100
,  // measure 61
0010
0010
0100
0100
,  // measure 62
1000
0010
0100
0001
,  // measure 63
1000
0001
1001
0000
,  // measure 64
2002
0000
0000
0000
,  // measure 65
3003
0000
0000
0000
;
