#TITLE:And She Said;
#SUBTITLE:;
#ARTIST:Lucas Prata;
#TITLETRANSLIT:;
#SUBTITLETRANSLIT:;
#ARTISTTRANSLIT:;
#GENRE:;
#CREDIT:Chewi☆;
#MENUCOLOR:#FFFF00;
#METERTYPE:DDR X;
#BANNER:And She Said.png;
#BACKGROUND:And She Said-bg.png;
#LYRICSPATH:;
#CDTITLE:./CDTITLES/DanceDanceRevolution skyMIX2 -FREEDOM-.png;
#MUSIC:And She Said.mp3;
#OFFSET:-11.205;
#SAMPLESTART:61.524;
#SAMPLELENGTH:15.000;
#SELECTABLE:YES;
#LISTSORT:;
#DISPLAYBPM:130.000;
#BPMS:0.000=130.000;
#STOPS:;
#BGCHANGES:-32.000=X2_Jenny.avi=1.000=0=0=1,
99999=-nosongbg-=1.000=0=0=0 // don't automatically add -songbackground-
;
#ATTACKS:;

//---------------dance-single - Chewi----------------
#NOTES:
     dance-single:
     Chewi:
     Easy:
     4:
     0.186,0.210,0.054,0.195,0.000: // measure 1
0000
0000
0000
0000
,  // measure 2
0000
0000
0000
0000
,  // measure 3
0000
0000
0000
0000
,  // measure 4
0000
0000
0000
0000
,  // measure 5
1000
0000
0100
0000
,  // measure 6
0001
0000
0100
0000
,  // measure 7
0020
0030
0010
0000
,  // measure 8
0200
0300
0100
0000
,  // measure 9
0001
0000
0010
0000
,  // measure 10
1000
0000
0010
0000
,  // measure 11
0200
0300
0100
0000
,  // measure 12
0020
0030
0010
0000
,  // measure 13
1000
0010
0100
0000
,  // measure 14
1000
1000
1000
0000
,  // measure 15
0001
0100
0010
0000
,  // measure 16
0001
0001
0001
0000
,  // measure 17
0100
0010
0100
0000
,  // measure 18
1000
1000
1000
0000
,  // measure 19
0010
0100
0010
0000
,  // measure 20
0001
0001
0001
0000
,  // measure 21
2000
3000
0200
0300
,  // measure 22
0020
0030
0002
0003
,  // measure 23
1000
0001
1000
0001
,  // measure 24
1000
0000
0000
0000
,  // measure 25
0002
0003
0200
0300
,  // measure 26
0020
0030
2000
3000
,  // measure 27
0010
0100
0010
0100
,  // measure 28
0010
0000
0000
0000
,  // measure 29
1000
1001
0001
0000
,  // measure 30
0002
0000
1003
0000
,  // measure 31
0001
0010
1000
0000
,  // measure 32
0100
0100
0100
0000
,  // measure 33
0001
1001
1000
0000
,  // measure 34
2000
0000
3001
0000
,  // measure 35
1000
0010
0001
0000
,  // measure 36
0100
0100
0100
0000
,  // measure 37
0010
0110
0010
0000
,  // measure 38
0020
0000
0130
0000
,  // measure 39
0010
1000
0100
0000
,  // measure 40
0010
0010
0010
0000
,  // measure 41
0010
0110
0100
0000
,  // measure 42
0200
0000
0310
0000
,  // measure 43
2002
0000
0000
0000
,  // measure 44
3003
0000
0000
0000
;

//---------------dance-single - Chewi----------------
#NOTES:
     dance-single:
     Chewi:
     Medium:
     7:
     0.294,0.350,0.217,0.065,0.000: // measure 1
0000
0000
0000
0000
,  // measure 2
0000
0000
0000
0000
,  // measure 3
0000
0000
0000
0000
,  // measure 4
0000
0000
0000
0000
,  // measure 5
1000
1100
0010
0001
,  // measure 6
0100
1000
0010
0001
,  // measure 7
0010
0100
0010
0000
0100
0000
0110
0000
,  // measure 8
0100
0010
0100
0000
0010
0000
0110
0000
,  // measure 9
0001
0101
1000
0010
,  // measure 10
0001
0100
1000
0100
,  // measure 11
0010
0100
0010
0000
0100
0000
0100
0000
,  // measure 12
0100
0010
0100
0000
0010
0000
0010
0000
,  // measure 13
0001
0010
0100
0000
1000
0000
0001
0000
,  // measure 14
0100
1000
0010
0001
,  // measure 15
0001
0010
0100
0000
1000
0000
0100
0000
,  // measure 16
0001
0010
0100
0010
,  // measure 17
1000
0100
1000
0000
0001
0000
0010
0000
,  // measure 18
0001
0010
0001
0000
0010
0000
0100
0000
,  // measure 19
1000
1001
0001
1001
,  // measure 20
0010
1000
0010
0001
,  // measure 21
0100
0100
0100
0000
0010
0000
0100
0000
,  // measure 22
0010
0010
0010
0000
0100
0000
0010
0000
,  // measure 23
0001
0101
1000
1100
,  // measure 24
0001
1000
0100
0000
1000
0001
0100
0000
,  // measure 25
0010
0100
0010
0110
,  // measure 26
1000
0100
1000
0101
,  // measure 27
0001
1000
0100
0000
1000
0001
0100
0000
,  // measure 28
0020
2030
3200
0302
,  // measure 29
0013
0100
0010
0000
0100
0000
0000
0000
,  // measure 30
0100
0010
0100
0000
0100
0000
0000
0000
,  // measure 31
1010
0000
0000
0101
0000
0000
0000
0000
,  // measure 32
0101
0000
0000
1010
0000
0000
0000
0000
,  // measure 33
0010
1000
0100
0000
1000
0000
0000
0000
,  // measure 34
1000
0001
0100
0000
0001
0000
0000
0000
,  // measure 35
0010
0101
0010
1100
,  // measure 36
0001
1000
0001
0000
1000
0001
1000
0000
,  // measure 37
0010
0001
0100
0000
1000
0000
0000
0000
,  // measure 38
0010
1000
0100
0000
0001
0000
0000
0000
,  // measure 39
1001
0000
0000
0110
0000
0000
0000
0000
,  // measure 40
0110
0000
0000
1001
0000
0000
0000
0000
,  // measure 41
0010
1000
0100
0000
0001
0000
0000
0000
,  // measure 42
0010
0001
0100
0000
1000
0000
0001
1000
,  // measure 43
0002
2000
0000
0000
0000
0000
0000
0000
,  // measure 44
3003
0000
0000
0000
;

//---------------dance-single - Chewi----------------
#NOTES:
     dance-single:
     Chewi:
     Hard:
     9:
     0.415,0.373,0.108,0.022,0.000: // measure 1
0000
0000
0000
0000
,  // measure 2
0000
0000
0000
0000
,  // measure 3
0000
0000
0000
0000
,  // measure 4
0000
0000
0000
0000
,  // measure 5
1000
0100
0010
0100
1000
0000
0100
0000
,  // measure 6
0001
0100
0010
0100
0001
0000
0010
0000
,  // measure 7
0100
0010
0100
0000
1001
0000
0110
0000
,  // measure 8
0010
0100
0010
0000
0110
0000
1001
0000
,  // measure 9
0001
0010
0100
1000
0010
0100
0001
0000
,  // measure 10
1000
0010
0100
0001
0010
0100
1000
0000
,  // measure 11
0001
1000
0100
0000
1000
0001
0100
0000
,  // measure 12
0010
0100
0001
1000
0100
0010
0001
1000
,  // measure 13
0001
1000
0010
0000
1000
0001
0010
0000
,  // measure 14
0100
0010
0001
0100
1000
0010
1000
0100
,  // measure 15
0010
0100
1000
0000
0010
0000
0101
0000
,  // measure 16
0100
0010
0001
0100
1000
0010
1000
0100
,  // measure 17
0010
0001
0100
0000
0010
0000
1001
0000
,  // measure 18
0100
1000
0010
0000
0100
0000
1001
0000
,  // measure 19
1000
0100
0010
1000
0100
0001
0010
0000
,  // measure 20
0100
0001
0010
1000
0100
0010
1000
0100
,  // measure 21
0010
0001
0100
0000
0010
1000
0100
0000
,  // measure 22
1000
0001
0100
0001
1000
0100
1000
0000
,  // measure 23
0010
0100
0001
0000
0010
0100
1000
0000
,  // measure 24
0010
1000
0010
0001
0010
1000
0100
0001
,  // measure 25
0100
1000
0001
0000
0100
0001
1000
0000
,  // measure 26
0010
0100
0001
0010
0100
1000
0001
1000
,  // measure 27
0010
0100
0001
0000
0001
0010
0100
1000
,  // measure 28
0100
0001
0010
0001
1000
0100
0010
0001
,  // measure 29
0010
0100
1000
0010
0101
0000
0000
0000
,  // measure 30
0001
0100
1000
0010
1001
0000
0000
0000
,  // measure 31
0001
0010
0100
1000
0010
0100
0001
0000
,  // measure 32
0100
0010
1000
0001
0010
0100
0010
0000
,  // measure 33
0001
0010
1000
0100
0001
0100
0110
0000
,  // measure 34
0001
0100
0010
1000
0001
0010
0100
0000
,  // measure 35
0010
0001
0100
0010
1000
0100
0010
0000
,  // measure 36
0100
0010
0100
0010
0001
1000
0001
1000
,  // measure 37
0010
1000
0100
0010
0001
0100
0010
0000
,  // measure 38
0100
0001
0010
0100
1000
0010
0100
0000
,  // measure 39
0001
0100
1000
0010
0001
0010
1000
0000
,  // measure 40
1000
0100
0010
1000
0100
0010
0001
0000
,  // measure 41
0010
0100
1000
0001
0100
1000
0010
0000
,  // measure 42
0100
0010
0001
0100
1000
0010
0100
0001
,  // measure 43
2000
0002
0000
0000
0000
0000
0000
0000
,  // measure 44
3003
0000
0000
0000
;

//---------------dance-single - Chewi----------------
#NOTES:
     dance-single:
     Chewi:
     Beginner:
     2:
     0.108,0.117,0.000,0.130,0.000: // measure 1
0000
0000
0000
0000
,  // measure 2
0000
0000
0000
0000
,  // measure 3
0000
0000
0000
0000
,  // measure 4
0000
0000
0000
0000
,  // measure 5
2000
0000
0000
3000
,  // measure 6
1000
0000
1000
0000
,  // measure 7
0002
0000
0000
0003
,  // measure 8
0001
0000
0001
0000
,  // measure 9
0200
0000
0000
0300
,  // measure 10
0100
0000
0100
0000
,  // measure 11
0020
0000
0000
0030
,  // measure 12
0010
0000
0010
0000
,  // measure 13
1000
0000
1000
0000
,  // measure 14
1000
0000
0000
0000
,  // measure 15
0001
0000
0001
0000
,  // measure 16
0001
0000
0000
0000
,  // measure 17
0100
0000
0100
0000
,  // measure 18
0100
0000
0000
0000
,  // measure 19
0010
0000
0010
0000
,  // measure 20
0010
0000
0000
0000
,  // measure 21
2000
0000
0000
3000
,  // measure 22
1000
0000
0000
0000
,  // measure 23
0002
0000
0000
0003
,  // measure 24
0001
0000
0000
0000
,  // measure 25
0020
0000
0000
0030
,  // measure 26
0010
0000
0000
0000
,  // measure 27
0200
0000
0000
0300
,  // measure 28
0100
0000
0000
0000
,  // measure 29
0010
0010
0010
0000
,  // measure 30
0010
0000
0000
0000
,  // measure 31
0100
0100
0100
0000
,  // measure 32
0100
0000
0000
0000
,  // measure 33
1000
1000
1000
0000
,  // measure 34
1000
0000
0000
0000
,  // measure 35
0001
0001
0001
0000
,  // measure 36
0001
0000
0000
0000
,  // measure 37
2000
0000
0000
3000
,  // measure 38
1000
0000
0100
0000
,  // measure 39
0002
0000
0000
0003
,  // measure 40
0001
0000
0100
0000
,  // measure 41
0020
0000
0000
0030
,  // measure 42
0010
0000
1000
0000
,  // measure 43
0020
0000
0000
0000
,  // measure 44
0030
0000
0000
0000
;
