#TITLE:American Boy;
#SUBTITLE:;
#ARTIST:Estelle feat. Kanye West;
#TITLETRANSLIT:;
#SUBTITLETRANSLIT:;
#ARTISTTRANSLIT:;
#GENRE:;
#CREDIT:Chewphoria~;
#MENUCOLOR:;
#METERTYPE:DDR X;
#BANNER:American Boy.png;
#BACKGROUND:American Boy-bg.png;
#LYRICSPATH:;
#CDTITLE:;
#MUSIC:American Boy.mp3;
#OFFSET:-4.092;
#SAMPLESTART:16.249;
#SAMPLELENGTH:15.000;
#SELECTABLE:YES;
#LISTSORT:;
#DISPLAYBPM:61.000:118.000;
#BPMS:0.000=118.020,61.000=59.010,77.000=118.020,129.000=59.010,137.000=118.020;
#STOPS:19.000=2.034
,47.000=2.034
,60.000=1.525
,100.000=4.067
,128.000=2.034
,164.000=2.034
;
#BGCHANGES:-8.184=American Boy.avi=1.000=0=0=0,
178.000=American Boy-bg.png=1.000=1=0=1,
99999=-nosongbg-=1.000=0=0=0 // don't automatically add -songbackground-
;
#ATTACKS:;

//---------------dance-single - Chewphoria~----------------
#NOTES:
     dance-single:
     Chewphoria~:
     Beginner:
     2:
     0.115,0.108,0.000,0.084,0.000: // measure 1
0000
0000
0000
0000
,  // measure 2
0000
0000
0000
0000
,  // measure 3
0010
0000
0001
0000
,  // measure 4
0100
0100
0100
0000
,  // measure 5
0010
0000
1000
0000
,  // measure 6
0100
0000
0010
0000
,  // measure 7
0200
0000
0000
0300
,  // measure 8
0010
0000
0100
0000
,  // measure 9
0020
0000
0000
0030
,  // measure 10
1000
1000
1000
0000
,  // measure 11
0001
0001
0001
0000
,  // measure 12
0010
0000
1000
0000
,  // measure 13
0010
0000
0010
0000
,  // measure 14
0100
0000
0100
0000
,  // measure 15
0000
1000
0001
0000
,  // measure 16
0000
0000
0100
0000
,  // measure 17
0001
0000
0010
0000
,  // measure 18
1000
2000
3000
1000
,  // measure 19
0000
0002
0003
0001
,  // measure 20
0000
1000
0000
0001
,  // measure 21
0000
0010
0010
0010
,  // measure 22
0000
0001
0000
1000
,  // measure 23
0000
0100
0100
0100
,  // measure 24
0000
2000
0000
0000
,  // measure 25
3000
0002
0000
0000
,  // measure 26
0003
0010
0010
0010
,  // measure 27
0000
0000
0001
0001
,  // measure 28
0000
0100
0000
2000
,  // measure 29
3000
1000
0000
0100
,  // measure 30
0000
0010
0000
0001
,  // measure 31
0000
1000
0000
0001
,  // measure 32
0000
0100
0100
0100
,  // measure 33
0000
2000
3000
1000
,  // measure 34
0000
0010
0010
0010
,  // measure 35
0000
1000
1000
1000
,  // measure 36
0000
0000
0100
0100
,  // measure 37
0000
0001
0001
0001
,  // measure 38
0000
0000
0010
0010
,  // measure 39
0000
0002
0000
0000
,  // measure 40
0003
0001
0000
0000
,  // measure 41
0000
0000
0000
0000
0000
0000
0000
0000
0000
0000
0000
0000
0000
0000
0000
0000
0000
0000
0000
0000
0000
0000
0000
0000
0000
0000
0000
0000
0000
0000
0000
0000
0000
0000
0000
0000
0000
0000
0000
0000
0000
0000
0000
0000
0000
0000
0000
0000
2000
0000
0000
0000
0000
0000
0000
0000
0000
0000
0000
0000
0000
0000
0000
0000
0000
0000
0000
0000
0000
0000
0000
0000
0000
0000
0000
0000
0000
0000
0000
0000
0000
0000
0000
0000
0000
0000
0000
0000
0000
0000
0000
0000
0000
0000
0000
0000
0000
0000
0000
0000
0000
0000
0000
0000
0000
0000
0000
0000
0000
0000
0000
0000
0000
0000
0000
0000
0000
0000
0000
0000
0000
0000
0000
0000
0000
0000
0000
0000
0000
0000
0000
0000
0000
0000
0000
0000
0000
0000
0000
0000
0000
0000
0000
0000
0000
3000
0000
0000
0000
0000
0000
0000
0000
0000
0000
0000
0000
0000
0000
0000
0000
0000
0000
0000
0000
0000
0000
0000
0000
0000
0000
0000
0000
0000
0000
0000
0000
0000
0000
0000
0000
0000
0000
0000
0000
0000
0000
0000
0000
0000
0000
0000
,  // measure 42
1000
0000
0100
0000
,  // measure 43
0001
0000
0010
0000
,  // measure 44
1000
0000
0000
0000
;

//---------------dance-single - Chewphoria~----------------
#NOTES:
     dance-single:
     Chewphoria~:
     Easy:
     3:
     0.169,0.182,0.025,0.151,0.000: // measure 1
0000
0000
0000
0000
,  // measure 2
0000
0000
0000
0000
,  // measure 3
2000
0000
0001
3001
,  // measure 4
0001
0100
1000
0010
,  // measure 5
0000
0010
0000
1001
,  // measure 6
1000
1000
1000
0000
,  // measure 7
0000
0100
0100
0000
,  // measure 8
0010
0010
0010
0000
,  // measure 9
0000
0001
0001
0000
,  // measure 10
2000
0000
0000
0000
,  // measure 11
3200
0000
0000
0000
,  // measure 12
0302
0000
0000
0003
,  // measure 13
0010
0100
0010
0100
,  // measure 14
0001
1000
0001
1000
,  // measure 15
0000
1000
0001
0100
,  // measure 16
0010
2000
0000
3002
,  // measure 17
0000
0203
0000
0320
,  // measure 18
0000
1030
0100
0001
,  // measure 19
0001
0100
1000
2000
,  // measure 20
3002
1003
1000
1000
,  // measure 21
0000
0001
0001
0001
,  // measure 22
0100
0100
0010
1000
,  // measure 23
0010
0100
0100
0100
,  // measure 24
0100
0000
0001
0001
,  // measure 25
0001
1000
1000
1000
,  // measure 26
1001
0100
0100
0100
,  // measure 27
0000
0000
0010
0100
,  // measure 28
0000
0010
1000
0100
,  // measure 29
0100
0001
0100
1000
,  // measure 30
1000
0000
0001
1000
,  // measure 31
0001
0001
0000
1000
,  // measure 32
0001
1000
0010
0100
,  // measure 33
0001
0002
0000
2003
,  // measure 34
0000
3100
0100
0001
,  // measure 35
0001
0010
1000
0010
,  // measure 36
0000
1000
1000
1000
,  // measure 37
0000
0100
0001
0100
,  // measure 38
0000
0001
0001
0001
,  // measure 39
0000
2002
0000
0000
,  // measure 40
3003
0200
0000
0000
,  // measure 41
0300
0010
1000
0100
,  // measure 42
0001
1000
0100
0020
,  // measure 43
0000
0032
0000
0203
,  // measure 44
0000
0300
0000
0000
;

//---------------dance-single - Chewphoria~----------------
#NOTES:
     dance-single:
     Chewphoria~:
     Medium:
     6:
     0.234,0.236,0.118,0.025,0.025: // measure 1
0000
0000
0000
0000
,  // measure 2
0000
0000
0000
0000
,  // measure 3
1001
0000
0100
0100
,  // measure 4
0010
1000
0100
0001
,  // measure 5
0100
1000
0010
1001
,  // measure 6
1000
0100
0010
0001
,  // measure 7
0100
0000
0000
0100
0000
0000
0100
0000
0000
0000
0000
0000
0000
0000
0000
0000
,  // measure 8
0010
1000
0100
0001
,  // measure 9
0010
0000
0000
0010
0000
0000
0010
0000
0000
0000
0000
0000
1000
0000
0000
0000
,  // measure 10
0001
1000
0001
1000
0000
0000
0000
0000
,  // measure 11
0010
0100
0010
0100
0000
0000
0000
0000
,  // measure 12
0010
0000
1000
0000
0001
1000
0100
0000
,  // measure 13
1000
0001
1000
0000
0001
0000
0101
0000
,  // measure 14
0010
0100
0010
0000
1000
0000
1010
0000
,  // measure 15
0000
0000
1000
0001
1000
0000
0001
0000
,  // measure 16
1001
0000
1000
0000
0100
0100
0001
0000
,  // measure 17
0010
0010
1000
0000
0100
0100
1000
0000
,  // measure 18
0010
0010
0000
0100
0000
0001
0000
0010
,  // measure 19
0000
0010
0000
1000
0000
0100
0000
1000
,  // measure 20
1000
1000
1001
0000
0100
0000
0010
1000
,  // measure 21
0010
0001
1000
0100
,  // measure 22
0001
0100
1000
0101
,  // measure 23
1100
0000
0001
0100
0001
0000
0100
0000
,  // measure 24
1000
0000
0000
0010
0010
0000
1000
0010
,  // measure 25
1000
0000
0001
0001
0001
0000
0100
0001
,  // measure 26
0101
0000
0010
0000
1000
0000
0100
0100
,  // measure 27
0100
1000
0010
0001
,  // measure 28
0100
0000
1000
0000
0001
0000
0100
0010
,  // measure 29
0100
0000
0001
0000
0100
0000
0010
1000
,  // measure 30
0010
1000
0000
0000
0001
0000
0100
0000
,  // measure 31
0001
1001
1000
0100
,  // measure 32
1000
1001
0010
0100
,  // measure 33
0110
0000
0000
0000
1000
0000
0000
0000
0100
0000
0000
0001
0000
0000
0000
0100
,  // measure 34
0000
0010
1000
0100
,  // measure 35
0001
0010
1000
0010
,  // measure 36
0100
0000
0000
0000
0001
0000
0000
0001
0000
0000
0001
0000
0000
0000
0000
0000
,  // measure 37
0000
1000
0100
0010
,  // measure 38
0001
0000
0000
0000
1000
0000
0000
1000
0000
0000
1000
0000
0000
0000
0000
0000
,  // measure 39
0001
0000
0100
0010
0100
0010
0000
0000
,  // measure 40
0000
0000
1000
0001
1000
0001
0000
0000
,  // measure 41
0000
1000
1100
0001
,  // measure 42
1001
1000
0010
0200
,  // measure 43
0001
0001
0000
0000
0320
1000
0000
0000
,  // measure 44
0200
0000
0000
0000
0000
0000
0000
0000
0000
0000
0000
0000
0000
0000
0000
0000
0000
0000
0000
0000
0000
0000
0000
0000
0000
0000
0000
0000
0000
0000
0000
0000
0000
0000
0000
0000
0000
0000
0000
0000
0000
0000
0000
0000
0000
0000
0000
0000
0300
0030
0000
0000
0000
0000
0000
0000
0000
0000
0000
0000
0000
0000
0000
0000
0000
0000
0000
0000
0000
0000
0000
0000
0000
0000
0000
0000
0000
0000
0000
0000
0000
0000
0000
0000
0000
0000
0000
0000
0000
0000
0000
0000
0000
0000
0000
0000
0000
0000
0000
0000
0000
0000
0000
0000
0000
0000
0000
0000
0000
0000
0000
0000
0000
0000
0000
0000
0000
0000
0000
0000
0000
0000
0000
0000
0000
0000
0000
0000
0000
0000
0000
0000
0000
0000
0000
0000
0000
0000
0000
0000
0000
0000
0000
0000
0000
0000
0000
0000
0000
0000
0000
0000
0000
0000
0000
0000
0000
0000
0000
0000
0000
0000
0000
0000
0000
0000
0000
0000
0000
0000
0000
0000
0000
0000
0000
0000
0000
0000
0000
0000
0000
0000
0000
0000
0000
0000
0000
0000
0000
0000
0000
0000
;

//---------------dance-single - Chewphoria~----------------
#NOTES:
     dance-single:
     Chewphoria~:
     Hard:
     10:
     0.365,0.380,0.344,0.017,0.164: // measure 1
0000
0000
0000
0000
,  // measure 2
0000
0000
0000
0000
,  // measure 3
1001
0000
0000
0000
0100
0001
0100
0000
,  // measure 4
1000
0010
0001
0000
0100
0000
0101
0000
,  // measure 5
1000
0100
0010
0001
0010
0000
0101
0000
,  // measure 6
0100
0010
0100
0000
0010
0000
1010
0000
,  // measure 7
0101
0000
0000
1000
0000
0000
0220
0000
0000
0000
0000
0000
0000
0000
0330
0000
,  // measure 8
0001
0000
0010
0000
0100
0000
1000
0100
0000
1000
0000
0000
0001
0000
0100
0000
,  // measure 9
1010
0000
0000
0010
0000
0000
0011
0000
0000
0000
0000
0000
1010
0000
0000
0000
,  // measure 10
1000
0010
0100
0001
0000
0000
0000
0000
,  // measure 11
0001
0010
0100
1000
0000
0000
0000
0000
,  // measure 12
1000
0000
0001
0000
0100
0000
0010
0000
1000
0000
0001
1000
0001
0000
0000
0000
,  // measure 13
1000
0000
0100
1000
0100
0000
0001
0100
0001
0000
0000
0000
0101
0000
0000
0000
,  // measure 14
0010
1000
0001
0010
0110
0000
1001
0000
,  // measure 15
0000
0000
0101
0100
0010
0000
1000
0010
,  // measure 16
0101
0000
0000
0000
1000
0001
0100
0000
0101
0000
1100
0000
1000
0100
1100
0000
,  // measure 17
0101
0000
0000
0000
0010
1000
0010
0000
1010
0000
0000
0000
0010
0001
0010
0000
,  // measure 18
0101
0000
0000
0000
0000
0001
0001
0000
0100
0000
0010
1000
0000
1000
1000
0000
,  // measure 19
0100
0000
0010
0001
0000
0100
0100
0100
0000
0010
0010
0010
1000
0000
1100
0000
,  // measure 20
0001
0101
0000
1000
0001
1000
0010
0000
,  // measure 21
1010
0000
0000
0000
1000
0000
0010
1000
0010
0000
0010
0000
0100
0000
0000
0000
,  // measure 22
0100
0001
0000
0101
0001
0100
0001
0000
,  // measure 23
0101
0000
1000
0100
0001
0010
1000
0000
,  // measure 24
1001
0000
0000
1000
0100
0010
0001
0001
,  // measure 25
0001
0000
0001
0100
0010
1000
0001
0001
,  // measure 26
1001
0000
1000
0000
0100
0010
0001
0011
,  // measure 27
0010
0000
0000
0000
0100
0000
0000
1000
0100
0000
0000
0000
0001
0000
0000
0100
,  // measure 28
0001
0000
0000
0000
1000
0010
1000
0000
0001
0000
0010
0000
0011
0000
1010
0000
,  // measure 29
0011
0000
0000
0000
1000
0100
1000
0000
0001
0000
0000
0000
0100
0000
0100
0000
,  // measure 30
0100
0000
0100
0000
0000
0000
0010
0000
1000
0000
0100
0000
0010
0000
0001
0100
,  // measure 31
0001
0000
0000
0000
0101
0000
0000
0000
0000
0000
1000
0010
1000
0000
0010
0000
,  // measure 32
0100
0001
0100
0010
1000
0001
0010
0100
,  // measure 33
1100
0000
0000
0000
1000
0000
0000
0000
0001
1000
0001
1000
0000
1000
0000
1000
,  // measure 34
0000
1000
0000
1000
0100
0000
0010
0000
0001
0100
1000
0010
0000
0000
0000
0000
,  // measure 35
0010
1000
0100
0001
0010
0000
0001
0000
0010
0000
0000
0000
0011
0000
0000
0000
,  // measure 36
0101
0000
0000
0000
1000
0000
0000
1000
0000
0000
0100
0000
0001
0000
0100
0000
,  // measure 37
1100
0000
0001
1000
0010
0100
0101
0000
,  // measure 38
0010
0000
1000
0000
1001
0000
0000
0100
0000
0000
0110
0000
0000
0000
0000
0000
,  // measure 39
1010
0000
1000
0010
0100
0100
0000
0000
,  // measure 40
0000
0000
0001
0010
0100
0100
0000
0000
,  // measure 41
0000
0000
0000
0000
0100
0000
0010
0000
1000
0000
0100
0000
0001
0000
0100
0010
,  // measure 42
1001
0000
1000
0000
0100
0000
0010
0001
,  // measure 43
0100
1000
0000
0000
1000
0001
0000
0000
,  // measure 44
0001
1000
0000
0000
0000
0000
0000
0000
;
