#TITLE:Amazing Kiss (Thunderpuss Japanese Club Mix);
#SUBTITLE:;
#ARTIST:BoA;
#TITLETRANSLIT:;
#SUBTITLETRANSLIT:;
#ARTISTTRANSLIT:;
#GENRE:;
#CREDIT:Chewphoria~;
#MENUCOLOR:;
#METERTYPE:DDR X;
#BANNER:Amazing Kiss (Thunderpuss Japanese Club Mix).PNG;
#BACKGROUND:Amazing Kiss (Thunderpuss Japanese Club Mix)-bg.PNG;
#LYRICSPATH:;
#CDTITLE:;
#MUSIC:Amazing Kiss (Thunderpuss Japanese Club Mix).MP3;
#OFFSET:-6.200;
#SAMPLESTART:31.329;
#SAMPLELENGTH:15.000;
#SELECTABLE:YES;
#LISTSORT:;
#DISPLAYBPM:128.000;
#BPMS:0.000=127.960;
#STOPS:;
#BGCHANGES:;
#ATTACKS:;

//---------------dance-single - Chewphoria~----------------
#NOTES:
     dance-single:
     Chewphoria~:
     Hard:
     10:
     0.378,0.385,0.252,0.057,0.040: // measure 1
1000
0010
0100
0001
,  // measure 2
1000
0010
0100
0001
,  // measure 3
1000
0001
1000
0000
0001
0000
0100
0000
,  // measure 4
1000
0000
0000
0000
0010
0000
0000
0010
0001
0000
0000
0001
0100
0000
0000
0000
,  // measure 5
0100
0010
0100
0000
0010
0000
0011
0000
,  // measure 6
0001
0100
2000
0000
0000
0000
0000
0000
,  // measure 7
3001
1000
0001
0000
0010
0000
0100
0000
,  // measure 8
1000
0100
1000
0100
0001
0000
0101
0000
,  // measure 9
0001
0010
0100
1000
,  // measure 10
1001
0000
0000
0000
0100
0010
0100
0000
,  // measure 11
0010
0000
0000
0010
0000
0000
0010
0000
1000
0000
0000
0000
0000
0000
0000
0000
,  // measure 12
0100
0000
0000
0100
0000
0000
0100
0000
0001
0000
0000
0000
0000
0000
0000
0000
,  // measure 13
0001
0001
1000
1000
,  // measure 14
0001
1000
0001
0000
1010
0000
0110
0000
,  // measure 15
0101
0000
0000
0000
0001
0100
0010
1000
,  // measure 16
0002
0000
0000
0000
1003
0100
0010
0001
,  // measure 17
0020
0000
0000
0000
0031
0100
0010
1000
,  // measure 18
0001
0001
1000
1000
1001
0000
0110
0000
,  // measure 19
1010
0000
0000
0000
1000
0100
0010
0001
,  // measure 20
0100
0000
0100
0000
0010
1000
0100
0001
,  // measure 21
0100
0000
1001
0000
,  // measure 22
0110
1000
0100
0001
,  // measure 23
0010
0001
1000
0000
1000
1000
1000
0000
,  // measure 24
0001
0100
0001
0000
0100
0100
0100
0000
,  // measure 25
1000
0010
1000
0000
0010
0010
0010
0000
,  // measure 26
0100
1000
0001
0000
0100
0100
0100
0000
,  // measure 27
0010
1000
0100
0001
0100
0100
0100
0000
,  // measure 28
1000
0010
0001
0010
1000
1000
1000
0000
,  // measure 29
0100
0010
0001
0010
0200
0000
0000
0000
,  // measure 30
1300
0001
1000
0001
2000
0000
0000
0100
,  // measure 31
3100
0000
0000
0010
0010
0000
0000
0000
,  // measure 32
0110
0000
1010
0100
,  // measure 33
0101
0000
0000
0000
1001
0000
0000
0000
0010
0000
0000
0010
0000
0000
0010
0000
,  // measure 34
0000
0000
0010
0000
0000
0000
0000
0000
0000
0000
0000
0000
0000
0000
0000
0000
0000
0000
0000
0000
0000
0000
0000
0000
0001
0000
0000
0000
0000
0000
0000
0000
0000
1000
0000
0000
0000
0000
0000
0000
0000
0000
0001
0000
0000
0000
0000
0000
,  // measure 35
1000
0001
1010
0110
,  // measure 36
0101
0000
0000
0000
0100
0001
0100
1000
,  // measure 37
0100
0000
0000
0000
1000
0001
1000
0001
,  // measure 38
1000
0000
0000
0000
1000
0100
0010
0001
,  // measure 39
1000
1000
0001
0001
1001
0000
0110
0000
,  // measure 40
1010
0000
0000
0000
1000
0010
0100
0001
,  // measure 41
0100
0000
1000
0000
0100
0001
0010
1000
,  // measure 42
0100
0000
1001
0000
,  // measure 43
0010
0000
0000
0000
;

//---------------dance-single - Chewphoria~----------------
#NOTES:
     dance-single:
     Chewphoria~:
     Medium:
     7:
     0.326,0.313,0.286,0.115,0.000: // measure 1
1000
0100
0001
0100
,  // measure 2
0001
0100
1000
0100
,  // measure 3
0010
0010
0010
0000
0100
0000
0101
0000
,  // measure 4
0010
0010
0010
0000
0100
0000
1100
0000
,  // measure 5
0001
1000
0001
0000
1000
0000
0010
0000
,  // measure 6
0202
0000
0000
0303
,  // measure 7
0010
0010
0010
0000
1000
0000
1100
0000
,  // measure 8
0010
0010
0010
0000
0001
0000
0101
0000
,  // measure 9
1000
0001
1000
0000
0001
1000
0001
0000
,  // measure 10
0220
0000
0000
0330
,  // measure 11
1000
0000
0100
1000
0100
0000
0000
0000
,  // measure 12
0001
0000
0100
0001
0100
0000
0000
0000
,  // measure 13
0010
1000
0010
1000
,  // measure 14
0010
0001
0010
0001
,  // measure 15
1001
0000
1000
1100
,  // measure 16
0001
0000
0001
0101
,  // measure 17
1000
0000
0010
0100
,  // measure 18
0010
0010
0010
0000
1000
0000
1100
0000
,  // measure 19
0101
0000
0000
0000
0001
0000
0100
0010
,  // measure 20
0100
0000
0010
0000
1000
0010
1000
0000
,  // measure 21
1001
0000
0220
0330
,  // measure 22
1000
1100
0001
0101
,  // measure 23
0100
0100
0100
0000
1000
0000
1000
0000
,  // measure 24
0100
0100
0100
0000
0001
0000
0001
0000
,  // measure 25
0010
0010
0010
0000
1000
0000
1000
0000
,  // measure 26
0010
0010
0010
0000
0001
0000
0001
0000
,  // measure 27
1000
1100
0100
0100
,  // measure 28
0010
0011
0001
0001
,  // measure 29
0101
0000
1000
0100
,  // measure 30
1001
0000
0001
0010
,  // measure 31
0100
1000
1001
0000
,  // measure 32
1001
0000
0010
0100
,  // measure 33
0010
0100
0002
1000
,  // measure 34
2000
0000
0000
3000
1003
0000
0100
0000
,  // measure 35
1100
0001
0010
1000
,  // measure 36
1100
0000
0000
0000
0001
0000
1000
0001
,  // measure 37
1000
0000
0000
0000
0010
0000
0100
0010
,  // measure 38
0100
0000
0001
1000
,  // measure 39
0100
0010
0001
0000
0101
0000
1000
0000
,  // measure 40
1100
0000
0000
0000
1000
0001
1000
0000
,  // measure 41
0010
0100
0001
0100
,  // measure 42
0020
0000
2030
0000
,  // measure 43
3001
0000
0000
0000
;

//---------------dance-single - Chewphoria~----------------
#NOTES:
     dance-single:
     Chewphoria~:
     Easy:
     4:
     0.214,0.241,0.092,0.034,0.000: // measure 1
1000
0000
0100
0000
,  // measure 2
0010
0000
0001
0000
,  // measure 3
0001
0001
0100
0000
,  // measure 4
1000
1000
0100
0000
,  // measure 5
0001
1000
0010
0000
,  // measure 6
1000
0001
0010
0000
,  // measure 7
0001
0001
1000
0000
,  // measure 8
1000
1000
0001
0000
,  // measure 9
0100
0010
0100
0010
,  // measure 10
0110
0000
1000
0100
,  // measure 11
0002
0000
0000
0003
,  // measure 12
2000
0000
0000
3000
,  // measure 13
0010
0100
0010
0100
,  // measure 14
0100
0000
0100
0100
,  // measure 15
0110
0000
1000
0001
,  // measure 16
0001
0000
0001
1000
,  // measure 17
1000
0000
0010
0100
,  // measure 18
1000
0001
1001
0000
,  // measure 19
1001
0000
0100
0100
,  // measure 20
0100
0010
0100
0010
,  // measure 21
0110
0000
1000
0000
,  // measure 22
0100
0001
0100
0000
,  // measure 23
1000
1000
1000
0000
,  // measure 24
0001
0001
0001
0000
,  // measure 25
0010
0010
0010
0000
,  // measure 26
0100
0100
0100
0000
,  // measure 27
1001
0000
0100
0100
,  // measure 28
0100
0000
1000
0000
,  // measure 29
0010
0000
1000
0000
,  // measure 30
0001
0000
0001
0000
,  // measure 31
1000
0000
1001
0000
,  // measure 32
0100
0000
1000
1000
,  // measure 33
0010
0000
0010
0100
,  // measure 34
0010
0000
0010
0010
,  // measure 35
0001
1000
0001
1000
,  // measure 36
1001
0000
1000
1000
,  // measure 37
0100
0000
0100
0100
,  // measure 38
0001
0000
0001
0001
,  // measure 39
0010
1000
0010
1000
,  // measure 40
0010
0000
1000
1000
,  // measure 41
1000
0000
0001
0001
,  // measure 42
0001
0000
0200
0300
,  // measure 43
0100
0000
0000
0000
;

//---------------dance-single - Chewphoria~----------------
#NOTES:
     dance-single:
     Chewphoria~:
     Beginner:
     2:
     0.157,0.168,0.034,0.034,0.000: // measure 1
2000
0000
0000
3000
,  // measure 2
1000
0000
0000
0000
,  // measure 3
0100
0000
0100
0000
,  // measure 4
0010
0000
0010
0000
,  // measure 5
0001
0000
0001
0000
,  // measure 6
1000
0000
1000
0000
,  // measure 7
0010
0000
0010
0000
,  // measure 8
0100
0000
0100
0000
,  // measure 9
1000
0000
0001
0000
,  // measure 10
1000
0000
0000
0000
,  // measure 11
0001
0001
0001
0000
,  // measure 12
0100
0100
0100
0000
,  // measure 13
0010
0000
0010
0000
,  // measure 14
1000
0000
1000
1000
,  // measure 15
2000
0000
0000
3000
,  // measure 16
1000
0000
0000
0000
,  // measure 17
0001
0000
0000
0000
,  // measure 18
0100
0100
0100
0100
,  // measure 19
0100
0000
0010
0000
,  // measure 20
1000
0000
0100
0000
,  // measure 21
0001
0000
1001
0000
,  // measure 22
0100
0000
0100
0000
,  // measure 23
0100
0100
0100
0000
,  // measure 24
0010
0010
0010
0000
,  // measure 25
0001
0000
0001
0000
,  // measure 26
1000
0000
1000
0000
,  // measure 27
0001
0001
0001
0000
,  // measure 28
0001
0000
0100
0000
,  // measure 29
1000
1000
1000
0000
,  // measure 30
0010
0000
0001
0000
,  // measure 31
2000
0000
0000
3000
,  // measure 32
1000
0000
0001
0000
,  // measure 33
0100
0100
0100
0100
,  // measure 34
0100
0000
0010
0000
,  // measure 35
0010
0010
0010
0000
,  // measure 36
1001
0000
1000
0000
,  // measure 37
0001
0000
0010
0000
,  // measure 38
1000
0000
0100
0000
,  // measure 39
0001
0001
0001
0000
,  // measure 40
1001
0000
1000
0000
,  // measure 41
1000
0000
0001
0000
,  // measure 42
0001
0000
0000
0000
,  // measure 43
0100
0000
0000
0000
;
