#VERSION:0.82;
#TITLE:甘い声でちくってして;
#SUBTITLE:;
#ARTIST:ボンジュール鈴木;
#TITLETRANSLIT:Amai Koe de Chikutteshite;
#SUBTITLETRANSLIT:;
#ARTISTTRANSLIT:Bonjour Suzuki;
#GENRE:Electro J-Pop;
#ORIGIN:;
#CREDIT:chewi;
#BANNER:Amai Koe de Chikutteshite.png;
#BACKGROUND:Amai Koe de Chikutteshite-bg.png;
#PREVIEWVID:;
#JACKET:Amai Koe de Chikutteshite-jacket.png;
#CDIMAGE:;
#DISCIMAGE:;
#LYRICSPATH:;
#CDTITLE:cdtitle.png;
#MUSIC:Amai Koe de Chikutteshite.ogg;
#OFFSET:-1.084000;
#SAMPLESTART:79.488998;
#SAMPLELENGTH:15.000000;
#SELECTABLE:YES;
#BPMS:0.000=122.000;
#STOPS:;
#DELAYS:;
#WARPS:;
#TIMESIGNATURES:0.000=4=4;
#TICKCOUNTS:0.000=4;
#COMBOS:0.000=1;
#SPEEDS:0.000=1.000=0.000=0;
#SCROLLS:0.000=1.000;
#FAKES:;
#LABELS:0.000=Song Start;
#BGCHANGES:-0.500=Amai Koe de Chikutteshite.avi=1.000=1=0=0=StretchNoLoop==CrossFade==,
260.000=Amai Koe de Chikutteshite-bg.png=1.000=1=0=1===CrossFade==,
99999=-nosongbg-=1.000=0=0=0 // don't automatically add -songbackground-
;
#KEYSOUNDS:;
#ATTACKS:
;

//---------------dance-single - ----------------
#NOTEDATA:;
#CHARTNAME:;
#STEPSTYPE:dance-single;
#DESCRIPTION:;
#CHARTSTYLE:;
#DIFFICULTY:Beginner;
#METER:1;
#RADARVALUES:0.072976,0.121989,0.045746,0.030497,0.000000,57.000000,6.000000,4.000000,0.000000,0.000000,0.000000,0.000000,0.000000,0.072976,0.121989,0.045746,0.030497,0.000000,57.000000,6.000000,4.000000,0.000000,0.000000,0.000000,0.000000,0.000000;
#CREDIT:;
#NOTES:
// measure 0
0000
0000
0000
0000
,  // measure 1
0000
0000
0000
0000
,  // measure 2
0000
0000
0000
0000
,  // measure 3
0000
0000
0000
0000
,  // measure 4
1000
0000
0000
0000
,  // measure 5
1000
0000
0000
0000
,  // measure 6
0001
0000
0000
0000
,  // measure 7
0001
0000
0000
0000
,  // measure 8
1001
0000
0000
0000
,  // measure 9
0010
0000
0000
0000
,  // measure 10
0010
0000
0000
0000
,  // measure 11
0010
0000
0000
0000
,  // measure 12
1001
0000
0000
0000
,  // measure 13
0100
0000
0000
0000
,  // measure 14
0100
0000
0000
0000
,  // measure 15
0100
0000
0000
0000
,  // measure 16
1000
0000
0000
0000
,  // measure 17
0100
0000
0000
0000
,  // measure 18
0010
0000
0000
0000
,  // measure 19
0001
0000
0000
0000
,  // measure 20
0001
0000
0000
0000
,  // measure 21
0010
0000
0000
0000
,  // measure 22
0100
0000
0000
0000
,  // measure 23
1000
0000
0000
0000
,  // measure 24
0010
0000
0000
0000
,  // measure 25
0001
0000
0000
0000
,  // measure 26
0100
0000
0000
0000
,  // measure 27
1000
0000
0000
0000
,  // measure 28
0010
0000
0000
0000
,  // measure 29
1000
0000
0000
0000
,  // measure 30
0100
0000
0000
0000
,  // measure 31
0001
0000
0000
0000
,  // measure 32
0010
0000
0000
0000
,  // measure 33
0100
0000
0000
0000
,  // measure 34
0100
0000
0000
0000
,  // measure 35
0010
0000
0000
0000
,  // measure 36
1000
0000
0000
0000
,  // measure 37
0001
0000
0000
0000
,  // measure 38
0001
0000
0000
0000
,  // measure 39
1000
0000
0000
0000
,  // measure 40
2000
0000
0000
3000
,  // measure 41
1000
0000
0000
0000
,  // measure 42
0002
0000
0000
0003
,  // measure 43
0001
0000
0000
0000
,  // measure 44
1001
0000
0000
0000
,  // measure 45
0000
0000
0000
0000
,  // measure 46
0110
0000
0000
0000
,  // measure 47
0000
0000
0000
0000
,  // measure 48
0020
0000
0000
0030
,  // measure 49
0010
0000
0000
0000
,  // measure 50
0200
0000
0000
0300
,  // measure 51
0100
0000
0000
0000
,  // measure 52
0110
0000
0000
0000
,  // measure 53
0000
0000
0000
0000
,  // measure 54
0110
0000
0000
0000
,  // measure 55
0000
0000
0000
0000
,  // measure 56
1000
0000
0000
0000
,  // measure 57
0010
0000
0000
0000
,  // measure 58
0100
0000
0000
0000
,  // measure 59
0001
0000
0000
0000
,  // measure 60
0001
0000
0000
0000
,  // measure 61
0010
0000
0000
0000
,  // measure 62
0100
0000
0000
0000
,  // measure 63
1000
0000
0000
0000
,  // measure 64
1000
0000
0000
0000
;

//---------------dance-single - ----------------
#NOTEDATA:;
#CHARTNAME:;
#STEPSTYPE:dance-single;
#DESCRIPTION:;
#CHARTSTYLE:;
#DIFFICULTY:Easy;
#METER:4;
#RADARVALUES:0.148130,0.170785,0.000000,0.045746,0.000000,130.000000,0.000000,6.000000,0.000000,0.000000,0.000000,0.000000,0.000000,0.148130,0.170785,0.000000,0.045746,0.000000,130.000000,0.000000,6.000000,0.000000,0.000000,0.000000,0.000000,0.000000;
#CREDIT:;
#NOTES:
0000
0000
0000
0000
,
0000
0000
0000
0000
,
0000
0000
0000
0000
,
0000
0000
0000
0000
,
1000
0000
1000
0000
,
1000
0000
0000
0000
,
0001
0000
0001
0000
,
0001
0000
0000
0000
,
1000
1000
1000
0000
,
0100
0100
0100
0000
,
0001
0001
0001
0000
,
0100
0100
0100
0000
,
1000
1000
1000
0000
,
0010
0010
0010
0000
,
0001
0001
0001
0000
,
0010
0010
0010
0000
,
0010
0000
0100
0000
,
1000
0000
0001
0000
,
0100
0000
0010
0000
,
1000
0000
0001
0000
,
1000
0000
0100
0000
,
0010
0000
0001
0000
,
1000
0000
0010
0000
,
0100
0000
0001
0001
,
0100
0000
0010
0000
,
1000
0000
0001
0000
,
0010
0000
0100
0000
,
1000
0000
0001
0000
,
1000
0000
0100
0000
,
0001
0000
0010
0000
,
1000
0000
0100
0000
,
0001
0001
0100
0000
,
0200
0000
0000
0300
,
0100
0010
1000
0000
,
2000
0000
0000
3000
,
0002
0000
0000
0003
,
2000
0000
0000
3000
,
0100
0010
0001
0000
,
0020
0000
0000
0030
,
0002
0000
0000
0003
,
0001
0000
1000
0000
,
0001
0000
1000
0000
,
0001
0000
0010
0000
,
1000
0000
0100
0000
,
0001
0000
0001
0000
,
0001
0000
0000
0000
,
1000
0000
1000
0000
,
1000
0000
0000
0000
,
0010
0000
1000
0000
,
0001
0000
0100
0000
,
0010
0000
1000
0000
,
0001
0000
0010
0000
,
0100
0000
0100
0000
,
0100
0000
0000
0000
,
0010
0000
0010
0000
,
0010
0000
0010
0000
,
1000
1000
1000
0000
,
0100
0100
0100
0000
,
0010
0010
0010
0000
,
0010
0010
0010
0000
,
0001
0001
0001
0000
,
0100
0100
0100
0000
,
1000
1000
1000
0000
,
0010
0010
0010
0000
,
0010
0000
0000
0000
;

//---------------dance-single - ----------------
#NOTEDATA:;
#CHARTNAME:;
#STEPSTYPE:dance-single;
#DESCRIPTION:;
#CHARTSTYLE:;
#DIFFICULTY:Medium;
#METER:7;
#RADARVALUES:0.241800,0.292774,0.030497,0.060995,0.000000,210.000000,4.000000,8.000000,0.000000,0.000000,0.000000,0.000000,0.000000,0.241800,0.292774,0.030497,0.060995,0.000000,210.000000,4.000000,8.000000,0.000000,0.000000,0.000000,0.000000,0.000000;
#CREDIT:;
#NOTES:
0000
0000
0000
0000
,
0000
0000
0000
0000
,
0000
0000
0000
0000
,
0000
0000
0000
0000
,
1000
0000
0000
1000
0000
0000
1000
0000
,
1000
0000
0000
0000
,
0001
0000
0000
0001
0000
0000
0000
0001
,
0000
0001
0000
0000
0000
0000
0000
0000
,
0001
0100
0001
0100
,
0010
0000
0100
0000
0010
0100
0010
0000
,
0100
0010
0100
0010
,
1000
0000
0010
0000
1000
0010
1000
0000
,
0001
1000
0001
1000
,
0100
0000
0010
0000
0100
0010
0100
0000
,
0010
0001
1000
0100
,
0010
0000
0100
0000
1000
0001
0100
0000
,
0102
0000
2003
0000
,
3010
0010
1000
1000
,
1002
0000
2003
0000
,
3100
0100
0010
0010
,
0210
0000
0320
0000
,
0031
0010
0100
1000
,
1002
0000
2003
0000
,
3001
0100
0010
0100
,
0010
0100
0001
1000
,
0100
0010
0100
1000
,
0001
0010
0100
1000
,
0001
0100
0010
1000
,
0001
0100
1000
0100
,
0001
0100
1000
0010
,
0001
0100
1000
0100
,
0001
0010
1000
0100
,
0001
0010
0100
0000
,
1000
0010
0100
0000
,
0001
1000
0100
0100
,
0010
0100
1000
0000
0001
0000
0000
0000
,
1000
0001
0010
0000
,
0001
1000
0100
0000
,
1000
0001
0100
0010
,
0100
0010
0100
0000
0010
0000
0000
0000
,
1000
1000
0000
0000
1000
0000
0000
0000
,
0001
0001
0000
0000
0001
0000
0000
0000
,
0010
0010
0000
0000
0010
0000
0000
0000
,
0100
0100
0000
0000
0100
0000
0000
0000
,
0100
0000
0000
0100
0000
0000
0100
0000
,
0100
0000
0000
0000
,
0010
0000
0000
0010
0000
0010
0000
0001
,
0000
1000
0000
0100
0000
0000
0000
0000
,
1000
1000
0000
0000
1000
0000
0000
0000
,
0001
0001
0000
0000
0001
0000
0000
0000
,
0100
0100
0000
0000
0100
0000
0000
0000
,
0010
0010
0000
0000
0010
0000
0000
0000
,
0010
0000
0000
1000
0000
0000
0001
0000
,
1000
0000
0000
0000
,
0001
0000
0000
1000
0000
0100
0000
0010
,
0000
0100
0000
1000
0000
0001
0000
0000
,
1000
0001
1000
0100
,
0010
0000
0100
0000
1000
0001
0010
0000
,
0001
1000
0100
1000
,
0001
0000
0100
0000
0010
0100
0001
0000
,
1000
0010
0100
0010
,
1000
0000
0001
0000
0010
0100
1000
0000
,
0001
0010
1000
0001
,
0100
0000
1000
0000
0001
0100
1000
0000
,
0100
0000
0000
0000
;

//---------------dance-single - ----------------
#NOTEDATA:;
#CHARTNAME:;
#STEPSTYPE:dance-single;
#DESCRIPTION:;
#CHARTSTYLE:;
#DIFFICULTY:Hard;
#METER:10;
#RADARVALUES:0.369236,0.390366,0.365968,0.000000,0.000000,291.000000,48.000000,0.000000,0.000000,0.000000,0.000000,0.000000,0.000000,0.369236,0.390366,0.365968,0.000000,0.000000,291.000000,48.000000,0.000000,0.000000,0.000000,0.000000,0.000000,0.000000;
#CREDIT:;
#NOTES:
0000
0000
0000
0000
,
0000
0000
0000
0000
,
0000
0000
0000
0000
,
0000
0000
0000
0000
,
0110
0000
0000
0100
0000
0000
0010
0000
,
0110
0000
0000
0000
,
1000
0000
0000
1001
0000
1100
0000
0101
,
0000
0011
0000
0000
0000
0000
0000
0000
,
0001
0010
0100
0010
0001
0000
0001
0010
,
0100
0010
0001
0000
0011
0000
1100
0000
,
1000
0100
0010
0100
1000
0000
1000
0100
,
0010
0100
1000
0000
1001
0000
0101
0000
,
0100
0010
0100
0001
0100
0000
0100
0010
,
0100
0001
0100
0000
0101
0000
1010
0000
,
0010
1000
0010
0100
0010
0000
0010
1000
,
0010
0100
0010
0000
0110
0000
1001
0000
,
1000
0100
0010
0001
,
1000
0100
0001
0100
1000
0000
1100
0000
,
0001
0100
0010
1000
,
0001
0100
1000
0100
0001
0000
0101
0000
,
1000
0000
0001
0000
0010
0100
0010
0000
,
0001
0000
1000
0000
0010
0100
0010
0000
,
0100
0000
0001
0000
1000
0010
0100
0000
,
0001
0000
1000
0000
0100
0010
0001
0000
,
0001
0010
0100
1000
,
0001
0010
1000
0010
0001
0000
0011
0000
,
1000
0010
0100
0001
,
1000
0010
0001
0010
1000
0000
1010
0000
,
0001
0000
1000
0000
0100
0010
0100
0000
,
1000
0000
0001
0000
0100
0010
0100
0000
,
0010
0000
1000
0000
0001
0100
0010
0000
,
1000
0000
0001
0000
0010
0100
1000
0000
,
0001
0000
1001
0000
0100
0010
1000
0000
,
0001
0000
1001
0000
1000
0100
0010
0000
,
0001
0000
0011
0000
0010
0100
1000
0000
,
0001
0000
0101
0000
0100
0010
1000
0000
,
0001
0000
1001
0000
1000
0001
0100
0000
,
0001
0000
1001
0000
1000
0100
0010
0000
,
0001
0110
1000
0110
,
1001
0000
0110
0000
,
0100
0010
0000
1000
0001
0010
0000
0100
,
0000
1000
0000
1000
0100
0010
0000
0001
,
0010
0100
0000
1000
0001
1000
0000
0001
,
1000
0010
0100
0001
0000
0001
0100
0000
,
0110
0000
0000
1000
0000
0000
0001
0000
,
0101
0000
0000
0000
,
1000
0000
0001
1100
0000
0110
0000
0011
,
0000
1001
0000
0000
0000
0000
0000
0010
,
0100
0010
0000
0100
0010
0001
0000
0010
,
0100
0010
0000
0010
0100
1000
0000
0001
,
0010
0100
0000
1000
0010
0100
0001
0100
,
0010
1000
0001
1000
0000
1000
0001
0000
,
1001
0000
0000
1000
0000
0000
0100
0000
,
0011
0000
0000
0000
,
0010
0000
0100
1100
0000
0101
0000
0110
,
0000
1001
0000
0000
0000
0000
0000
0000
,
1000
0100
0010
0100
1000
0000
1000
0100
,
0010
0100
1000
0000
1100
0000
0011
0000
,
0001
0010
0100
0010
0001
0000
0001
0010
,
0100
0010
0001
0000
1001
0000
1010
0000
,
0010
0100
0010
1000
0010
0000
0010
0100
,
0010
1000
0010
0000
1010
0000
0101
0000
,
0100
0001
0100
0010
0100
0000
0100
0001
,
0100
0010
0100
0000
0110
0000
1001
0000
,
1000
0000
0000
0000
;
