#TITLE:All the Right Moves (Dave Aude Radio Mix);
#SUBTITLE:;
#ARTIST:OneRepublic;
#TITLETRANSLIT:;
#SUBTITLETRANSLIT:;
#ARTISTTRANSLIT:;
#GENRE:;
#CREDIT:Chewphoria~;
#MENUCOLOR:;
#METERTYPE:DDR;
#BANNER:All The Right Moves (Dave Aude Radio Mix).png;
#BACKGROUND:All The Right Moves (Dave Aude Radio Mix)-bg.png;
#LYRICSPATH:;
#CDTITLE:;
#MUSIC:All the Right Moves (Dave Aude Radio Mix).mp3;
#OFFSET:-7.838;
#SAMPLESTART:45.335;
#SAMPLELENGTH:15.000;
#SELECTABLE:YES;
#LISTSORT:;
#DISPLAYBPM:128.000;
#BPMS:0.000=128.050;
#STOPS:;
#BGCHANGES:;
#ATTACKS:;

//---------------dance-single - Chewphoria~----------------
#NOTES:
     dance-single:
     Chewphoria~:
     Easy:
     5:
     0.207,0.224,0.020,0.102,0.000: // measure 1
1000
0001
1000
0000
,  // measure 2
1000
0001
1000
0000
,  // measure 3
0100
0010
0100
0000
,  // measure 4
0100
0010
0100
0000
,  // measure 5
0002
0000
0000
0003
,  // measure 6
1000
1000
1000
1000
,  // measure 7
2000
0000
0000
3000
,  // measure 8
0001
0001
0001
0001
,  // measure 9
0020
0000
0000
0030
,  // measure 10
0100
0100
0100
0100
,  // measure 11
0200
0000
0000
0300
,  // measure 12
0010
0010
0010
0010
,  // measure 13
0001
0100
0001
0000
,  // measure 14
1000
0010
1000
0000
,  // measure 15
1000
0100
1000
0000
,  // measure 16
0001
0100
0001
0000
,  // measure 17
0001
0010
0001
0000
,  // measure 18
1000
0010
1000
0000
,  // measure 19
1000
0100
1000
0000
,  // measure 20
0001
0100
0010
1000
,  // measure 21
0001
0100
0001
0100
,  // measure 22
0010
1000
0010
2000
,  // measure 23
0000
3001
0100
0000
,  // measure 24
0200
0000
0000
0300
,  // measure 25
0010
1000
0010
1000
,  // measure 26
0001
0100
0001
0100
,  // measure 27
0000
1000
0010
0000
,  // measure 28
0020
0000
0000
0030
,  // measure 29
0100
0001
0100
0100
,  // measure 30
1000
0100
1000
0001
,  // measure 31
1000
0000
0010
0010
,  // measure 32
0200
0000
0000
0300
,  // measure 33
0001
0100
1000
1000
,  // measure 34
1000
0010
0001
0000
,  // measure 35
0001
1000
0010
0100
,  // measure 36
2002
0000
0000
3003
,  // measure 37
0001
0001
0001
0001
,  // measure 38
0001
1000
0000
0000
,  // measure 39
0010
0010
0010
0010
,  // measure 40
0010
0100
0000
0000
,  // measure 41
1000
1000
1000
1000
,  // measure 42
1000
0001
0000
0000
,  // measure 43
0100
0100
0100
0100
,  // measure 44
0100
0010
0010
0100
,  // measure 45
1001
0000
0000
0000
;

//---------------dance-single - Chewphoria~----------------
#NOTES:
     dance-single:
     Chewphoria~:
     Medium:
     7:
     0.290,0.314,0.173,0.112,0.000: // measure 1
1000
0001
1000
0000
0100
0000
0100
0000
,  // measure 2
0001
1000
0001
0000
0010
0000
0010
0000
,  // measure 3
0000
1100
0101
0000
,  // measure 4
0100
0010
0100
0000
0000
0000
0000
0000
,  // measure 5
1000
0100
1000
0100
0000
0000
0000
0000
,  // measure 6
0001
0100
0001
0000
0000
0000
0000
0000
,  // measure 7
1000
0000
1010
0000
0100
0001
0100
1000
,  // measure 8
0100
0000
0000
0100
0000
0000
0000
0000
,  // measure 9
1000
0001
1000
0000
0000
0000
0000
0000
,  // measure 10
0010
0100
0010
0000
0000
0000
0000
0000
,  // measure 11
0100
0001
0100
0000
1100
0000
0101
0000
,  // measure 12
1001
0000
0000
1000
0000
0000
0000
0000
,  // measure 13
1000
0010
0100
0001
0000
0000
0000
0000
,  // measure 14
0001
0010
0100
1000
0000
0000
0000
0000
,  // measure 15
1000
0001
0100
0010
1000
0000
1100
0000
,  // measure 16
0002
0000
0003
0000
,  // measure 17
1000
0010
0100
0001
0000
0000
0000
0000
,  // measure 18
0001
0010
0100
1000
0000
0000
0000
0000
,  // measure 19
1000
0100
1000
0000
0001
0100
0001
0000
,  // measure 20
1001
0100
0010
0000
,  // measure 21
0010
1000
0010
0000
0100
0000
0101
0000
,  // measure 22
0001
0100
0001
0000
1000
0000
2002
0000
,  // measure 23
3003
0000
0010
0000
2020
0000
3030
1000
,  // measure 24
0100
0100
0100
0000
0000
0000
0000
0000
,  // measure 25
0001
0010
0001
0000
1000
0000
1001
0000
,  // measure 26
1000
0010
1000
0000
0001
0000
2002
0000
,  // measure 27
3003
0000
0100
0000
0202
0000
0303
0001
,  // measure 28
0010
0010
0010
0000
0000
0000
0000
0000
,  // measure 29
0100
0001
0100
0001
0100
0000
0010
1000
,  // measure 30
0010
1000
0010
0000
0001
0000
1000
0000
,  // measure 31
1100
0000
0000
0000
1000
0000
0000
0001
,  // measure 32
0100
0010
2000
0000
0000
0000
3000
0000
,  // measure 33
0001
1000
0001
1000
0001
0000
0100
0010
,  // measure 34
0100
0010
0100
0000
0000
0000
1000
0000
,  // measure 35
1010
0000
0000
0000
0001
0000
0000
1000
,  // measure 36
0100
0010
0002
0000
0000
0000
0000
0000
,  // measure 37
0103
0010
1000
0001
,  // measure 38
0100
0010
1000
0000
0000
0000
0000
0000
,  // measure 39
1000
0100
0010
0001
,  // measure 40
0100
0010
0001
0000
0000
0000
0000
0000
,  // measure 41
0001
1000
0010
0100
,  // measure 42
0001
0100
0010
0000
0000
0000
0000
0000
,  // measure 43
1000
0001
0010
0100
,  // measure 44
0010
0100
1000
0000
0000
0000
0000
0000
,  // measure 45
1001
0000
0000
0000
;

//---------------dance-single - Chewphoria~----------------
#NOTES:
     dance-single:
     Chewphoria~:
     Hard:
     9:
     0.413,0.359,0.377,0.102,0.000: // measure 1
0001
1000
0100
0010
0001
0010
0100
1000
,  // measure 2
0010
0100
0000
0001
0000
0100
0000
0010
,  // measure 3
1000
0000
1001
0000
1100
0000
1000
0001
,  // measure 4
1000
1000
0000
0010
0000
0101
0000
0001
,  // measure 5
0100
0010
2000
0000
0001
0000
3100
0000
,  // measure 6
0001
0010
0100
2000
0010
0000
0001
3000
,  // measure 7
0100
0010
0001
0100
0010
1000
0001
0000
,  // measure 8
1100
0000
0000
0101
0000
1000
0001
1000
,  // measure 9
0010
0100
0102
0000
0010
0000
1003
0000
,  // measure 10
1000
0100
0010
0200
1000
0000
0310
0000
,  // measure 11
0001
0100
0010
1000
0001
0010
0100
0000
,  // measure 12
1100
0000
0000
0101
0000
0001
0100
0010
,  // measure 13
1000
1000
2000
0000
0000
0000
3000
0000
,  // measure 14
0001
0001
0002
0000
0000
0000
0003
0000
,  // measure 15
0010
0100
0010
0100
0010
0000
0011
0000
,  // measure 16
0001
0100
0001
0100
1000
0100
1000
0100
,  // measure 17
1000
0010
2000
0000
0010
0000
3010
0000
,  // measure 18
0001
0010
0002
0000
0010
0000
0013
0000
,  // measure 19
1000
0001
0100
0010
1000
0001
0010
0100
,  // measure 20
1000
1100
0101
0000
,  // measure 21
0001
0101
1000
1010
,  // measure 22
0100
0001
0000
0010
0000
0100
0000
1000
,  // measure 23
0010
0000
0101
0000
1100
0000
0000
1000
,  // measure 24
0001
1000
0001
0100
0000
0100
0000
0100
,  // measure 25
0010
1000
0010
0000
1001
0000
0100
0001
,  // measure 26
0000
0100
0010
0000
1000
0001
2000
0000
,  // measure 27
0000
0000
3001
0000
0010
0000
0000
0100
,  // measure 28
1000
0100
0002
0000
0000
0000
0003
0000
,  // measure 29
0010
1000
0010
1000
0010
0000
0010
0001
,  // measure 30
0010
0001
0010
0000
0100
0000
1100
0000
,  // measure 31
0101
0000
0100
0000
0010
1000
0001
0010
,  // measure 32
0100
0100
0100
0000
0010
0000
0011
0000
,  // measure 33
0001
0100
0001
0100
0001
0000
1000
0100
,  // measure 34
1000
0100
1000
0000
0001
1000
0010
1000
,  // measure 35
0001
0010
0001
0000
1100
0000
0101
0000
,  // measure 36
0010
0100
0010
0000
1010
0000
0101
0000
,  // measure 37
1000
0100
0010
0000
0011
0000
0101
0000
,  // measure 38
0001
0001
1000
1000
0000
1010
0000
0011
,  // measure 39
0001
0010
0100
0000
1000
0100
0010
0000
,  // measure 40
0001
0001
1000
1000
0000
1010
0000
0011
,  // measure 41
0001
0101
0010
1010
,  // measure 42
1000
0001
1000
0100
0000
1100
0000
0011
,  // measure 43
0001
0101
0010
1010
,  // measure 44
1000
0010
0100
0001
0000
0101
0000
1000
,  // measure 45
1001
0000
0000
0000
;

//---------------dance-single - Chewphoria~----------------
#NOTES:
     dance-single:
     Chewphoria~:
     Beginner:
     2:
     0.141,0.157,0.051,0.102,0.000: // measure 1
2000
0000
0000
3000
,  // measure 2
1000
0000
0000
0000
,  // measure 3
0002
0000
0000
0003
,  // measure 4
0001
0000
0000
0000
,  // measure 5
0100
0100
0000
0000
,  // measure 6
0010
0010
0000
0000
,  // measure 7
1000
1000
0000
0000
,  // measure 8
0001
0001
0000
0000
,  // measure 9
1000
1000
0000
0000
,  // measure 10
0100
0100
0000
0000
,  // measure 11
0010
0010
0000
0000
,  // measure 12
0001
0001
0000
0000
,  // measure 13
2000
0000
0000
3000
,  // measure 14
1000
0000
0000
0000
,  // measure 15
0200
0000
0000
0300
,  // measure 16
0100
0000
0000
0000
,  // measure 17
0020
0000
0000
0030
,  // measure 18
0010
0000
0000
0000
,  // measure 19
0002
0000
0000
0003
,  // measure 20
0001
0000
1000
0000
,  // measure 21
1001
0000
0100
0000
,  // measure 22
0100
0100
0100
0000
,  // measure 23
0010
0000
0010
0000
,  // measure 24
0010
0010
0010
0000
,  // measure 25
1000
0000
1001
0000
,  // measure 26
0001
0001
0001
0000
,  // measure 27
0100
0000
0110
0000
,  // measure 28
0100
0100
0100
0000
,  // measure 29
2000
0000
0000
3000
,  // measure 30
1000
1000
1000
0000
,  // measure 31
0002
0000
0000
0003
,  // measure 32
0001
0001
0001
0000
,  // measure 33
0020
0000
0000
0030
,  // measure 34
0010
0010
0010
0000
,  // measure 35
0200
0000
0000
0300
,  // measure 36
0100
0100
0100
0000
,  // measure 37
1001
0000
0010
0000
,  // measure 38
1000
0000
0100
0000
,  // measure 39
0001
0000
0010
0000
,  // measure 40
1000
0000
0100
0000
,  // measure 41
0010
0000
0001
0000
,  // measure 42
1000
0000
0010
0000
,  // measure 43
0100
0000
0001
0000
,  // measure 44
1000
0000
1000
0000
,  // measure 45
1001
0000
0000
0000
;
