#TITLE:All Star;
#SUBTITLE:;
#ARTIST:Smash Mouth;
#TITLETRANSLIT:;
#SUBTITLETRANSLIT:;
#ARTISTTRANSLIT:;
#GENRE:;
#CREDIT:Chewi☆;
#MENUCOLOR:;
#METERTYPE:DDR X;
#BANNER:All Star.png;
#BACKGROUND:All Star-bg.png;
#LYRICSPATH:;
#CDTITLE:;
#MUSIC:All Star.mp3;
#OFFSET:-1.236;
#SAMPLESTART:38.179;
#SAMPLELENGTH:15.000;
#SELECTABLE:YES;
#LISTSORT:;
#BPMS:0.000=104.000;
#STOPS:;
#BGCHANGES:;
#ATTACKS:;

//---------------dance-single - Chewi----------------
#NOTES:
     dance-single:
     Chewi:
     Hard:
     8:
     0.330,0.341,0.101,0.211,0.000: // measure 1
0000
0000
0000
0000
,  // measure 2
0000
0000
0000
0000
,  // measure 3
0000
0000
0000
0000
,  // measure 4
0000
0000
0000
0000
,  // measure 5
1000
0100
1000
0000
0010
0000
0101
0000
,  // measure 6
0001
0010
0001
0000
0010
0000
1100
0000
,  // measure 7
1000
0100
1000
0000
0010
0001
0010
0000
,  // measure 8
0001
0100
0001
0000
0100
0010
0100
0000
,  // measure 9
0010
1000
0010
0000
1000
1000
1000
0000
,  // measure 10
1000
0100
0010
0001
0010
0100
1000
0000
,  // measure 11
0001
0100
0001
0000
0100
0100
0100
0000
,  // measure 12
0010
0100
0001
0010
0100
1000
0010
0000
,  // measure 13
1000
0100
1000
0000
0100
0010
0100
0000
,  // measure 14
0010
0001
0010
0000
0001
0100
0001
0000
,  // measure 15
0100
0010
1000
0001
2000
0000
3001
0000
,  // measure 16
0001
1000
0010
0100
0002
0000
0103
0000
,  // measure 17
0010
0010
0000
1000
0010
1000
0000
1000
,  // measure 18
0100
0010
0000
0011
0000
1100
0000
0000
,  // measure 19
0100
0100
0000
0100
0010
0100
0000
1000
,  // measure 20
0010
0100
0000
0101
0000
1010
0000
0010
,  // measure 21
0200
0000
0302
0000
1003
0100
0010
0002
,  // measure 22
0020
0000
0000
0033
0001
0010
0100
1000
,  // measure 23
0020
0000
0000
0000
1030
0010
0000
0100
,  // measure 24
0002
2000
0000
0000
0000
0000
3003
1000
,  // measure 25
0001
1000
0000
0001
0010
0100
1000
0000
,  // measure 26
0010
0100
0010
1000
0010
0100
0001
0000
,  // measure 27
1000
0100
0010
0100
1000
0000
1000
0001
,  // measure 28
1000
0000
0001
1000
0001
0000
1000
0010
,  // measure 29
0100
0000
0001
0100
0010
0000
1000
0100
,  // measure 30
0010
0001
0010
0100
1000
0000
0001
1000
,  // measure 31
0001
0000
0100
0100
0100
0000
0010
0100
,  // measure 32
0001
1000
0100
0010
0001
0000
0000
0000
,  // measure 33
0010
0010
0000
0001
0010
0100
0000
1000
,  // measure 34
0010
0100
0000
0110
0000
1001
0000
0000
,  // measure 35
1000
0100
0000
0010
0001
0010
0000
0001
,  // measure 36
0010
0100
0000
1100
0000
1010
0000
1000
,  // measure 37
0020
0000
0230
0000
0301
0010
0100
2000
,  // measure 38
0100
0200
0000
3300
0010
0100
1000
0010
,  // measure 39
0200
0000
0000
0000
0310
0010
0000
1000
,  // measure 40
0002
2000
0000
0000
0000
0000
3003
0001
,  // measure 41
0020
0000
0230
0000
1300
0010
0100
0010
,  // measure 42
0020
0200
0000
0330
0100
0010
1000
0001
,  // measure 43
0020
0000
0000
0000
0031
0010
0000
0100
,  // measure 44
2200
0000
0000
3300
;

//---------------dance-single - Chewi----------------
#NOTES:
     dance-single:
     Chewi:
     Medium:
     5:
     0.249,0.281,0.037,0.431,0.000: // measure 1
0000
0000
0000
0000
,  // measure 2
0000
0000
0000
0000
,  // measure 3
0000
0000
0000
0000
,  // measure 4
0000
0000
0000
0000
,  // measure 5
1000
0100
0010
0100
,  // measure 6
1000
0010
0100
0010
,  // measure 7
1000
0001
0010
0100
,  // measure 8
0220
0000
0000
0330
,  // measure 9
0100
0000
0010
0000
0001
0010
0001
0000
,  // measure 10
0100
0010
1000
1010
,  // measure 11
1000
0000
0100
0000
0010
0100
1000
0000
,  // measure 12
0010
0100
0001
0101
,  // measure 13
2000
0000
3020
0000
,  // measure 14
2030
3200
0320
0032
,  // measure 15
1003
0100
1000
0000
0100
0000
0000
0000
,  // measure 16
0001
0100
0001
0000
0100
0000
0000
0000
,  // measure 17
0200
0000
0320
0000
,  // measure 18
2030
0000
0000
0000
0001
0001
3001
0000
,  // measure 19
0002
0000
2003
0000
,  // measure 20
3200
0000
0000
0000
0010
0010
0310
0000
,  // measure 21
0002
0023
0230
2300
,  // measure 22
0002
0000
3003
0000
1000
0001
1000
0000
,  // measure 23
0200
0000
0320
0032
,  // measure 24
0023
0000
0000
0030
,  // measure 25
0001
0000
0000
0000
0001
1000
0010
0000
,  // measure 26
0100
0010
1000
0100
,  // measure 27
0010
0000
0100
0000
1000
0000
0010
0100
,  // measure 28
0010
1000
0010
0100
,  // measure 29
0001
0000
1000
0100
0010
0000
0001
0000
,  // measure 30
0010
0000
0100
0000
1000
0000
0001
1000
,  // measure 31
0001
0100
0100
0010
,  // measure 32
0100
0001
1001
0000
,  // measure 33
0020
0000
0230
0000
,  // measure 34
0302
0000
0000
0000
1000
1000
1003
0000
,  // measure 35
2000
0000
3002
0000
,  // measure 36
0023
0000
0000
0000
0100
0100
0130
0000
,  // measure 37
2000
3200
0320
0032
,  // measure 38
2000
0000
3003
0000
0001
1000
0001
0000
,  // measure 39
0020
0000
0230
2300
,  // measure 40
3200
0000
0000
0300
,  // measure 41
0002
0023
0230
2300
,  // measure 42
0002
0000
3003
0000
1000
0001
1000
0000
,  // measure 43
0200
0000
0320
0032
,  // measure 44
0023
0000
0000
0030
;

//---------------dance-single - Chewi----------------
#NOTES:
     dance-single:
     Chewi:
     Beginner:
     1:
     0.056,0.079,0.027,0.000,0.000: // measure 1
0000
0000
0000
0000
,  // measure 2
0000
0000
0000
0000
,  // measure 3
0000
0000
0000
0000
,  // measure 4
0000
0000
0000
0000
,  // measure 5
1000
0000
0000
0000
,  // measure 6
0001
0000
0000
0000
,  // measure 7
1000
0000
0000
0000
,  // measure 8
0001
0000
0000
0000
,  // measure 9
0100
0000
0000
0000
,  // measure 10
0010
0000
0000
0000
,  // measure 11
1000
0000
0000
0000
,  // measure 12
1000
0000
0000
0000
,  // measure 13
0001
0000
0000
0000
,  // measure 14
0100
0000
0000
0000
,  // measure 15
1000
0000
0000
0000
,  // measure 16
0100
0000
0000
0000
,  // measure 17
0100
0000
0000
0000
,  // measure 18
0010
0000
0000
0000
,  // measure 19
1000
0000
0000
0000
,  // measure 20
0001
0000
0000
0000
,  // measure 21
0001
0000
0000
0000
,  // measure 22
0100
0000
0000
0000
,  // measure 23
1000
0000
0000
0000
,  // measure 24
1001
0000
0000
0000
,  // measure 25
0100
0000
0000
0000
,  // measure 26
0010
0000
0000
0000
,  // measure 27
0010
0000
0000
0000
,  // measure 28
0010
0000
0000
0000
,  // measure 29
1000
0000
0000
0000
,  // measure 30
0100
0000
0000
0000
,  // measure 31
0010
0000
0000
0000
,  // measure 32
0100
0000
0000
0000
,  // measure 33
0100
0000
0000
0000
,  // measure 34
0010
0000
0000
0000
,  // measure 35
1000
0000
0000
0000
,  // measure 36
0001
0000
0000
0000
,  // measure 37
0001
0000
0000
0000
,  // measure 38
0100
0000
0000
0000
,  // measure 39
1000
0000
0000
0000
,  // measure 40
1001
0000
0000
0000
,  // measure 41
0001
0000
0000
0000
,  // measure 42
0100
0000
0000
0000
,  // measure 43
1000
0000
0000
0000
,  // measure 44
1001
0000
0000
0000
;

//---------------dance-single - Chewi----------------
#NOTES:
     dance-single:
     Chewi:
     Easy:
     3:
     0.152,0.158,0.055,0.073,0.000: // measure 1
0000
0000
0000
0000
,  // measure 2
0000
0000
0000
0000
,  // measure 3
0000
0000
0000
0000
,  // measure 4
0000
0000
0000
0000
,  // measure 5
2000
0000
0100
0000
,  // measure 6
3002
0000
0100
0000
,  // measure 7
2003
0000
0100
0000
,  // measure 8
3002
0000
0100
0000
,  // measure 9
0103
0000
0100
0000
,  // measure 10
0010
0100
0010
0000
,  // measure 11
1000
0000
1000
0000
,  // measure 12
1000
0001
1000
0000
,  // measure 13
0001
0000
0010
0000
,  // measure 14
0100
1000
0100
0000
,  // measure 15
1000
0000
0010
0000
,  // measure 16
0100
0001
0100
0000
,  // measure 17
0100
0100
0200
0000
,  // measure 18
0310
1000
0010
0000
,  // measure 19
1000
1000
2000
0000
,  // measure 20
3001
0010
0001
0000
,  // measure 21
0001
0010
0100
1000
,  // measure 22
0100
0000
1000
1000
,  // measure 23
1000
0000
1001
0000
,  // measure 24
1001
0000
0000
0000
,  // measure 25
0100
0000
0100
0000
,  // measure 26
0010
1000
0001
0000
,  // measure 27
0010
0000
0010
0000
,  // measure 28
0010
0001
1000
0000
,  // measure 29
1000
0000
0010
0000
,  // measure 30
0100
0001
0100
0000
,  // measure 31
0010
0000
1000
0000
,  // measure 32
0100
0010
0001
0000
,  // measure 33
0100
0100
0200
0000
,  // measure 34
0310
1000
0010
0000
,  // measure 35
1000
1000
2000
0000
,  // measure 36
3001
0010
0001
0000
,  // measure 37
0001
0010
0100
1000
,  // measure 38
0100
0000
1000
1000
,  // measure 39
1000
0000
1001
0000
,  // measure 40
1001
0000
0000
0000
,  // measure 41
0001
0010
0100
1000
,  // measure 42
0100
0000
1000
1000
,  // measure 43
1000
0000
1001
0000
,  // measure 44
1001
0000
0000
0000
;
