#VERSION:0.83;
#TITLE:All Men Are Pigs;
#SUBTITLE:;
#ARTIST:Studio Killers;
#TITLETRANSLIT:;
#SUBTITLETRANSLIT:;
#ARTISTTRANSLIT:;
#GENRE:Pop;
#ORIGIN:;
#CREDIT:steps by chewi;
#BANNER:All Men Are Pigs.png;
#BACKGROUND:All Men Are Pigs-bg.png;
#PREVIEWVID:;
#JACKET:All Men Are Pigs-jacket.png;
#CDIMAGE:;
#DISCIMAGE:;
#LYRICSPATH:;
#CDTITLE:cdtitle.png;
#MUSIC:All Men Are Pigs.ogg;
#OFFSET:-0.500000;
#SAMPLESTART:39.523998;
#SAMPLELENGTH:15.000000;
#SELECTABLE:YES;
#BPMS:0.000=123.000;
#STOPS:;
#DELAYS:;
#WARPS:;
#TIMESIGNATURES:0.000=4=4;
#TICKCOUNTS:0.000=4;
#COMBOS:0.000=1;
#SPEEDS:0.000=1.000=0.000=0;
#SCROLLS:0.000=1.000;
#FAKES:;
#LABELS:0.000=Song Start;
#BGCHANGES:;
#KEYSOUNDS:;
#ATTACKS:
;

//---------------dance-single - ----------------
#NOTEDATA:;
#CHARTNAME:;
#STEPSTYPE:dance-single;
#DESCRIPTION:;
#CHARTSTYLE:;
#DIFFICULTY:Beginner;
#METER:2;
#RADARVALUES:0.067079,0.123567,0.049427,0.065902,0.000000,57.000000,51.000000,6.000000,8.000000,0.000000,0.000000,0.000000,0.000000,0.000000,0.067079,0.123567,0.049427,0.065902,0.000000,57.000000,51.000000,6.000000,8.000000,0.000000,0.000000,0.000000,0.000000,0.000000;
#CREDIT:;
#NOTES:
// measure 0
0000
0000
0000
0000
,  // measure 1
0000
0000
0000
0000
,  // measure 2
0000
0000
0000
0000
,  // measure 3
0000
0000
0000
0000
,  // measure 4
1001
0000
0000
0000
,  // measure 5
0000
0000
0000
0000
,  // measure 6
0110
0000
0000
0000
,  // measure 7
0000
0000
0000
0000
,  // measure 8
1001
0000
0000
0000
,  // measure 9
0000
0000
0000
0000
,  // measure 10
0110
0000
0000
0000
,  // measure 11
0000
0000
0000
0000
,  // measure 12
0010
0000
0000
0000
,  // measure 13
0010
0000
0000
0000
,  // measure 14
0100
0000
0000
0000
,  // measure 15
0100
0000
0000
0000
,  // measure 16
0001
0000
0000
0000
,  // measure 17
0001
0000
0000
0000
,  // measure 18
1000
0000
0000
0000
,  // measure 19
1000
0000
0000
0000
,  // measure 20
1000
0000
1000
0000
,  // measure 21
1000
0000
0000
0000
,  // measure 22
0010
0000
0010
0000
,  // measure 23
0010
0000
0000
0000
,  // measure 24
0100
0000
0100
0000
,  // measure 25
0100
0000
0000
0000
,  // measure 26
0001
0000
0001
0000
,  // measure 27
0001
0000
0000
0000
,  // measure 28
1001
0000
0000
0000
,  // measure 29
0100
0000
0000
0000
,  // measure 30
0100
0000
0000
0000
,  // measure 31
0100
0000
0000
0000
,  // measure 32
1001
0000
0000
0000
,  // measure 33
0010
0000
0000
0000
,  // measure 34
0010
0000
0000
0000
,  // measure 35
0010
0000
0000
0000
,  // measure 36
0020
0000
0000
0000
,  // measure 37
0000
0000
0000
0030
,  // measure 38
0200
0000
0000
0000
,  // measure 39
0000
0000
0000
0300
,  // measure 40
0002
0000
0000
0000
,  // measure 41
0000
0000
0000
0003
,  // measure 42
2000
0000
0000
0000
,  // measure 43
0000
0000
0000
3000
,  // measure 44
0002
0000
0000
0000
,  // measure 45
0000
0000
0000
0003
,  // measure 46
0020
0000
0000
0000
,  // measure 47
0000
0000
0000
0030
,  // measure 48
0010
0000
0000
0000
,  // measure 49
0100
0000
0000
0000
,  // measure 50
0010
0000
0000
0000
,  // measure 51
0100
0000
0000
0000
,  // measure 52
1000
0000
1000
0000
,  // measure 53
1000
0000
0000
0000
,  // measure 54
0001
0000
0001
0000
,  // measure 55
0001
0000
0000
0000
,  // measure 56
0200
0000
0000
0000
,  // measure 57
0000
0000
0000
0300
,  // measure 58
0020
0000
0000
0000
,  // measure 59
0000
0000
0000
0030
,  // measure 60
0010
0000
0000
0000
;

//---------------dance-single - ----------------
#NOTEDATA:;
#CHARTNAME:;
#STEPSTYPE:dance-single;
#DESCRIPTION:;
#CHARTSTYLE:;
#DIFFICULTY:Easy;
#METER:4;
#RADARVALUES:0.115329,0.172993,0.041189,0.164756,0.000000,98.000000,93.000000,5.000000,20.000000,0.000000,0.000000,0.000000,0.000000,0.000000,0.115329,0.172993,0.041189,0.164756,0.000000,98.000000,93.000000,5.000000,20.000000,0.000000,0.000000,0.000000,0.000000,0.000000;
#CREDIT:;
#NOTES:
// measure 0
0000
0000
0000
0000
,  // measure 1
0000
0000
0000
0000
,  // measure 2
0000
0000
0000
0000
,  // measure 3
0000
0000
0000
0000
,  // measure 4
2000
0000
0000
3000
,  // measure 5
0000
0000
1000
0000
,  // measure 6
0002
0000
0000
0003
,  // measure 7
0000
0000
0001
0000
,  // measure 8
0200
0000
0000
0300
,  // measure 9
0000
0000
0100
0000
,  // measure 10
0020
0000
0000
0030
,  // measure 11
0000
0000
0010
0000
,  // measure 12
0110
0000
0000
0000
,  // measure 13
0100
0100
0100
0000
,  // measure 14
0110
0000
0000
0000
,  // measure 15
0010
0010
0010
0000
,  // measure 16
1001
0000
0000
0000
,  // measure 17
0001
1000
0001
0000
,  // measure 18
1001
0000
0000
0000
,  // measure 19
1000
0001
1000
0000
,  // measure 20
0002
0000
0010
0000
,  // measure 21
0100
0100
0103
0000
,  // measure 22
2000
0000
0010
0000
,  // measure 23
0100
0100
3100
0000
,  // measure 24
0200
0000
0000
0300
,  // measure 25
0100
0010
0100
0000
,  // measure 26
0020
0000
0000
0030
,  // measure 27
0010
0100
0010
0000
,  // measure 28
0001
0000
1000
0000
,  // measure 29
0001
1000
0001
0000
,  // measure 30
1000
0000
0001
0000
,  // measure 31
1000
0001
1000
0000
,  // measure 32
0010
0000
0100
0000
,  // measure 33
0010
0100
0010
0000
,  // measure 34
0100
0000
0010
0000
,  // measure 35
0100
0010
0100
0000
,  // measure 36
0020
0000
0000
0000
,  // measure 37
0000
0000
0000
0030
,  // measure 38
2000
0000
0000
0000
,  // measure 39
0000
0000
0000
3000
,  // measure 40
0200
0000
0000
0000
,  // measure 41
0000
0000
0000
0300
,  // measure 42
0002
0000
0000
0000
,  // measure 43
0000
0000
0000
0003
,  // measure 44
0020
0000
0000
0000
,  // measure 45
0000
0000
0000
0030
,  // measure 46
2000
0000
0000
0000
,  // measure 47
0000
0000
0000
3000
,  // measure 48
0002
0000
0000
0000
,  // measure 49
0010
0010
0013
0000
,  // measure 50
2000
0000
0000
0000
,  // measure 51
0010
0010
3010
0000
,  // measure 52
0020
0000
0000
0030
,  // measure 53
0010
0100
0010
0000
,  // measure 54
0200
0000
0000
0300
,  // measure 55
0100
0010
0100
0000
,  // measure 56
0002
0000
0000
0003
,  // measure 57
0001
0001
0001
0000
,  // measure 58
2000
0000
0000
3000
,  // measure 59
1000
1000
1000
0000
,  // measure 60
1001
0000
0000
0000
;

//---------------dance-single - ----------------
#NOTEDATA:;
#CHARTNAME:;
#STEPSTYPE:dance-single;
#DESCRIPTION:;
#CHARTSTYLE:;
#DIFFICULTY:Medium;
#METER:7;
#RADARVALUES:0.218889,0.247133,0.065902,0.131804,0.000000,186.000000,178.000000,8.000000,16.000000,0.000000,0.000000,0.000000,0.000000,0.000000,0.218889,0.247133,0.065902,0.131804,0.000000,186.000000,178.000000,8.000000,16.000000,0.000000,0.000000,0.000000,0.000000,0.000000;
#CREDIT:;
#NOTES:
// measure 0
0000
0000
0000
0000
,  // measure 1
0000
0000
0000
0000
,  // measure 2
0000
0000
0000
0000
,  // measure 3
0000
0000
0000
0000
,  // measure 4
1000
0000
0000
1000
0000
0000
1000
0000
,  // measure 5
0000
0100
0100
0100
,  // measure 6
0010
0000
0000
0010
0000
0000
0010
0000
,  // measure 7
0000
0001
0001
0001
,  // measure 8
0100
0000
0000
0100
0000
0000
0100
0000
,  // measure 9
0000
0010
0010
0010
,  // measure 10
1000
0000
0000
1000
0000
0000
1000
0000
,  // measure 11
0000
0001
0001
0001
,  // measure 12
1000
0000
0000
0001
0000
0000
1000
0000
,  // measure 13
0001
0100
0001
1000
,  // measure 14
0001
0000
0000
1000
0000
0000
0001
0000
,  // measure 15
1000
0100
1000
0001
,  // measure 16
0100
0000
0000
0010
0000
0000
0100
0000
,  // measure 17
0010
0100
0010
1000
,  // measure 18
0100
0000
0000
0100
0000
0000
0100
0000
,  // measure 19
0010
0001
1000
0010
,  // measure 20
2000
3100
0002
0103
,  // measure 21
2000
0100
0001
3100
,  // measure 22
0002
0013
2000
3010
,  // measure 23
0002
0010
1000
0013
,  // measure 24
0010
0100
2000
3001
,  // measure 25
0100
0010
2000
3001
,  // measure 26
1000
0100
0010
0001
,  // measure 27
0001
0010
0100
1000
,  // measure 28
1002
0000
1000
0000
,  // measure 29
1000
0100
1003
0000
,  // measure 30
2001
0000
0001
0000
,  // measure 31
0100
0001
3100
0000
,  // measure 32
1200
0000
1000
0000
,  // measure 33
0010
0010
0310
0000
,  // measure 34
0021
0000
0001
0000
,  // measure 35
0100
0100
0130
0000
,  // measure 36
0100
0000
0100
0000
0100
0010
0100
0000
,  // measure 37
0100
1000
0001
0100
,  // measure 38
0010
0000
0010
0000
0010
0100
0010
0000
,  // measure 39
0100
0001
1000
0010
,  // measure 40
1000
0000
0100
0000
,  // measure 41
0100
0010
0001
0000
,  // measure 42
0001
0000
0100
0000
,  // measure 43
0100
0010
1000
0000
,  // measure 44
0001
0000
0010
0000
,  // measure 45
0010
0100
1000
0000
,  // measure 46
1000
0000
0010
0000
,  // measure 47
0010
0100
0001
0000
,  // measure 48
0001
0000
0000
0001
0000
0000
0000
0000
,  // measure 49
0001
0000
0000
0001
0000
0000
0000
0000
,  // measure 50
1000
0000
0000
1000
0000
0000
0000
0000
,  // measure 51
0000
1000
0001
1001
,  // measure 52
0100
0010
0002
1003
,  // measure 53
0010
0100
0002
1003
,  // measure 54
0001
0010
0100
1000
,  // measure 55
1000
0100
0010
0001
,  // measure 56
2001
0000
0001
0000
,  // measure 57
0001
0010
3001
0000
,  // measure 58
1002
0000
1000
0000
,  // measure 59
0010
1000
0013
0000
,  // measure 60
0110
0000
0000
0000
;

//---------------dance-single - ----------------
#NOTEDATA:;
#CHARTNAME:;
#STEPSTYPE:dance-single;
#DESCRIPTION:;
#CHARTSTYLE:;
#DIFFICULTY:Hard;
#METER:10;
#RADARVALUES:0.301267,0.444840,0.057664,0.263609,0.144161,256.000000,249.000000,7.000000,32.000000,0.000000,0.000000,0.000000,0.000000,0.000000,0.301267,0.444840,0.057664,0.263609,0.144161,256.000000,249.000000,7.000000,32.000000,0.000000,0.000000,0.000000,0.000000,0.000000;
#CREDIT:;
#NOTES:
// measure 0
0000
0000
0000
0000
,  // measure 1
0000
0000
0000
0000
,  // measure 2
0000
0000
0000
0000
,  // measure 3
0000
0000
0000
0000
,  // measure 4
0010
0000
0000
0010
0000
0000
0010
0000
0000
0010
0000
0000
0010
0000
0000
0010
,  // measure 5
0000
0000
0000
0000
0000
0000
0000
0000
0100
0000
0000
0001
0000
0000
0000
0000
,  // measure 6
0010
0000
0000
0010
0000
0000
0010
0000
0000
0010
0000
0000
0010
0000
0000
0010
,  // measure 7
0000
0000
0000
0000
0000
0000
0000
0000
0100
0000
0000
1000
0000
0000
0000
0000
,  // measure 8
1000
0000
0000
1000
0000
0000
1000
0000
0000
1000
0000
0000
1000
0000
0000
1000
,  // measure 9
0000
0000
0000
0000
0000
0000
0000
0000
0010
0000
0000
0100
0000
0000
0000
0000
,  // measure 10
0001
0000
0000
0001
0000
0000
0001
0000
0000
0001
0000
0000
0001
0000
0000
0001
,  // measure 11
0000
0000
0000
0000
0000
0000
1000
0001
1000
0000
0000
1000
0000
0000
1000
0000
,  // measure 12
0010
0000
0000
0001
0000
0000
0010
0000
0000
1000
0000
0000
0010
0000
0000
0000
,  // measure 13
1000
0100
0010
0100
2000
0001
3001
0000
,  // measure 14
1000
0000
0000
0010
0000
0000
0100
0000
0000
0001
0000
0000
0100
0000
0000
0000
,  // measure 15
0001
0100
0010
0100
0002
0010
0013
0000
,  // measure 16
0100
0000
0000
1000
0000
0000
0100
0000
0000
0001
0000
0000
0100
0000
0000
0000
,  // measure 17
0001
0010
0100
0010
0002
1000
1003
0000
,  // measure 18
0001
0000
0000
0100
0000
0000
0010
0000
0000
1000
0000
0000
0020
0000
0000
0000
,  // measure 19
1000
0000
0100
0000
0001
0000
0130
0100
,  // measure 20
0002
0000
0013
0100
2000
0000
3010
0100
,  // measure 21
0002
0000
0100
0000
1000
0000
0013
0001
,  // measure 22
0200
0000
0310
1000
0200
0000
0310
0001
,  // measure 23
0200
0001
0010
0301
,  // measure 24
0001
0010
0100
1000
2000
0001
3001
0000
,  // measure 25
1000
0100
0010
0001
0002
1000
1003
0000
,  // measure 26
2000
0000
3001
0100
0002
0000
1003
0100
,  // measure 27
2000
0000
0100
0000
0001
0000
3001
0100
,  // measure 28
0001
0000
0001
0000
0010
0001
1000
0010
,  // measure 29
0010
0000
0100
0000
0010
0000
0000
0100
,  // measure 30
0100
0000
0100
0000
0100
0001
1000
0100
,  // measure 31
0100
0000
0010
0000
0100
0000
0000
1000
,  // measure 32
1000
0000
1000
0000
0100
1000
0001
0100
,  // measure 33
0100
0000
0010
0000
0100
0000
0000
0010
,  // measure 34
0010
0000
0010
0000
0010
1000
0001
0010
,  // measure 35
0010
0100
0010
0000
,  // measure 36
0220
0000
0000
0000
,  // measure 37
0000
0000
0000
0330
,  // measure 38
2002
0000
0000
0000
,  // measure 39
0000
0000
0000
3003
,  // measure 40
0022
0000
0000
0033
,  // measure 41
0001
0000
0000
0001
0000
0000
0000
0000
,  // measure 42
2200
0000
0000
3300
,  // measure 43
1000
0000
0000
1000
0000
0000
0000
0000
,  // measure 44
2020
0000
0000
3030
,  // measure 45
1000
0000
0000
1000
0000
0000
0000
0000
,  // measure 46
0202
0000
0000
0303
,  // measure 47
0000
0000
0000
0001
0100
0000
0000
0001
0000
0000
0100
0001
0100
0000
0001
0100
,  // measure 48
0001
0000
0000
0001
0000
0000
0000
0000
,  // measure 49
1000
0000
0000
0100
0000
0000
1000
0000
0000
0000
0000
0000
0000
0000
0000
0000
,  // measure 50
1000
0000
0000
0000
0000
0000
1000
0000
0000
0000
1000
0000
0000
1000
0000
0000
,  // measure 51
0001
0000
0000
1000
0001
0000
0000
1000
0000
0000
0001
1000
0001
0000
1000
0001
,  // measure 52
1000
0100
0010
0001
0002
1000
1003
0000
,  // measure 53
0001
0010
0100
1000
2000
0001
3001
0000
,  // measure 54
0002
0000
1003
0010
2000
0000
3001
0010
,  // measure 55
0002
0000
0010
0000
1000
0000
1003
0010
,  // measure 56
1000
0000
1000
0000
0100
1000
0001
0100
,  // measure 57
0100
0000
0010
0000
0100
0000
0000
0010
,  // measure 58
0010
0000
0010
0000
0010
1000
0001
0010
,  // measure 59
0010
0100
0010
0000
,  // measure 60
0110
0000
0000
0000
;
