#TITLE:All I Want Is You;
#SUBTITLE:;
#ARTIST:m-flo;
#TITLETRANSLIT:;
#SUBTITLETRANSLIT:;
#ARTISTTRANSLIT:;
#CREDIT:Chewi☆;
#BANNER:All I Want Is You.png;
#BACKGROUND:All I Want Is You-bg.png;
#LYRICSPATH:;
#CDTITLE:;
#MUSIC:All I Want Is You.mp3;
#OFFSET:-0.525;
#SAMPLESTART:96.599;
#SAMPLELENGTH:15.000;
#SELECTABLE:YES;
#BPMS:0.000=128.000;
#STOPS:;
#BGCHANGES:;

//---------------dance-single - Chewi----------------
#NOTES:
     dance-single:
     Chewi:
     Easy:
     4:
     0.147,0.201,0.037,0.133,0.000: // measure 1
0000
0000
0000
0000
,  // measure 2
0000
0000
0000
0000
,  // measure 3
0000
0000
0000
0000
,  // measure 4
0000
0000
0000
0000
,  // measure 5
2000
0000
0000
3000
,  // measure 6
0002
0000
0000
0003
,  // measure 7
2000
0000
0000
3000
,  // measure 8
0002
0000
0000
0003
,  // measure 9
0200
0000
0000
0300
,  // measure 10
0020
0000
0000
0030
,  // measure 11
0200
0000
0000
0300
,  // measure 12
0020
0000
0000
0030
,  // measure 13
2000
0000
0000
3000
,  // measure 14
0002
0000
0000
0003
,  // measure 15
0020
0000
0000
0030
,  // measure 16
0200
0000
0000
0300
,  // measure 17
0110
0000
0000
0000
,  // measure 18
0110
0000
0000
0000
,  // measure 19
0010
0010
0010
0000
,  // measure 20
0100
0100
0100
0000
,  // measure 21
1001
0000
0000
0000
,  // measure 22
1001
0000
0000
0000
,  // measure 23
0001
0001
0001
0000
,  // measure 24
1000
1000
1000
0000
,  // measure 25
0020
0000
0000
0000
,  // measure 26
0000
0000
0000
0000
,  // measure 27
0230
0000
0000
0000
,  // measure 28
0000
0000
0000
0000
,  // measure 29
0302
0000
0000
0000
,  // measure 30
0000
0000
0000
0000
,  // measure 31
2003
0000
0000
0000
,  // measure 32
0000
0000
0000
0000
,  // measure 33
3001
0001
0000
0000
,  // measure 34
0001
0001
0000
0000
,  // measure 35
0001
1000
0001
1000
,  // measure 36
0000
0000
0000
0000
,  // measure 37
1000
1000
0000
0000
,  // measure 38
1000
1000
0000
0000
,  // measure 39
1000
0001
1000
0001
,  // measure 40
0000
0000
0000
0000
,  // measure 41
1000
0001
0100
0000
,  // measure 42
0100
0000
0100
0000
,  // measure 43
0100
0100
0100
0000
,  // measure 44
0010
0010
0010
0000
,  // measure 45
1000
0001
0010
0000
,  // measure 46
0010
0000
0010
0000
,  // measure 47
0010
0100
1000
0000
,  // measure 48
0010
0100
0001
0000
,  // measure 49
2000
0000
0000
0000
,  // measure 50
0000
0000
0000
0000
,  // measure 51
3002
0000
0000
0000
,  // measure 52
0000
0000
0000
0000
,  // measure 53
1003
1000
0000
0000
,  // measure 54
1000
1000
0000
0000
,  // measure 55
1000
0001
1000
0001
,  // measure 56
1000
0100
1000
0000
,  // measure 57
0001
0001
0000
0000
,  // measure 58
0001
0001
0000
0000
,  // measure 59
0001
1000
0001
1000
,  // measure 60
0001
0010
0001
0000
,  // measure 61
0001
1000
0010
0000
,  // measure 62
0010
0000
0010
0000
,  // measure 63
0010
0010
0010
0000
,  // measure 64
0100
0100
0100
0000
,  // measure 65
0001
1000
0100
0000
,  // measure 66
0100
0000
0100
0000
,  // measure 67
0100
0010
0001
0000
,  // measure 68
0100
0010
1000
0000
,  // measure 69
1001
0000
0000
0000
;

//---------------dance-single - Chewi----------------
#NOTES:
     dance-single:
     Chewi:
     Hard:
     10:
     0.330,0.351,0.184,0.192,0.074:
0000
0000
0000
0000
,
0000
0000
0000
0000
,
0000
0000
0000
0000
,
0000
0000
0000
0000
,
2000
0000
0000
0000
,
3200
0000
0000
0000
,
0302
0000
0000
0000
,
0023
0000
0000
0000
,
1030
1000
1000
1000
,
0001
0001
0001
0001
,
1000
0100
0010
0010
,
0001
0010
0100
0100
,
1000
0001
0100
0010
,
1000
0001
0010
0100
,
1000
0000
0010
0000
1000
0100
1000
0000
,
0010
0000
0100
0000
0001
0010
0001
0000
,
1001
0000
0000
0000
1000
0100
1000
0000
,
1001
0000
0000
0000
0100
0010
0100
0000
,
0010
0010
1000
1000
,
0001
0001
0100
0100
,
0001
0000
0000
0000
1000
0001
1000
0000
,
1001
0000
0000
0000
0001
1000
0001
0000
,
1001
0000
0000
0000
0100
0010
0001
0010
,
0001
0010
0100
1000
,
0001
0000
0000
0001
0000
0000
0001
0000
1000
0000
0000
1000
0000
0000
1000
0000
,
0001
0000
0000
1000
0000
0000
0001
0000
1001
0000
0000
0000
0000
0000
0000
0000
,
0100
0000
0000
0100
0000
0000
0100
0000
0010
0000
0000
0010
0000
0000
0010
0000
,
0100
0000
0000
0010
0000
0000
0100
0000
0020
0000
0000
0000
0000
0000
0000
0000
,
0030
0000
1000
0000
0100
0010
0001
0000
,
0011
0000
0000
0000
0001
0010
0100
0000
,
1100
0000
0000
0000
1000
0100
1000
0000
,
2200
0000
0000
3300
,
1000
0000
0000
1000
0000
0000
1000
0000
0000
1000
0000
0000
2000
0000
0000
0000
,
3001
0000
0000
0001
0000
0000
0001
0000
0000
0001
0000
0000
0002
0000
0000
0000
,
1003
0000
0000
1000
0000
0000
1000
0000
0000
1000
0000
0000
2000
0000
0000
0000
,
3001
0000
0000
0001
0000
0000
0001
0000
0000
0001
0000
0000
0002
0000
0000
0000
,
0203
0010
0001
0010
,
0320
1000
0100
1000
,
2030
0100
0001
0100
,
3002
0023
0230
2300
,
3001
0010
0001
0000
1000
0000
1100
0000
,
1000
0010
1000
0000
0001
0000
0101
0000
,
0100
0010
0100
0000
0010
0000
0110
0000
,
0010
1000
0100
0001
,
0010
1000
0010
0000
1000
0000
1100
0000
,
0010
0001
0010
0000
0001
0000
0101
0000
,
0010
0001
0100
1000
,
0010
0000
0100
0000
0001
1000
0100
0000
,
0020
0001
0001
0001
,
0032
1000
0100
0010
,
2003
0010
0010
0010
,
3020
0100
0001
0100
,
1030
0000
0000
0000
1000
0100
0010
0000
,
0011
0000
0000
0000
0001
0010
0100
0000
,
1100
0001
0100
0010
,
0100
0101
0001
1001
,
1100
0000
0000
0000
1000
0100
0010
0000
,
0110
0000
0000
0000
0100
1000
0010
0000
,
1010
0000
0000
0000
0010
0100
0001
0100
,
0002
1000
0010
1003
,
1000
0000
0000
1000
0000
0000
1000
0000
0001
0000
0000
0001
0000
0000
0001
0000
,
1000
0000
0000
0001
0000
0000
1000
0000
0001
0000
0000
0000
1001
0000
0000
0000
,
0100
0000
0000
0100
0000
0000
0100
0000
0010
0000
0000
0010
0000
0000
0010
0000
,
0100
0000
0000
0010
0000
0000
0100
0000
0020
0000
0000
0000
0000
0000
0000
0000
,
0030
0000
0001
0000
0010
0001
0010
0000
,
1100
0000
0000
0000
1000
0001
0010
0000
,
1001
0000
0000
0000
1000
0001
0100
0000
,
0220
0000
0000
0330
,
0110
0000
0000
0000
;

//---------------dance-single - Chewi----------------
#NOTES:
     dance-single:
     Chewi:
     Medium:
     6:
     0.210,0.226,0.096,0.111,0.000:
0000
0000
0000
0000
,
0000
0000
0000
0000
,
0000
0000
0000
0000
,
0000
0000
0000
0000
,
0001
0000
0000
0000
,
0100
0000
0000
0000
,
0010
0000
0000
0000
,
1000
0000
0000
0000
,
0001
0001
0001
0000
,
1000
1000
1000
0000
,
0001
0001
0001
0000
,
1000
1000
1000
0000
,
0100
0100
0100
0000
,
0010
0010
0010
0000
,
0100
0100
0100
0000
,
0010
0010
0010
0000
,
1001
0000
0000
0000
,
1001
0000
0000
0000
,
0101
0000
0000
0000
,
0101
0000
0000
0000
,
1001
0000
0000
0000
,
1001
0000
0000
0000
,
1100
0000
0000
0000
,
1100
0000
0000
0000
,
1000
0001
1000
0001
,
0100
0100
0100
0100
,
0001
1000
0001
1000
,
0010
0010
0010
0010
,
0010
0100
0010
0100
,
0001
0001
0001
0001
,
0010
0100
0010
0100
,
1000
1000
1000
1000
,
2000
0000
0000
0000
,
3002
0000
0000
0000
,
0203
0000
0000
0000
,
0320
0000
0000
0000
,
2030
0000
0000
0000
,
3200
0000
0000
0000
,
0320
0000
0000
0000
,
0032
0000
0000
0000
,
1003
1000
0100
0100
,
0001
0010
1000
0100
,
0001
0001
0100
0100
,
1000
0010
0001
0100
,
1000
1000
0100
0100
,
0001
0010
1000
0100
,
0001
0001
0010
0010
,
0100
0001
0100
0010
,
2000
0000
0000
0000
,
0000
0000
3001
1000
,
2002
0000
0000
0000
,
3003
0100
0010
0100
,
0110
0000
0010
0100
,
0110
0000
0100
0001
,
0100
0010
1000
0001
,
0010
0100
1000
0010
,
1000
0000
0010
0100
,
0101
0000
0001
1000
,
1100
0000
1000
0100
,
0010
0001
1000
0100
,
2000
0000
3002
0000
,
0103
0010
0100
0010
,
0020
0000
2030
0000
,
3010
0100
0001
0100
,
0010
1000
0100
0010
,
0001
1000
0001
0010
,
0100
1000
0001
0010
,
0100
0010
0001
0010
,
0010
0000
0000
0000
;

//---------------dance-single - Chewi----------------
#NOTES:
     dance-single:
     Chewi:
     Challenge:
     12:
     0.425,0.476,0.236,0.457,0.118:
0000
0000
0000
0000
,
0000
0000
0000
0000
,
0000
0000
0000
0000
,
0000
0000
0000
0000
,
2000
0000
0000
0000
,
3020
0000
0000
0000
,
0230
0000
0000
0000
,
0302
0000
0000
0000
,
2003
0100
0001
3100
,
0002
0100
1000
0103
,
2000
0010
0001
3010
,
0002
0010
1000
0013
,
0020
0100
0001
0130
,
0200
1000
0001
1300
,
2000
0010
0001
3100
,
0002
0010
1000
0103
,
2002
0000
3003
0000
1000
0100
0010
0001
,
0022
0000
0033
0000
0001
0010
0100
1000
,
0010
0000
0010
1000
0000
1100
0000
0011
,
0000
0101
0000
0020
0000
0000
0130
0200
,
0000
0000
0300
0000
0001
1000
0100
0010
,
0220
0000
0330
0000
0010
0100
1000
0001
,
2002
0000
3003
0001
1000
0100
0010
0002
,
0000
0000
0000
0000
0003
0010
0010
0000
,
0010
0000
0000
0001
0000
0000
0010
0000
0001
0000
0000
0100
0000
0000
0001
0000
,
0100
0000
0000
0010
0000
0000
1000
0000
0020
0000
0000
0000
1030
0000
1000
0000
,
1000
0000
0000
0010
0000
0000
1000
0000
0100
0000
0000
0010
0000
0000
0100
0000
,
0010
0000
0000
0001
0000
0000
1000
0000
0002
0000
0000
0000
0000
0000
0000
0000
,
0003
0000
0010
0100
1000
0100
0010
0001
,
0202
0000
0303
0000
0100
0010
0100
0001
,
0022
0000
0033
0000
0001
0010
0100
1000
,
2200
0000
0000
3300
,
1000
0000
0000
1000
0000
0000
1000
0000
0000
1000
0000
0000
2000
0000
0000
0000
,
3001
0000
0000
0001
0000
0000
0001
0000
0000
0001
0000
0000
0002
0000
0000
0000
,
0103
0000
0000
0100
0000
0000
0100
0000
0000
0100
0000
0000
0200
0000
0000
0000
,
0310
0000
0000
0010
0000
0000
0010
0000
0000
0010
0000
0000
0020
0000
0000
0000
,
1030
0010
0000
1000
0000
0100
0000
0010
0000
0001
0000
1000
0200
0000
0000
0000
,
0310
0001
0000
0001
0000
1000
0000
0010
0000
0100
0000
0001
0200
0000
0000
0000
,
0310
0010
0010
0010
1000
1000
1000
1000
,
1010
0101
0011
1100
,
1000
0100
1000
0000
0001
0100
0001
0000
,
1000
0100
0010
0000
0001
0100
0010
0000
,
1000
0100
0010
0001
1000
0100
1100
0000
,
0001
0010
0100
1000
0001
0010
0011
0000
,
0001
0100
0001
0000
1000
0100
1000
0000
,
0001
0010
0001
0000
1000
0010
1000
0000
,
0010
0100
0001
0010
0100
1000
1100
0000
,
0100
0010
0100
1000
0001
1000
1001
0000
,
0012
0100
1000
0010
,
1000
0000
0103
0000
0100
0010
1000
0001
,
2001
3100
1002
0103
,
2001
0000
3010
0100
0001
0010
0100
1000
,
2020
0000
3030
0000
1000
0010
0100
0001
,
0202
0000
0303
0000
0010
0100
0001
1000
,
0100
0000
0100
0010
0000
0011
0000
1100
,
0000
0101
0000
0020
0000
0000
1030
2000
,
0000
0000
3000
0000
1000
0010
0100
0001
,
0202
0000
0303
0000
0001
0010
0100
1000
,
2200
0000
3300
0001
0010
0100
1000
0020
,
0000
1000
0001
1030
,
0010
0000
0000
1000
0000
0000
0010
0000
1000
0000
0000
0100
0000
0000
1000
0000
,
0100
0000
0000
0010
0000
0000
0001
0000
0020
0000
0000
0000
0030
0000
0000
0000
,
0001
0000
0000
0100
0000
0000
0001
0000
0100
0000
0000
0010
0000
0000
0100
0000
,
0010
0000
0000
1000
0000
0000
0100
0000
2000
0000
0000
0000
0000
0000
0000
0000
,
3000
0000
0001
0010
0100
1000
0100
1000
,
2200
0000
3300
0000
1000
0010
0100
0001
,
0202
0000
0303
0000
0010
1000
0001
1000
,
1002
0023
0230
2300
,
3001
0000
0000
0000
;

//---------------dance-single - Chewi----------------
#NOTES:
     dance-single:
     Chewi:
     Beginner:
     1:
     0.076,0.100,0.044,0.037,0.000:
0000
0000
0000
0000
,
0000
0000
0000
0000
,
0000
0000
0000
0000
,
0000
0000
0000
0000
,
1000
0000
0000
0000
,
0001
0000
0000
0000
,
0100
0000
0000
0000
,
0100
0000
0000
0000
,
0001
0000
0000
0000
,
1000
0000
0000
0000
,
0010
0000
0000
0000
,
0010
0000
0000
0000
,
1000
0000
0000
0000
,
0001
0000
0000
0000
,
0100
0000
0000
0000
,
0010
0000
0000
0000
,
1001
0000
0000
0000
,
1000
0000
0000
0000
,
0001
0000
0000
0000
,
1000
0000
0000
0000
,
0110
0000
0000
0000
,
0010
0000
0000
0000
,
0100
0000
0000
0000
,
0010
0000
0000
0000
,
2000
0000
0000
0000
,
0000
0000
0000
3000
,
2000
0000
0000
0000
,
0000
0000
0000
3000
,
0002
0000
0000
0000
,
0000
0000
0000
0003
,
0002
0000
0000
0000
,
0000
0000
0000
0003
,
0001
0000
0000
0000
,
0001
0000
0000
0000
,
0001
0000
1000
0000
,
1000
0000
0000
0000
,
1000
0000
0000
0000
,
1000
0000
0000
0000
,
1000
0000
0001
0000
,
0001
0000
0000
0000
,
1000
0000
0000
0000
,
0001
0000
0000
0000
,
0100
0000
0000
0000
,
0010
0000
0000
0000
,
1000
0000
0000
0000
,
0001
0000
0000
0000
,
0010
0000
0000
0000
,
0100
0000
0000
0000
,
0200
0000
0000
0000
,
0000
0000
0000
0300
,
0100
0000
0000
0000
,
0000
0000
0000
0000
,
0110
0000
0000
0000
,
0010
0000
0000
0000
,
0100
0000
0000
0000
,
0010
0000
0000
0000
,
1001
0000
0000
0000
,
0001
0000
0000
0000
,
1000
0000
0000
0000
,
0001
0000
0000
0000
,
1001
0000
0000
0000
,
0100
0000
0000
0000
,
0010
0000
0000
0000
,
0100
0000
0000
0000
,
0110
0000
0000
0000
,
1000
0000
0000
0000
,
0001
0000
0000
0000
,
1000
0000
0000
0000
,
1000
0000
0000
0000
;
