#TITLE:All I Have (feat. LL Cool J);
#SUBTITLE:;
#ARTIST:Jennifer Lopez;
#TITLETRANSLIT:;
#SUBTITLETRANSLIT:;
#ARTISTTRANSLIT:;
#GENRE:R&B;
#CREDIT:chewi;
#BANNER:All I Have (feat. LL Cool J).png;
#BACKGROUND:All I Have (feat. LL Cool J)-bg.png;
#LYRICSPATH:;
#CDTITLE:cdtitle.png;
#MUSIC:All I Have (feat. LL Cool J).ogg;
#OFFSET:-0.113300;
#SAMPLESTART:52.159000;
#SAMPLELENGTH:15.000000;
#SELECTABLE:YES;
#BPMS:0.000000=83.000000
;
#STOPS:
;
#BGCHANGES:-0.132=All I Have (feat. LL Cool J).avi=1.000=1=0=0=StretchNoLoop==CrossFade==,
99999=-nosongbg-=1.000=0=0=0 // don't automatically add -songbackground-
;
#KEYSOUNDS:;
#ATTACKS:;

//---------------dance-single - ----------------
#NOTES:
     dance-single:
     :
     Beginner:
     1:
     0.059948,0.083928,0.047959,0.000000,0.000000,31.000000,4.000000,0.000000,0.000000,0.000000,0.000000,0.059948,0.083928,0.047959,0.000000,0.000000,31.000000,4.000000,0.000000,0.000000,0.000000,0.000000:
0000
0000
0000
0000
,
0000
0000
0000
0000
,
1000
0000
0000
0000
,
0001
0000
0000
0000
,
0010
0000
0000
0000
,
0100
0000
0000
0000
,
0001
0000
0000
0000
,
1000
0000
0000
0000
,
1001
0000
0000
0000
,
0010
0000
0000
0000
,
0110
0000
0000
0000
,
0100
0000
0000
0000
,
0001
0000
0000
0000
,
1000
0000
0000
0000
,
0010
0000
0000
0000
,
0100
0000
0000
0000
,
0010
0000
0000
0000
,
1000
0000
0000
0000
,
1000
0000
0000
0000
,
0001
0000
0001
0000
,
0001
0000
0000
0000
,
1000
0000
1000
0000
,
0010
0000
0000
0000
,
0100
0000
0100
0000
,
0010
0000
0000
0000
,
1000
0000
0001
0000
,
1001
0000
0000
0000
,
0100
0000
0000
0000
,
0110
0000
0000
0000
;

//---------------dance-single - ----------------
#NOTES:
     dance-single:
     :
     Easy:
     3:
     0.106194,0.117499,0.047959,0.000000,0.000000,58.000000,4.000000,0.000000,0.000000,0.000000,0.000000,0.106194,0.117499,0.047959,0.000000,0.000000,58.000000,4.000000,0.000000,0.000000,0.000000,0.000000:
0000
0000
0000
0000
,
0000
0000
0000
0000
,
1000
0000
1000
1000
,
1000
0000
1001
0000
,
0001
0000
0100
0000
,
0010
0000
1000
0000
,
1000
0000
0100
0000
,
0010
0000
0001
0000
,
0010
0000
0010
0000
,
0100
0000
0100
0100
,
0100
0000
1000
0000
,
0001
0000
0010
0010
,
0010
0000
0100
0000
,
1000
0000
0001
0000
,
1000
0000
0001
0000
,
0100
0000
0010
0000
,
0100
0000
0010
0000
,
1000
0000
0001
0001
,
0001
0000
1000
0000
,
0001
0000
0010
0010
,
0100
0000
0010
0000
,
0100
0000
1000
0000
,
1001
0000
0100
0000
,
0010
0000
0001
0000
,
1001
0000
0001
0000
,
1000
0000
0010
0000
,
0110
0000
0000
0000
,
0100
0000
0100
0100
,
0100
0000
0000
0000
;

//---------------dance-single - ----------------
#NOTES:
     dance-single:
     :
     Medium:
     6:
     0.205538,0.201427,0.047959,0.047959,0.000000,112.000000,4.000000,4.000000,0.000000,0.000000,0.000000,0.205538,0.201427,0.047959,0.047959,0.000000,112.000000,4.000000,4.000000,0.000000,0.000000,0.000000:
0000
0000
0000
0000
,
0000
0000
0000
0000
,
1000
0000
0001
0000
1000
1000
0001
0000
,
0010
0000
0100
0000
0010
0010
0100
0000
,
0010
0001
1000
0100
,
0010
0100
1000
0001
,
0100
0010
1000
0001
,
1000
0010
0001
0010
,
0010
0000
0100
0000
1000
1000
1000
0000
,
0010
0000
0100
0000
0001
0001
0001
0000
,
1000
0000
0001
0000
0010
0100
0010
0000
,
0001
0000
1000
0000
0010
0100
0010
0000
,
0100
0001
1000
0010
,
1000
0001
0010
0100
,
1000
0001
1000
0100
,
1000
0001
0010
0001
,
0010
0100
1000
0001
,
0100
0010
1000
0001
,
2000
0000
3100
0000
0001
0010
1000
0000
,
0001
1000
0001
1000
,
0002
0000
0103
0000
1000
0100
0001
0000
,
0010
1000
0100
0001
,
0020
0000
0130
0000
0010
0100
1000
0000
,
0010
0100
0100
0010
,
0200
0000
0301
0000
0010
0100
1000
0000
,
0001
1000
1000
0001
,
1001
0000
0100
0000
,
0010
0000
0110
0110
,
0110
0000
0000
0000
;

//---------------dance-single - ----------------
#NOTES:
     dance-single:
     :
     Hard:
     8:
     0.294604,0.285355,0.131887,0.000000,0.065943,161.000000,11.000000,0.000000,0.000000,0.000000,0.000000,0.294604,0.285355,0.131887,0.000000,0.065943,161.000000,11.000000,0.000000,0.000000,0.000000,0.000000:
0000
0000
0000
0000
,
0000
0000
0000
0000
,
1000
0000
0000
0000
0100
0000
0000
0010
0010
0000
0001
0000
0100
0000
0000
0000
,
0001
0100
1010
0101
,
1001
1000
0001
0000
1000
0100
0010
0000
,
0001
0010
0100
0000
1000
0000
0001
0000
,
1001
0100
0010
0000
0100
0010
1000
0000
,
0010
0100
0001
0000
1000
0000
0001
0000
,
1000
0100
0010
0100
1000
0100
1000
0000
,
0001
0100
0010
0100
0001
0100
0001
0000
,
1000
0010
0001
0010
1000
0100
0001
0000
,
0001
0100
1000
0100
0001
0010
1000
0000
,
1001
1000
0100
0000
0010
0100
1000
0000
,
0001
0010
0100
1000
0101
0000
1100
1000
,
0001
0000
0000
0001
1000
0100
0100
0010
,
0100
0000
0000
1000
0001
0100
0010
0010
,
0100
0000
0000
0001
0010
0100
1000
0001
,
1000
0001
0100
0000
0001
1000
0100
0000
,
1000
0000
1000
0000
1000
0000
0000
0001
0000
0001
0000
0001
0000
0000
0000
0000
,
1000
0100
0010
0001
1000
0100
0010
0001
,
0010
0000
0010
0000
0010
0000
0000
0100
0000
0000
0100
0000
0100
0000
0000
0000
,
0010
0100
1000
0001
0010
0100
1000
0001
,
0100
0000
0010
0000
0100
0000
0000
0010
0000
0100
0000
0010
0000
0000
0000
0000
,
0100
0010
1000
0010
0100
0001
1000
0100
,
0010
0000
0100
0000
0010
0000
0000
0100
0000
0010
0000
0100
0000
0000
0000
0000
,
0010
0100
1000
0001
0010
0100
1000
0001
,
1001
0000
0000
1000
1000
0000
0000
0001
,
0001
0000
0110
0110
,
1001
0000
0000
0000
;

//---------------dance-double - ----------------
#NOTES:
     dance-double:
     :
     Hard:
     8:
     0.291178,0.268569,0.143876,0.000000,0.065943,158.000000,12.000000,0.000000,0.000000,0.000000,0.000000,0.291178,0.268569,0.143876,0.000000,0.065943,158.000000,12.000000,0.000000,0.000000,0.000000,0.000000:
00000000
00000000
00000000
00000000
,
00000000
00000000
00000000
00000000
,
10000000
00000000
00000000
00000000
01000000
00000000
00000000
00100000
00100000
00000000
00010000
00000000
01000000
00000000
00000000
00000000
,
00010000
01000000
10100000
01010000
,
10010000
10000000
00010000
00000000
10000000
01000000
00100000
00000000
,
00010000
00100000
00001000
00000000
00010000
00000000
00000100
00000000
,
00000110
00000010
00000001
00000000
00000100
00000010
00001000
00000000
,
00000100
00010000
00001000
00000000
01000000
00000000
00100000
00000000
,
10000000
01000000
00100000
01000000
10000000
01000000
10000000
00000000
,
00010000
01000000
00100000
01000000
00010000
01000000
00010000
00000000
,
10000000
00100000
00010000
00100000
10000000
01000000
00010000
00000000
,
00010000
00001000
00000010
00000001
00000010
00001000
00000010
00000000
,
00001010
00000100
00000010
00000000
00000100
00000001
00000010
00000000
,
00000100
00001000
00010000
00000000
00011000
00000000
01010000
00000000
,
00010100
00000000
00000000
00010000
10000000
01000000
01000000
00100000
,
01000000
00000000
00000000
10000000
00010000
01000000
00100000
00100000
,
01000000
00000000
00000000
00010000
00100000
01000000
10000000
00010000
,
10000000
00010000
01000000
00000000
00010000
00100000
00010000
00000000
,
00010000
00000000
00010000
00000000
00010000
00000000
00000000
00000010
00000000
00000010
00000000
00000010
00000000
00000000
00000000
00000000
,
00000100
00000001
00001000
00000010
00000100
00000010
00001000
00000001
,
00000010
00000000
00000010
00000000
00000010
00000000
00000000
00000100
00000000
00000000
00000100
00000000
00000100
00000000
00000000
00000000
,
00000010
00000100
00001000
00000001
00000100
00000010
00000100
00000000
,
00000010
00000000
00000010
00000000
00000010
00000000
00000000
00010000
00000000
00010000
00000000
00010000
00000000
00000000
00000000
00000000
,
00001000
01000000
00010000
10000000
01000000
00010000
01000000
01000000
,
00100000
00000000
01000000
00000000
00100000
00000000
00000000
01000000
00000000
00100000
00000000
01000000
00000000
00000000
00000000
00000000
,
00100000
01000000
10000000
00010000
00100000
01000000
10000000
00010000
,
10010000
00000000
00000000
10000000
10000000
00000000
00000000
00010000
,
00010000
00000000
00101000
00011000
,
00010100
00000000
00000000
00000000
;

//---------------dance-double - ----------------
#NOTES:
     dance-double:
     :
     Easy:
     3:
     0.106194,0.117499,0.035969,0.000000,0.000000,59.000000,3.000000,0.000000,0.000000,0.000000,0.000000,0.106194,0.117499,0.035969,0.000000,0.000000,59.000000,3.000000,0.000000,0.000000,0.000000,0.000000:
00000000
00000000
00000000
00000000
,
00000000
00000000
00000000
00000000
,
10000000
00000000
10000000
10000000
,
10000000
00000000
10010000
00000000
,
00010000
00000000
01000000
00000000
,
00001000
00000000
00010000
00000000
,
00001000
00000000
00000010
00000000
,
00000001
00000000
00000100
00000000
,
00001000
00000000
00000010
00000000
,
00010000
00000000
01000000
01000000
,
01000000
00000000
10000000
00000000
,
00010000
00000000
00100000
00100000
,
00100000
00000000
01000000
00000000
,
00100000
00000000
00010000
00000000
,
00001000
00000000
00010000
00000000
,
00000010
00000000
00000100
00000000
,
00000001
00000000
00000010
00000000
,
00000100
00000000
00010000
00010000
,
00010000
00000000
10000000
00000000
,
00010000
00000000
00100000
00100000
,
00001000
00000000
01000000
00000000
,
00010000
00000000
00001000
00000000
,
00011000
00000000
00000100
00000000
,
00000001
00000000
00000010
00001000
,
00010000
00000000
00000100
00000000
,
00010000
00000000
00100000
00000000
,
10010000
00000000
00000000
00000000
,
00100000
00000000
00100000
00010000
,
10000000
00000000
00000000
00000000
;

//---------------dance-double - ----------------
#NOTES:
     dance-double:
     :
     Medium:
     6:
     0.205538,0.201427,0.047959,0.047959,0.000000,112.000000,4.000000,4.000000,0.000000,0.000000,0.000000,0.205538,0.201427,0.047959,0.047959,0.000000,112.000000,4.000000,4.000000,0.000000,0.000000,0.000000:
// measure 0
00000000
00000000
00000000
00000000
,  // measure 1
00000000
00000000
00000000
00000000
,  // measure 2
10000000
00000000
00010000
00000000
10000000
10000000
00010000
00000000
,  // measure 3
00100000
00000000
01000000
00000000
00100000
00100000
01000000
00000000
,  // measure 4
00100000
00010000
10000000
01000000
,  // measure 5
00100000
00001000
00010000
00000010
,  // measure 6
00000100
00000010
00001000
00000001
,  // measure 7
00001000
00000010
00000001
00000010
,  // measure 8
00000010
00000000
00000100
00000000
00001000
00010000
00001000
00000000
,  // measure 9
00000010
00000000
00000100
00000000
00000001
00000001
00000001
00000000
,  // measure 10
00001000
00000000
00010000
00000000
00100000
01000000
00100000
00000000
,  // measure 11
00010000
00000000
10000000
00000000
00100000
01000000
00100000
00000000
,  // measure 12
01000000
00010000
10000000
00100000
,  // measure 13
10000000
00010000
00001000
00000100
,  // measure 14
00000010
00000001
00001000
00000010
,  // measure 15
00001000
00000100
00000010
00000100
,  // measure 16
00010000
00001000
01000000
00100000
,  // measure 17
01000000
00100000
10000000
00010000
,  // measure 18
20000000
00000000
31000000
00000000
00010000
00100000
10000000
00000000
,  // measure 19
00010000
10000000
00010000
10000000
,  // measure 20
00002000
00000000
01003000
00000000
00001000
00010000
00000100
00000000
,  // measure 21
00010000
00000100
00000010
00000001
,  // measure 22
00002000
00000000
00003001
00000000
00000100
00000010
00000100
00000000
,  // measure 23
00000001
00000100
00000100
00000001
,  // measure 24
00002000
00000000
00003100
00000000
00010000
00001000
00100000
00000000
,  // measure 25
00010000
00100000
01000000
10000000
,  // measure 26
10010000
00000000
01000000
00000000
,  // measure 27
00100000
00000000
00011000
00011000
,  // measure 28
00011000
00000000
00000000
00000000
;
