#TITLE:Alejandro;
#SUBTITLE:;
#ARTIST:Dizzi Mystica feat. MAKI;
#TITLETRANSLIT:;
#SUBTITLETRANSLIT:;
#ARTISTTRANSLIT:;
#GENRE:;
#CREDIT:Chewi☆;
#MENUCOLOR:;
#METERTYPE:DDR X;
#BANNER:Alejandro.png;
#BACKGROUND:Alejandro-bg.png;
#LYRICSPATH:;
#CDTITLE:;
#MUSIC:Alejandro.mp3;
#OFFSET:-0.505;
#SAMPLESTART:33.233;
#SAMPLELENGTH:15.000;
#SELECTABLE:YES;
#LISTSORT:;
#BPMS:0.000=144.000;
#STOPS:;
#BGCHANGES:;
#ATTACKS:;

//---------------dance-single - Chewi----------------
#NOTES:
     dance-single:
     Chewi:
     Hard:
     10:
     0.507,0.473,0.374,0.062,0.008:
0000
0000
0000
0000
,
0000
0000
0000
0000
,
0000
0000
0000
0000
,
0000
0000
0000
0000
,
1000
0100
1000
0010
1000
0100
0000
0010
,
0001
0100
0000
0001
0001
0000
0000
0000
,
0001
0100
0001
0010
0001
0100
0000
0010
,
1000
0100
0000
0010
0010
0000
0000
0000
,
0011
0000
1000
0000
0100
1000
0010
0000
,
1000
0000
0100
0000
0010
0001
0100
0000
,
0010
0100
0010
0000
0100
0010
0100
0000
,
0110
0000
0000
0000
,
1010
0000
1000
0000
0100
1000
0010
0000
,
0100
0001
0010
0000
0100
0010
0001
0000
,
1000
0100
1000
0000
0001
0100
0001
0000
,
0101
0000
0000
0000
,
0100
0010
1000
0010
0100
0010
1000
0000
,
1000
0100
0010
0001
0010
0000
0011
0000
,
0001
0010
0001
0100
0001
0010
0001
0000
,
0001
0010
0100
1000
0100
0000
0000
0000
,
1000
0001
1000
0001
1000
0010
1000
0010
,
1000
1100
0010
0011
,
0001
0010
0001
0010
0001
0100
0001
0100
,
0010
1010
1000
1001
,
0001
1000
0100
0000
1000
0001
0100
0000
,
0010
0100
0001
1000
0100
0010
0001
0000
,
0001
0010
0100
0000
1000
0010
0100
0000
,
0010
0100
0001
0010
0100
1000
0100
0000
,
0001
0000
1100
0000
1000
0001
0100
0000
,
1000
0000
1010
0000
0001
0010
1000
0000
,
1000
0100
0010
0100
1000
0010
0100
0000
,
0001
0100
0010
0100
0001
0010
0100
0000
,
1000
0101
1000
1100
,
0001
0010
0100
0000
1000
0010
0100
0000
,
0001
0100
0010
1000
0001
0010
0100
1000
,
0010
0001
0100
1000
,
1100
0101
1100
0000
,
0001
0011
0000
0110
0000
0000
1100
0000
,
0000
0000
1000
0000
0100
0000
0000
0000
0011
0000
0000
0101
0000
0000
0011
0000
,
0100
1000
0000
1100
0000
0000
0110
0000
,
0011
0101
0011
0010
,
0001
0010
0000
1100
0000
0000
1001
0000
,
0000
0000
0100
0000
0010
0000
0000
0000
1001
0000
0000
1100
0000
0000
1001
0000
,
0010
0100
0000
1000
0000
0000
0010
0000
,
0001
0100
0010
0000
1000
0100
0010
0000
,
0002
2003
3020
0230
,
0310
1000
0100
0000
0010
0001
0100
0000
,
0020
2030
3200
0302
,
0013
0010
0010
0000
0100
0100
0100
0000
,
0010
0001
0100
0000
0010
1000
0100
0000
,
1000
1000
1000
0000
0001
0001
0001
0000
,
1000
0001
0010
0000
0001
1000
0010
0000
,
1000
0010
1000
0010
0100
0010
0100
0010
,
0100
0101
0010
0011
,
0001
0010
0001
0010
0100
0010
0100
0010
,
0001
0011
1000
1100
,
1000
0100
1000
0100
1000
0010
1000
0010
,
0010
0101
0010
1100
,
1000
0001
0100
0000
0001
1000
0010
0000
,
1001
0010
0110
0000
,
0100
0010
0001
0000
0100
0010
1000
0000
,
0001
0001
0000
0101
0000
0000
1010
0000
,
1000
0010
1000
0000
1000
0100
1000
0000
,
1000
0100
0010
0001
0000
0000
0011
0000
,
0001
0100
0001
0000
1000
0100
1000
0000
,
0001
1000
0010
0100
0000
0001
0101
0000
,
0100
0010
1000
0000
0001
0010
0100
0000
,
1000
0100
0010
0100
0000
1000
1100
0000
,
0001
0100
0001
0100
0010
1000
0010
1000
,
0001
0100
0000
0010
1000
0001
0010
0000
,
1000
0100
1000
0100
0010
0001
0010
0001
,
1000
0100
0000
0010
0001
0010
0001
0000
,
0001
1000
0001
1000
0010
0100
0010
0100
,
0001
0100
0000
0010
1000
0000
1001
0000
,
1000
0100
1000
0100
0010
0001
0010
0001
,
0010
0100
0000
1000
0100
0000
1100
0000
,
1001
0000
0000
0000
;

//---------------dance-single - Chewi----------------
#NOTES:
     dance-single:
     Chewi:
     Beginner:
     2:
     0.091,0.148,0.070,0.062,0.000: // measure 1
0000
0000
0000
0000
,  // measure 2
0000
0000
0000
0000
,  // measure 3
0000
0000
0000
0000
,  // measure 4
0000
0000
0000
0000
,  // measure 5
1000
0000
0000
0000
,  // measure 6
0100
0000
0000
0000
,  // measure 7
0001
0000
0000
0000
,  // measure 8
0100
0000
0000
0000
,  // measure 9
0010
0000
0000
0000
,  // measure 10
1000
0000
0000
0000
,  // measure 11
0001
0000
0000
0000
,  // measure 12
1000
0000
0000
0000
,  // measure 13
0100
0000
0000
0000
,  // measure 14
0010
0000
0000
0000
,  // measure 15
0100
0000
0000
0000
,  // measure 16
1000
0000
0000
0000
,  // measure 17
1000
0000
0000
0000
,  // measure 18
0010
0000
0000
0000
,  // measure 19
0001
0000
0000
0000
,  // measure 20
0100
0000
0000
0000
,  // measure 21
1000
0000
0000
0000
,  // measure 22
0010
0000
0000
0000
,  // measure 23
0001
0000
0000
0000
,  // measure 24
0100
0000
0000
0000
,  // measure 25
0010
0000
0000
0000
,  // measure 26
1000
0000
0000
0000
,  // measure 27
0001
0000
0000
0000
,  // measure 28
0010
0000
0000
0000
,  // measure 29
0110
0000
0000
0000
,  // measure 30
0010
0000
0000
0000
,  // measure 31
1001
0000
0000
0000
,  // measure 32
0001
0000
0000
0000
,  // measure 33
0110
0000
0000
0000
,  // measure 34
0100
0000
0000
0000
,  // measure 35
1001
0000
0000
0000
,  // measure 36
1000
0000
0000
0000
,  // measure 37
1000
0000
0000
0000
,  // measure 38
1000
0000
0000
0000
,  // measure 39
0001
0000
0000
0000
,  // measure 40
0001
0000
0000
0000
,  // measure 41
0100
0000
0000
0000
,  // measure 42
0100
0000
0000
0000
,  // measure 43
0010
0000
0000
0000
,  // measure 44
0010
0000
0000
0000
,  // measure 45
0010
0000
0000
0000
,  // measure 46
1000
0000
0000
0000
,  // measure 47
0100
0000
0000
0000
,  // measure 48
0001
0000
0000
0000
,  // measure 49
0010
0000
0000
0000
,  // measure 50
0100
0000
0000
0000
,  // measure 51
0010
0000
0000
0000
,  // measure 52
1000
0000
0000
0000
,  // measure 53
2000
0000
0000
0000
,  // measure 54
3000
0000
0000
0000
,  // measure 55
0002
0000
0000
0000
,  // measure 56
0003
0000
0000
0000
,  // measure 57
0020
0000
0000
0000
,  // measure 58
0030
0000
0000
0000
,  // measure 59
0200
0000
0000
0000
,  // measure 60
0300
0000
0000
0000
,  // measure 61
1001
0000
0000
0000
,  // measure 62
1000
0000
0000
0000
,  // measure 63
0110
0000
0000
0000
,  // measure 64
0010
0000
0000
0000
,  // measure 65
1001
0000
0000
0000
,  // measure 66
0001
0000
0000
0000
,  // measure 67
0110
0000
0000
0000
,  // measure 68
0100
0000
0000
0000
,  // measure 69
2000
0000
0000
0000
,  // measure 70
3000
0000
0000
0000
,  // measure 71
0200
0000
0000
0000
,  // measure 72
0300
0000
0000
0000
,  // measure 73
0002
0000
0000
0000
,  // measure 74
0003
0000
0000
0000
,  // measure 75
0020
0000
0000
0000
,  // measure 76
0030
0000
0000
0000
,  // measure 77
0110
0000
0000
0000
;

//---------------dance-single - Chewi----------------
#NOTES:
     dance-single:
     Chewi:
     Easy:
     5:
     0.218,0.266,0.132,0.156,0.000: // measure 1
0000
0000
0000
0000
,  // measure 2
0000
0000
0000
0000
,  // measure 3
0000
0000
0000
0000
,  // measure 4
0000
0000
0000
0000
,  // measure 5
1000
0100
1000
0000
,  // measure 6
0100
0000
0100
0000
,  // measure 7
0001
0100
0001
0000
,  // measure 8
0100
0000
0100
0000
,  // measure 9
0020
0000
0000
0030
,  // measure 10
2000
0000
0000
3000
,  // measure 11
0002
0000
0000
0003
,  // measure 12
2000
0000
0000
3000
,  // measure 13
0200
0000
0000
0300
,  // measure 14
0020
0000
0000
0030
,  // measure 15
0200
0000
0000
0300
,  // measure 16
2000
0000
0000
3000
,  // measure 17
1000
0010
1000
0000
,  // measure 18
0010
0100
0001
0000
,  // measure 19
0001
0100
0001
0000
,  // measure 20
0100
0010
1000
0000
,  // measure 21
1000
1000
0100
0000
,  // measure 22
0010
0001
0010
0000
,  // measure 23
0001
0001
0010
0000
,  // measure 24
0100
0010
0100
0000
,  // measure 25
0010
0100
0010
0000
,  // measure 26
1000
0001
1000
0000
,  // measure 27
0001
1000
0001
0000
,  // measure 28
0010
0100
0010
0000
,  // measure 29
0110
0000
0110
0000
,  // measure 30
0010
0100
0010
0000
,  // measure 31
1001
0000
1001
0000
,  // measure 32
0001
1000
0001
0000
,  // measure 33
0110
0000
0110
0000
,  // measure 34
0100
0010
0100
0000
,  // measure 35
1001
0000
1001
0000
,  // measure 36
1000
0001
1000
0000
,  // measure 37
1000
1000
1000
0000
,  // measure 38
2000
0000
0000
3000
,  // measure 39
0001
0001
0001
0000
,  // measure 40
0002
0000
0000
0003
,  // measure 41
0100
0100
0100
0000
,  // measure 42
0200
0000
0000
0300
,  // measure 43
0010
0010
0010
0000
,  // measure 44
0020
0000
0000
0030
,  // measure 45
0020
0000
0000
0030
,  // measure 46
2000
0000
0000
3000
,  // measure 47
0200
0000
0000
0300
,  // measure 48
0002
0000
0000
0003
,  // measure 49
0020
0000
0000
0030
,  // measure 50
0200
0000
0000
0300
,  // measure 51
0020
0000
0000
0030
,  // measure 52
2000
0000
0000
3000
,  // measure 53
1000
1000
1000
1000
,  // measure 54
1000
0000
0000
0000
,  // measure 55
0001
0001
0001
0001
,  // measure 56
0001
0000
0000
0000
,  // measure 57
0010
0010
0010
0010
,  // measure 58
0010
0000
0000
0000
,  // measure 59
0100
0100
0100
0100
,  // measure 60
0100
0000
0000
0000
,  // measure 61
1001
0000
1001
0000
,  // measure 62
1000
0001
1000
0000
,  // measure 63
0110
0000
0110
0000
,  // measure 64
0010
0100
0010
0000
,  // measure 65
1001
0000
1001
0000
,  // measure 66
0001
1000
0001
0000
,  // measure 67
0110
0000
0110
0000
,  // measure 68
0100
0010
0100
0000
,  // measure 69
1000
1000
1000
1000
,  // measure 70
1000
0000
0000
0000
,  // measure 71
0100
0100
0100
0100
,  // measure 72
0100
0000
0000
0000
,  // measure 73
0001
0001
0001
0001
,  // measure 74
0001
0000
0000
0000
,  // measure 75
0010
0010
0010
0010
,  // measure 76
0010
0000
0000
0000
,  // measure 77
0110
0000
0000
0000
;

//---------------dance-single - Chewi----------------
#NOTES:
     dance-single:
     Chewi:
     Medium:
     8:
     0.359,0.414,0.280,0.031,0.008: // measure 1
0000
0000
0000
0000
,  // measure 2
0000
0000
0000
0000
,  // measure 3
0000
0000
0000
0000
,  // measure 4
0000
0000
0000
0000
,  // measure 5
1000
0100
0000
0000
1000
0100
0000
0000
,  // measure 6
1000
0100
1000
0000
1100
0000
0000
0000
,  // measure 7
0001
0100
0000
0000
0001
0100
0000
0000
,  // measure 8
0001
0100
0001
0000
0101
0000
0000
0000
,  // measure 9
0100
0000
0100
0000
0100
0000
0100
0010
,  // measure 10
1000
0000
1000
0000
1000
0000
1000
0001
,  // measure 11
1000
0100
0010
0001
,  // measure 12
0011
0000
0100
0100
,  // measure 13
0010
0000
0010
0000
0010
0000
0010
0001
,  // measure 14
1000
0000
1000
0000
1000
0000
1000
0010
,  // measure 15
1000
0010
0100
0001
,  // measure 16
0101
0000
0000
0000
,  // measure 17
0100
0000
0010
0000
1000
0010
1000
0000
,  // measure 18
1000
0100
1100
0000
,  // measure 19
0100
0000
0010
0000
0001
0010
0001
0000
,  // measure 20
0001
0100
0101
0000
,  // measure 21
0100
0001
0010
0100
,  // measure 22
1000
0100
1000
0000
0000
0000
0000
0000
,  // measure 23
1000
0010
0100
0001
,  // measure 24
0100
0001
0100
0000
0000
0000
0000
0000
,  // measure 25
0100
0010
1000
0001
,  // measure 26
1000
0100
0010
0000
0001
0010
0100
0000
,  // measure 27
1000
0001
0100
0010
,  // measure 28
0100
0001
0100
0000
0000
0000
0000
0000
,  // measure 29
0101
0000
1100
0000
,  // measure 30
1000
0100
1000
0000
1000
0100
1000
0000
,  // measure 31
1100
0000
0011
0000
,  // measure 32
0001
1000
0001
0000
0001
1000
0001
0000
,  // measure 33
1001
0000
0101
0000
,  // measure 34
0100
0001
0100
0000
0001
0100
0001
0000
,  // measure 35
1010
0000
1010
0000
,  // measure 36
1000
0010
1000
0000
0010
1000
0010
0000
,  // measure 37
1000
0100
0010
0000
,  // measure 38
0001
0010
0000
0100
0000
0000
1000
0000
,  // measure 39
0000
0000
0010
0000
0100
0000
0000
0000
0001
0000
0000
0100
0000
0000
0010
0000
,  // measure 40
1000
1000
0000
0001
0000
0000
0010
0000
,  // measure 41
0100
1000
0010
0100
,  // measure 42
0001
0100
0000
0010
0000
0000
1000
0000
,  // measure 43
0000
0000
0100
0000
0010
0000
0000
0000
0001
0000
0000
1000
0000
0000
0010
0000
,  // measure 44
0010
0100
0000
0010
0000
0000
1000
0000
,  // measure 45
0020
0000
0000
0000
,  // measure 46
0002
0030
0000
0000
0000
0000
0000
0000
,  // measure 47
0203
0000
0000
0000
,  // measure 48
2300
0000
0000
0000
,  // measure 49
3010
0000
0010
0000
0010
0010
0010
0000
,  // measure 50
0100
0000
0100
0000
0100
0010
0100
0000
,  // measure 51
1000
0000
1000
0000
1000
1000
1000
0000
,  // measure 52
0001
0000
0001
0000
0001
1000
0001
0000
,  // measure 53
0011
1000
1100
1000
,  // measure 54
0001
1000
0001
0000
1000
0000
0001
0000
,  // measure 55
1010
0001
0101
1000
,  // measure 56
0100
1000
0100
0000
1000
0100
1000
0000
,  // measure 57
1100
0010
0011
0010
,  // measure 58
1000
0010
1000
0000
0001
0100
0001
0000
,  // measure 59
0101
1000
1010
0001
,  // measure 60
1001
0000
0000
0000
,  // measure 61
0101
0000
1100
0000
,  // measure 62
1000
0100
1000
0000
1000
0100
1000
0000
,  // measure 63
1100
0000
0011
0000
,  // measure 64
0001
1000
0001
0000
0001
1000
0001
0000
,  // measure 65
1001
0000
0101
0000
,  // measure 66
0100
0001
0100
0000
0001
0100
0001
0000
,  // measure 67
1010
0000
1010
0000
,  // measure 68
1000
0010
1000
0000
0010
1000
0010
0000
,  // measure 69
0010
0000
0001
0000
0100
0000
0010
1000
,  // measure 70
0001
0001
1001
0000
,  // measure 71
1000
0100
0010
1000
,  // measure 72
0100
0100
0100
0000
0110
0000
0000
0000
,  // measure 73
0001
0010
0100
1000
,  // measure 74
0001
1000
0001
0000
1100
0000
0000
0000
,  // measure 75
1000
0010
0100
0001
,  // measure 76
0100
0010
1000
0000
1010
0000
0000
0000
,  // measure 77
1001
0000
0000
0000
;
