#TITLE:Alejandro;
#SUBTITLE:;
#ARTIST:Lady Gaga;
#TITLETRANSLIT:;
#SUBTITLETRANSLIT:;
#ARTISTTRANSLIT:;
#GENRE:;
#CREDIT:Chewphoria~;
#MENUCOLOR:;
#METERTYPE:DDR;
#BANNER:Alejandro (Lady Gaga).png;
#BACKGROUND:Alejandro (Lady Gaga)-bg.png;
#LYRICSPATH:;
#CDTITLE:;
#MUSIC:Alejandro (Lady Gaga).MP3;
#OFFSET:-4.880;
#SAMPLESTART:37.889;
#SAMPLELENGTH:15.000;
#SELECTABLE:YES;
#LISTSORT:;
#BPMS:0.000=98.990;
#STOPS:;
#BGCHANGES:-8.600=Alejandro (Lady Gaga).avi=1.000=1=0=1,
120.000=Alejandro (Lady Gaga)-bg.png=1.000=1=0=1,
99999=-nosongbg-=1.000=0=0=0 // don't automatically add -songbackground-
;
#ATTACKS:;

//---------------dance-single - Chewphoria~----------------
#NOTES:
     dance-single:
     Chewphoria~:
     Beginner:
     1:
     0.102,0.127,0.048,0.048,0.000:
1000
0000
1000
0000
,
0001
0000
0001
0000
,
1001
0000
0000
0000
,
0100
0000
0000
0000
,
0010
0000
1000
0000
,
0001
0000
0000
0000
,
1000
1000
0000
0010
,
0010
0000
0000
0000
,
0100
0000
0001
0000
,
1000
0000
0010
0000
,
1000
1000
1000
0000
,
1000
0000
0001
0000
,
0001
0001
0001
0000
,
0001
0000
1001
0000
,
2000
0000
0000
3000
,
1000
0000
0000
0000
,
0020
0000
0000
0030
,
0010
0000
0000
0000
,
0200
0000
0000
0300
,
0100
0000
0000
0000
,
0002
0000
0000
0003
,
0001
0000
0000
0000
,
1000
0000
0100
0000
,
1000
0000
0010
0000
,
0001
0000
0100
0000
,
0001
0000
0010
0000
,
0110
0000
0000
0000
,
1001
0000
0000
0000
,
0100
0100
0100
0000
,
0010
0000
1000
0000
,
0001
0000
0000
0000
;

//---------------dance-single - Chewphoria~----------------
#NOTES:
     dance-single:
     Chewphoria~:
     Easy:
     3:
     0.133,0.145,0.036,0.097,0.000: // measure 1
1000
0000
0100
0000
,  // measure 2
0001
0000
1000
0000
,  // measure 3
0001
0001
0100
0000
,  // measure 4
2000
0000
3000
0000
,  // measure 5
1000
1000
0100
0000
,  // measure 6
0002
0000
0003
0000
,  // measure 7
0100
0000
0010
0000
,  // measure 8
0100
0010
0100
0000
,  // measure 9
0001
0000
1000
0000
,  // measure 10
1000
0001
1000
0000
,  // measure 11
0002
0000
2003
0000
,  // measure 12
3200
0000
0310
0000
,  // measure 13
0200
0000
0320
0000
,  // measure 14
0032
0000
1003
0000
,  // measure 15
0010
1000
0100
0000
,  // measure 16
0100
0000
0000
0000
,  // measure 17
0100
0001
0010
0000
,  // measure 18
0010
0000
0000
0010
,  // measure 19
0001
0100
0010
0001
,  // measure 20
0100
1000
0010
0000
,  // measure 21
0010
0000
0100
0000
,  // measure 22
0110
0000
0000
0000
,  // measure 23
0010
1000
0010
1000
,  // measure 24
0010
0000
0000
0000
,  // measure 25
0010
0001
0010
0001
,  // measure 26
0010
0000
0000
0000
,  // measure 27
0110
0000
1000
0000
,  // measure 28
0001
0000
0000
0000
,  // measure 29
1001
0000
0100
0000
,  // measure 30
0010
0000
0000
0000
,  // measure 31
1000
0000
0000
0000
;

//---------------dance-double - Chewphoria~----------------
#NOTES:
     dance-double:
     Chewphoria~:
     Easy:
     2:
     0.135,0.145,0.036,0.097,0.000:
00010000
00000000
00001000
00000000
,
00010000
00000000
00001000
00000000
,
00001000
00001000
00000010
00000000
,
00000020
00000000
00000030
00000000
,
00000010
00000010
00000001
00000000
,
00000002
00000000
00000003
00000000
,
00000100
00000000
00001000
00000000
,
00000100
00001000
00010000
00000000
,
00010000
00000000
00001000
00000000
,
00001000
00010000
00100000
00000000
,
00200000
00000000
20300000
00000000
,
30020000
00000000
10030000
00000000
,
20000000
00000000
30020000
00000000
,
02030000
00000000
03100000
00000000
,
10000000
00100000
00010000
00000000
,
00010000
00000000
00000000
00010000
,
00001000
00000010
00000001
00000000
,
00000010
00000000
00000000
00000010
,
00000001
00000100
00000010
00000001
,
00000100
00001000
00000010
00000000
,
00000010
00000000
00000100
00000000
,
00011000
00000000
00000000
00000000
,
00001000
00010000
00001000
00010000
,
00001000
00000000
00000000
00000000
,
00010000
01000000
00010000
01000000
,
00010000
00000000
00000000
00000000
,
01100000
00000000
10000000
00000000
,
00010000
00000000
00000000
00000000
,
10010000
00000000
00100000
00000000
,
00010000
00000000
00000000
00000000
,
00001000
00000000
00000000
00000000
;

//---------------dance-single - Chewphoria~----------------
#NOTES:
     dance-single:
     Chewphoria~:
     Medium:
     5:
     0.197,0.236,0.036,0.133,0.000: // measure 1
0010
1000
0100
0000
,  // measure 2
0010
0001
1000
0000
,  // measure 3
0001
0010
0100
1000
,  // measure 4
0001
1000
0000
0000
0000
0000
0000
0000
,  // measure 5
1000
0010
0100
0001
,  // measure 6
0001
1000
0000
0000
0000
0000
0000
0000
,  // measure 7
0010
1000
0001
0001
,  // measure 8
1000
0001
0000
0000
0000
0000
0000
0000
,  // measure 9
0010
0001
1000
0100
,  // measure 10
1000
0001
0000
0000
0000
0000
0000
0000
,  // measure 11
2000
3020
2030
3001
,  // measure 12
0010
0000
0100
0000
0100
0010
0100
0000
,  // measure 13
0020
0032
2003
3020
,  // measure 14
0130
0010
0110
0000
,  // measure 15
2000
0000
3100
0100
0100
0000
0000
0000
,  // measure 16
1001
0000
0000
0000
,  // measure 17
0002
0000
0103
0100
0100
0000
0000
0000
,  // measure 18
0110
0000
0000
0000
0000
0000
0010
1000
,  // measure 19
0020
0000
0001
0000
,  // measure 20
1000
0000
0130
0010
,  // measure 21
2000
0000
0100
0000
,  // measure 22
0001
0000
0010
3000
,  // measure 23
0010
1000
0010
0000
0100
0000
0000
0000
,  // measure 24
0100
0001
0100
0001
,  // measure 25
0010
0001
0100
0000
0010
0000
0000
0000
,  // measure 26
0010
1000
0010
0001
,  // measure 27
0010
0100
1000
0000
0100
0000
0000
0000
,  // measure 28
0100
0010
0100
0010
,  // measure 29
0010
0100
0001
0000
0100
0000
0000
0000
,  // measure 30
0001
0100
1000
0010
,  // measure 31
0001
0000
0000
0000
;

//---------------dance-double - Chewphoria~----------------
#NOTES:
     dance-double:
     Chewphoria~:
     Medium:
     4:
     0.197,0.236,0.036,0.133,0.000:
00010000
00001000
00000010
00000000
,
00000010
00000001
00001000
00000000
,
00000001
00000010
00000100
00001000
,
00000001
00001000
00000000
00000000
00000000
00000000
00000000
00000000
,
00001000
00000100
00010000
00100000
,
10000000
00100000
00000000
00000000
00000000
00000000
00000000
00000000
,
10000000
01000000
00010000
00010000
,
00100000
00010000
00000000
00000000
00000000
00000000
00000000
00000000
,
00100000
00010000
00001000
00010000
,
00001000
00010000
00000000
00000000
00000000
00000000
00000000
00000000
,
00020000
00032000
00003020
00001030
,
00001000
00000000
00000010
00000000
00000100
00000010
00000100
00000000
,
00000200
00000302
00002003
00003020
,
00000130
00000010
00000110
00000000
,
00000020
00000000
00001030
00001000
00001000
00000000
00000000
00000000
,
00011000
00000000
00000000
00000000
,
00020000
00000000
00130000
00100000
00100000
00000000
00000000
00000000
,
01100000
00000000
00000000
00000000
00000000
00000000
00100000
10000000
,
00200000
00000000
10000000
00000000
,
01000000
00000000
01300000
00100000
,
20000000
00000000
00010000
00000000
,
00100000
00000000
01000000
30000000
,
00100000
01000000
00100000
00000000
01000000
00000000
00000000
00000000
,
01000000
00010000
00100000
00001000
,
00010000
00001000
00000010
00000000
00001000
00000000
00000000
00000000
,
00000010
00001000
00000010
00000001
,
00000010
00000001
00000100
00000000
00001000
00000000
00000000
00000000
,
00000100
00000010
00000100
00000010
,
00000010
00000100
00000001
00000000
00000100
00000000
00000000
00000000
,
00000001
00000010
00000100
00001000
,
00010000
00000000
00000000
00000000
;

//---------------dance-double - Chewphoria~----------------
#NOTES:
     dance-double:
     Chewphoria~:
     Hard:
     7:
     0.283,0.290,0.048,0.181,0.133:
00010000
00001000
00010000
00001000
00002000
00000000
00000000
00000000
,
00003020
00000000
00000130
00000001
,
00001000
00000000
00000000
00000001
00000000
00000000
00000000
00000000
00000000
00000000
00000000
00000000
00000000
00000000
00000001
00000010
,
00000100
00001000
00000000
00000000
00000000
00000000
00000000
00001000
,
00000100
00010000
00001000
00000000
00001000
00100000
10000000
00000000
,
10000000
00100000
01000000
00000000
10000000
00000000
01000000
00000000
,
00010000
00000000
00000000
00100000
00000000
00000000
00000000
00000000
00000000
00000000
00000000
00000000
00010000
01000000
00100000
00000000
,
10000000
00000000
00100000
00000000
10000000
00010000
10000000
00000000
,
00020000
00230000
00302000
00023000
,
00030200
00000000
00000000
00000300
,
00000100
00000010
00000001
00001000
00000010
00000100
00000100
00000000
,
00000100
00000000
00000010
00001000
00000000
00000010
00001000
00000000
,
00000010
00001000
00000100
00010000
00001000
00100000
00010000
01000000
,
00100000
01000000
00100000
01000000
01100000
00000000
00000000
00000000
,
20100000
00000000
00010000
00100000
00020000
00000000
30030000
01000000
,
01000000
00000000
00000000
01000000
00000000
00000000
00000000
00000000
00000000
00000000
00100000
00000000
10000000
00000000
00010000
00000000
,
00120000
00000000
10000000
01000000
20000000
00000000
30030000
00000000
,
00100000
00000000
00000000
00100000
00000000
00000000
00000000
00000000
00000000
00000000
01000000
00000000
00100000
00000000
10000000
00000000
,
01000000
00000000
01000000
00100000
00010000
00000000
10000000
00010000
,
01000000
00100000
01000000
00010000
00000000
00100000
00100000
00100000
,
00100000
00000000
00001000
00000000
00001000
00000000
00001000
00000000
00001000
00000000
00000000
00000000
00000000
00000000
00000000
00010000
,
00001000
00000000
00000000
00002000
00000000
00000000
00000000
00000000
00000000
00000000
00000000
00000000
00003000
00000000
00000010
00000000
,
00001000
00000000
00000000
00000010
00000000
00000000
00000001
00000000
00000010
00000000
00000000
00000002
00000000
00000000
00000000
00000000
,
00000000
00000000
00000003
00000000
,
00000001
00000010
00000001
00000010
00000001
00000000
00000010
00000000
00001000
00000100
00001000
00000100
00001000
00000000
00000000
00000200
,
00000000
00000000
00000000
00000000
00000000
00000000
00000300
00000100
,
00001000
00000000
00000000
00010000
00000000
00000000
00100000
00000000
10000000
00000000
00000000
00100000
00000000
00000000
01000000
00000000
,
00100000
00000000
00000000
00000000
,
00100000
01000000
00100000
01000000
00100000
00000000
00100000
00000000
00100000
10000000
00100000
10000000
00100000
00000000
00000000
00200000
,
00000000
00000000
00300000
00000000
,
10010000
00000000
00000000
00000000
;

//---------------dance-single - Chewphoria~----------------
#NOTES:
     dance-single:
     Chewphoria~:
     Hard:
     9:
     0.278,0.290,0.048,0.193,0.133: // measure 1
1000
0010
0010
0100
0002
0000
0000
0000
,  // measure 2
2003
0000
3001
0010
,  // measure 3
0100
0000
0000
0100
0000
0000
0000
0000
0000
0000
0000
0000
0000
0000
0100
1000
,  // measure 4
0010
0100
0000
0000
0000
0000
0000
0100
,  // measure 5
0001
0100
1000
0000
1000
0010
0001
0000
,  // measure 6
0001
0010
0100
0000
1000
0000
0100
0000
,  // measure 7
0001
0000
0000
0001
0000
0000
0000
0000
0000
0000
0000
0000
0001
0100
0010
0000
,  // measure 8
1000
0000
0010
0000
1000
0001
1000
0000
,  // measure 9
0002
2003
3200
0302
,  // measure 10
0023
0000
0000
0000
0000
0000
0000
0030
,  // measure 11
0010
1000
0010
0001
0010
0010
0010
0000
,  // measure 12
1000
0000
0001
1000
0000
0001
1000
0000
,  // measure 13
1000
0100
0010
0001
1000
0100
0010
0001
,  // measure 14
0100
0010
0100
0010
0110
0000
0000
0000
,  // measure 15
2010
0000
0001
0010
0002
0000
3003
0100
,  // measure 16
0100
0000
0000
0100
0000
0000
0000
0000
0000
0000
0010
0000
1000
0000
0001
0000
,  // measure 17
0012
0000
1000
0100
2000
0000
3003
0000
,  // measure 18
0010
0000
0000
0010
0000
0000
0000
0000
0000
0000
0000
0000
0100
0000
0010
0000
,  // measure 19
1000
0000
0100
0010
0001
0000
1000
0001
,  // measure 20
0100
0010
1000
0001
0000
0010
0010
0010
,  // measure 21
0010
0000
0000
0000
0100
0000
0100
0000
0100
0000
0000
0000
0000
0000
0000
0100
,  // measure 22
0010
0000
0000
0020
0000
0000
0000
0000
0000
0000
0000
0000
0030
0000
0001
0000
,  // measure 23
0010
0000
0000
0001
0000
0000
1000
0000
0010
0000
0000
2000
0000
0000
0000
0000
,  // measure 24
0000
0000
3000
0000
,  // measure 25
1000
0010
1000
0010
1000
0000
0010
0000
0001
0100
0001
0100
0001
0000
0000
0200
,  // measure 26
0000
0000
0000
0000
0300
0000
0000
1000
,  // measure 27
0100
0000
0000
1000
0000
0000
0001
0000
0100
0000
0000
0002
0000
0000
0000
0000
,  // measure 28
0000
0000
0003
0000
,  // measure 29
0001
0100
0001
0100
0001
0000
0100
0000
1000
0010
1000
0010
1000
0000
0000
0020
,  // measure 30
0000
0000
0030
0000
,  // measure 31
0110
0000
0000
0000
;
