#TITLE:Airplanes;
#SUBTITLE:;
#ARTIST:B.o.B feat. Hayley Williams;
#TITLETRANSLIT:;
#SUBTITLETRANSLIT:;
#ARTISTTRANSLIT:;
#GENRE:;
#CREDIT:Chewi☆;
#MENUCOLOR:#FFFFFF;
#METERTYPE:DDR X;
#BANNER:Airplanes.png;
#BACKGROUND:Airplanes-bg.png;
#LYRICSPATH:;
#CDTITLE:./CDTITLES/DanceDanceRevolution skyMIX3 -breeze-.png;
#MUSIC:Airplanes.mp3;
#OFFSET:-0.595;
#SAMPLESTART:72.846;
#SAMPLELENGTH:15.000;
#SELECTABLE:YES;
#LISTSORT:;
#DISPLAYBPM:93.000;
#BPMS:0.000=93.000;
#STOPS:;
#BGCHANGES:-0.595=Airplanes.avi=1.000=1=1=0,
180.000=Airplanes-bg.png=1.000=1=0=1,
99999=-nosongbg-=1.000=0=0=0 // don't automatically add -songbackground-
;
#ATTACKS:;

//---------------dance-single - Chewi----------------
#NOTES:
     dance-single:
     Chewi:
     Beginner:
     1:
     0.052,0.074,0.000,0.017,0.000: // measure 1
0000
0000
0000
0000
,  // measure 2
0000
0000
0000
0000
,  // measure 3
0000
0000
0000
0000
,  // measure 4
0000
0000
0000
0000
,  // measure 5
1000
0000
0000
0000
,  // measure 6
0001
0000
0000
0000
,  // measure 7
0001
0000
0000
0000
,  // measure 8
1000
0000
0000
0000
,  // measure 9
0100
0000
0000
0000
,  // measure 10
0010
0000
0000
0000
,  // measure 11
1000
0000
0000
0000
,  // measure 12
1000
0000
0000
0000
,  // measure 13
0100
0000
0000
0000
,  // measure 14
0010
0000
0000
0000
,  // measure 15
0001
0000
0000
0000
,  // measure 16
1000
0000
0000
0000
,  // measure 17
0100
0000
0000
0000
,  // measure 18
0010
0000
0000
0000
,  // measure 19
0100
0000
0000
0000
,  // measure 20
0100
0000
0000
0000
,  // measure 21
0010
0000
0000
0000
,  // measure 22
0100
0000
0000
0000
,  // measure 23
1000
0000
0000
0000
,  // measure 24
0001
0000
0000
0000
,  // measure 25
2000
0000
0000
3000
,  // measure 26
1000
0000
0000
0000
,  // measure 27
0002
0000
0000
0003
,  // measure 28
0001
0000
0000
0000
,  // measure 29
1000
0000
0000
0000
,  // measure 30
0010
0000
0000
0000
,  // measure 31
0001
0000
0000
0000
,  // measure 32
0010
0000
0000
0000
,  // measure 33
0001
0000
0000
0000
,  // measure 34
0010
0000
0000
0000
,  // measure 35
1000
0000
0000
0000
,  // measure 36
0100
0000
0000
0000
,  // measure 37
0001
0000
0000
0000
,  // measure 38
1000
0000
0000
0000
,  // measure 39
1000
0000
0000
0000
,  // measure 40
0100
0000
0000
0000
,  // measure 41
0001
0000
0000
0000
,  // measure 42
0010
0000
0000
0000
,  // measure 43
0010
0000
0000
0000
,  // measure 44
0010
0000
0000
0000
,  // measure 45
0010
0000
0000
0000
;

//---------------dance-single - Chewi----------------
#NOTES:
     dance-single:
     Chewi:
     Easy:
     3:
     0.154,0.167,0.025,0.042,0.000: // measure 1
0000
0000
0000
0000
,  // measure 2
0000
0000
0000
0000
,  // measure 3
0000
0000
0000
0000
,  // measure 4
0000
0000
0000
0000
,  // measure 5
1000
1000
0100
0000
,  // measure 6
0001
0001
0010
0000
,  // measure 7
0001
0001
0100
0000
,  // measure 8
1000
1000
0010
0000
,  // measure 9
0100
0100
0100
0100
,  // measure 10
0010
0010
0010
0010
,  // measure 11
1000
1000
0001
0001
,  // measure 12
1000
1000
0001
0001
,  // measure 13
0000
0100
1000
0001
,  // measure 14
0000
0010
1000
0001
,  // measure 15
0000
0001
1000
1000
,  // measure 16
0000
1000
0001
0001
,  // measure 17
0000
0100
0010
0100
,  // measure 18
0000
0010
0100
0010
,  // measure 19
0000
0100
1000
0100
,  // measure 20
0000
0100
0001
0100
,  // measure 21
0010
0010
0100
0010
,  // measure 22
0100
0100
0010
0100
,  // measure 23
1000
1000
0001
1000
,  // measure 24
0001
0001
1000
0001
,  // measure 25
2000
0000
3001
0000
,  // measure 26
0002
0000
1003
0000
,  // measure 27
0020
0000
0130
0000
,  // measure 28
2002
0000
0000
3003
,  // measure 29
1000
1000
0100
0100
,  // measure 30
0010
0010
0000
0000
,  // measure 31
0001
1000
0001
1000
,  // measure 32
0010
0110
0000
0000
,  // measure 33
0001
0001
0100
0100
,  // measure 34
0010
0010
0000
0000
,  // measure 35
1000
0001
1000
0001
,  // measure 36
0100
0110
0000
0000
,  // measure 37
0000
0001
0010
0001
,  // measure 38
0000
1000
0000
0001
,  // measure 39
0000
1000
0100
1000
,  // measure 40
0000
0100
0000
0001
,  // measure 41
0000
0100
0100
0010
,  // measure 42
0000
1000
0000
0010
,  // measure 43
0000
0001
0001
0010
,  // measure 44
0000
0100
0000
0010
,  // measure 45
0010
0000
0000
0000
;

//---------------dance-single - Chewi----------------
#NOTES:
     dance-single:
     Chewi:
     Medium:
     6:
     0.213,0.204,0.101,0.017,0.000: // measure 1
0000
0000
0000
0000
,  // measure 2
0000
0000
0000
0000
,  // measure 3
0000
0000
0000
0000
,  // measure 4
0000
0000
0000
0000
,  // measure 5
1000
1000
0100
0100
,  // measure 6
0001
0001
0010
0010
,  // measure 7
0001
0001
0100
0100
,  // measure 8
1000
1000
0010
0010
,  // measure 9
0100
0010
1000
0001
,  // measure 10
0010
0100
1000
0001
,  // measure 11
1000
0100
0001
0010
,  // measure 12
1000
0001
1000
1001
,  // measure 13
0001
0000
0100
0000
1000
0010
0001
0000
,  // measure 14
0001
0000
0010
0000
1000
0100
0001
0000
,  // measure 15
1000
0000
0001
0000
1000
1000
1000
0000
,  // measure 16
0001
0000
1000
0000
0001
0001
0001
0000
,  // measure 17
1000
0000
0100
0000
0010
1000
0100
0000
,  // measure 18
0001
0000
0010
0000
0100
0001
0010
0000
,  // measure 19
1000
0000
0100
0000
1000
0001
0100
0000
,  // measure 20
0001
0000
0100
0000
0001
1000
0100
0000
,  // measure 21
0010
0000
0010
0000
0010
0100
0010
0000
,  // measure 22
0100
0000
0100
0000
0100
0010
0100
0000
,  // measure 23
1000
0000
0010
0000
1000
0010
1000
0000
,  // measure 24
0001
0000
0010
0000
0001
0010
0001
0000
,  // measure 25
1000
1100
0001
0010
,  // measure 26
0001
0101
1000
0010
,  // measure 27
0100
0110
1000
0001
,  // measure 28
2002
0000
0000
3003
,  // measure 29
1000
1000
0100
0100
,  // measure 30
0010
0001
0010
0000
0000
0000
0000
0000
,  // measure 31
0001
1001
1000
1001
,  // measure 32
0010
0110
0000
0000
,  // measure 33
0001
0001
0100
0100
,  // measure 34
0010
1000
0010
0000
0000
0000
0000
0000
,  // measure 35
1000
1001
0001
0011
,  // measure 36
0010
0110
0000
0000
,  // measure 37
0000
1000
0001
0100
0010
1000
0001
0000
,  // measure 38
0000
1000
0000
0001
,  // measure 39
0000
0001
1000
0010
0100
0001
1000
0000
,  // measure 40
0000
0100
0000
0001
,  // measure 41
0000
0010
0100
0010
0100
0000
0010
0000
,  // measure 42
0000
1000
0000
0010
,  // measure 43
0000
1000
0001
0010
0001
1000
0010
0000
,  // measure 44
0000
0100
0000
0010
,  // measure 45
0110
0000
0000
0000
;

//---------------dance-single - Chewi----------------
#NOTES:
     dance-single:
     Chewi:
     Hard:
     9:
     0.285,0.297,0.051,0.194,0.042: // measure 1
0000
0000
0000
0000
,  // measure 2
0000
0000
0000
0000
,  // measure 3
0000
0000
0000
0000
,  // measure 4
0000
0000
0000
0000
,  // measure 5
1000
0000
0000
1000
0000
0000
0000
0000
0001
0000
0000
0001
0000
0000
0100
0000
,  // measure 6
0010
0100
0010
0000
0000
0010
1000
0010
,  // measure 7
0100
0100
0200
0000
0301
0001
0002
0000
,  // measure 8
1003
1000
2000
0000
3000
0000
0000
0000
,  // measure 9
0001
0000
0000
0001
0000
0000
0000
0000
1000
0000
0000
1000
0000
0000
0100
0000
,  // measure 10
0010
0100
0010
0000
0000
1000
0100
0010
,  // measure 11
0001
0001
0002
0000
1003
1000
2000
0000
,  // measure 12
3010
0010
0020
0000
0030
0000
0000
0000
,  // measure 13
1000
0100
0010
0000
1000
0000
1100
0000
,  // measure 14
0001
0010
0100
0000
0001
0000
0011
0000
,  // measure 15
0100
0010
0001
0000
0100
0000
0110
0000
,  // measure 16
0100
0010
1000
0000
0010
0000
0110
0000
,  // measure 17
1000
0001
0100
0000
1000
0000
0100
0000
,  // measure 18
1000
0001
0100
0000
1000
0000
0010
0000
,  // measure 19
1000
0001
0010
0000
1000
0000
0100
0000
,  // measure 20
1000
0001
0100
0000
0100
0000
0001
0000
,  // measure 21
0100
0010
1000
0001
0010
0100
0010
0000
,  // measure 22
0100
1000
0010
0000
0100
0001
0010
0000
,  // measure 23
0001
1000
0010
0100
0001
1000
0100
0000
,  // measure 24
0010
0001
0100
0000
0100
1000
0010
0000
,  // measure 25
0100
0100
0010
0010
1000
0001
1000
0000
,  // measure 26
0001
0010
0100
1000
0100
0010
0001
0000
,  // measure 27
1000
0001
0100
0010
1000
0001
0010
0000
,  // measure 28
0220
0000
0000
0330
,  // measure 29
0001
0000
0000
0001
0000
0000
0000
0000
0010
0000
0000
0010
0000
0000
0100
0000
,  // measure 30
1000
0100
1000
0000
0000
1000
0010
0100
,  // measure 31
0010
0010
0020
0000
1030
1000
2000
0000
,  // measure 32
3001
0001
0002
0000
0003
0001
0010
0100
,  // measure 33
0010
0000
0000
0010
0000
0000
0000
0000
0100
0000
0000
0100
0000
0000
0010
0000
,  // measure 34
0001
0010
0001
0000
0000
1000
0100
0010
,  // measure 35
0001
0001
0002
0000
1003
1000
2000
0000
,  // measure 36
3010
0010
0020
0000
0030
0000
0000
0000
,  // measure 37
0000
0010
0100
0001
1000
0100
0020
0000
,  // measure 38
0030
0002
0023
2030
,  // measure 39
3000
0001
0010
0100
1000
0010
0100
0000
,  // measure 40
0020
0230
0000
0301
,  // measure 41
0000
0000
0001
0000
1000
0001
0000
0010
0000
0000
0000
0000
0002
0000
0000
0000
,  // measure 42
0203
2300
3000
0001
,  // measure 43
1000
0000
0010
0000
0001
0001
0001
0000
,  // measure 44
0100
0000
0010
0000
1000
0000
1000
0001
,  // measure 45
0110
0000
0000
0000
;
