#TITLE:愛のしるし;
#SUBTITLE:;
#ARTIST:♪♪♪♪♪;
#TITLETRANSLIT:Ai no Shirushi;
#SUBTITLETRANSLIT:;
#ARTISTTRANSLIT:;
#GENRE:Rock;
#CREDIT:chewi;
#BANNER:Ai no Shirushi.png;
#BACKGROUND:Ai no Shirushi-bg.png;
#LYRICSPATH:;
#CDTITLE:cdtitle.png;
#MUSIC:Ai no Shirushi.ogg;
#OFFSET:-0.358000;
#SAMPLESTART:4.035000;
#SAMPLELENGTH:15.000000;
#SELECTABLE:YES;
#BPMS:0.000000=130.000000
;
#STOPS:
;
#BGCHANGES:-0.716=Ai no Shirushi.avi=1.000=0=0=1=====,
99999=-nosongbg-=1.000=0=0=0 // don't automatically add -songbackground-
;
#KEYSOUNDS:;
#ATTACKS:;

//---------------dance-single - ----------------
#NOTES:
     dance-single:
     :
     Hard:
     9:
     0.394519,0.432155,0.242654,0.265764,0.000000,239.000000,218.000000,21.000000,23.000000,0.000000,0.000000,0.394519,0.432155,0.242654,0.265764,0.000000,239.000000,218.000000,21.000000,23.000000,0.000000,0.000000:
0000
0000
0000
0000
,
0000
0000
0000
0000
,
1000
0100
1000
0100
0000
0010
0001
0010
,
0001
0010
0000
0011
0000
0000
0000
0000
,
0001
0010
0100
1000
0001
0010
0100
1000
,
0001
1000
0000
1001
0000
0000
0000
0000
,
1000
0001
1000
0001
0000
0100
0010
0100
,
0010
0100
0000
0110
0000
0000
0000
0000
,
0100
0010
1000
0001
0010
0100
1000
0001
,
0010
0001
0000
0011
0000
0000
0000
0000
,
1000
0100
1000
0000
0001
0100
0001
0000
,
1000
0010
1000
0000
0001
0010
0001
0000
,
0010
0100
1000
0000
0010
0100
0001
0000
,
0100
0010
1000
0000
0100
0010
0001
0000
,
1000
0100
1000
0000
0001
0100
0001
0000
,
1000
0010
1000
0000
0001
0010
0001
0000
,
0010
0100
1000
0000
0010
0100
0001
0000
,
0100
0010
1000
0000
0100
0010
0001
0000
,
0011
0000
0000
0020
0002
0000
0033
0000
,
1100
0000
0000
0200
2000
0000
3300
0000
,
1001
0000
0000
2000
0002
0000
3003
0000
,
0110
0000
0000
0200
0020
0000
0330
0000
,
0010
1000
0100
0000
0010
0001
0100
0000
,
0001
1000
0100
0000
1000
0001
0100
0000
,
0010
0100
0010
0100
0001
1000
0001
1000
,
0100
0010
0001
1000
0100
0010
0001
1000
,
0100
1000
0010
1000
0000
0100
0010
0001
,
1000
0100
0000
1100
0000
0000
0000
0000
,
0010
0100
1000
0001
0100
0010
1000
0001
,
0100
0010
0000
0110
0000
0000
0000
0000
,
1001
0110
1001
0110
,
0101
0101
1010
1010
,
0001
0010
0100
1000
0000
0001
1000
0100
,
1000
0001
0000
0100
0000
0000
0000
0000
,
0100
0010
1000
0001
0100
0010
1000
0001
,
1000
0100
0000
1001
0000
0000
0000
0000
,
0010
0100
1000
0001
0000
0010
0100
1000
,
0001
0100
0000
0010
0000
0000
0000
0000
,
0010
0100
0001
1000
0100
0010
0001
1000
,
0100
0100
0000
0110
0000
0000
0000
0000
,
0000
0020
0000
0032
0000
2003
0000
3200
,
0000
2300
0000
3002
0000
0203
0000
0320
,
0000
2030
0000
3002
0000
0203
0000
0320
,
0000
2030
0000
3002
0000
2003
0000
3001
,
1001
0000
0000
0000
;

//---------------dance-single - ----------------
#NOTES:
     dance-single:
     :
     Medium:
     7:
     0.270716,0.284396,0.080885,0.277319,0.000000,164.000000,157.000000,7.000000,24.000000,0.000000,0.000000,0.270716,0.284396,0.080885,0.277319,0.000000,164.000000,157.000000,7.000000,24.000000,0.000000,0.000000:
0000
0000
0000
0000
,
0000
0000
0000
0000
,
1000
0000
0100
0000
0001
0010
1000
0000
,
0100
0000
0001
0000
0010
1000
0100
0000
,
0001
0000
0010
0000
1000
0100
0001
0000
,
0010
0010
0000
0010
0000
0000
0000
0000
,
0001
0000
0100
0000
1000
0010
0001
0000
,
0100
0000
1000
0000
0010
0001
0100
0000
,
1000
0000
0010
0000
0001
0100
1000
0000
,
0010
0010
0000
0010
0000
0000
0000
0000
,
0020
0000
2030
0000
,
3002
0010
0100
1003
,
2000
3100
0002
0103
,
2000
3010
0002
0013
,
0020
0000
0032
0000
,
0023
0001
0100
0031
,
0002
0013
2000
3010
,
0002
0013
2000
3010
,
1001
0000
0000
1000
1000
0000
0000
0000
,
0110
0000
0000
0010
0010
0000
0000
0000
,
1001
0000
0000
0001
0001
0000
0000
0000
,
0110
0000
0000
0100
0100
0000
0000
0000
,
0200
0320
2030
3002
,
2003
0100
0010
3001
,
0002
0013
2000
3010
,
0002
0013
2000
3010
,
0001
0000
0100
0000
1000
0010
0001
0000
,
0100
0000
1000
0000
0010
0001
0100
0000
,
1000
0000
0010
0000
0001
0100
1000
0000
,
0010
0010
0000
0010
0000
0000
0000
0000
,
0010
0100
0010
0100
,
0001
1000
0001
1000
,
0001
0000
0000
0001
0000
0000
0001
0000
,
1000
0000
0000
1000
0000
0000
0000
0000
,
0100
0010
0100
0010
,
0110
0000
0000
0110
0000
0000
0000
0000
,
0010
0000
0000
0010
0000
0000
0010
0000
,
0100
0000
0000
0100
0000
0000
0000
0000
,
1000
0100
0010
0001
,
1000
0000
0000
1001
0000
0000
0000
0000
,
1000
0010
0001
0010
,
1000
0010
0001
0010
,
1000
0100
0001
0100
,
1000
0100
0001
0100
,
0200
0000
0000
0300
;

//---------------dance-single - ----------------
#NOTES:
     dance-single:
     :
     Easy:
     4:
     0.183228,0.254209,0.057775,0.138659,0.000000,111.000000,106.000000,5.000000,12.000000,0.000000,0.000000,0.183228,0.254209,0.057775,0.138659,0.000000,111.000000,106.000000,5.000000,12.000000,0.000000,0.000000:
0000
0000
0000
0000
,
0000
0000
0000
0000
,
0000
1000
0000
1000
,
0000
1000
0000
1000
,
0000
1000
0000
1000
,
2000
0000
0000
3000
0000
0000
0000
0000
,
0000
0001
0000
0001
,
0000
0001
0000
0001
,
0000
0001
0000
0001
,
0002
0000
0000
0003
0000
0000
0000
0000
,
0010
0010
0010
0010
,
0100
0100
0100
0100
,
0001
0001
0001
0001
,
1000
1000
1000
1000
,
0100
0100
0100
0100
,
0010
0010
0010
0010
,
0001
0001
0001
0001
,
0010
0010
0010
0000
,
0110
0000
0100
0000
,
0110
0000
0100
0000
,
0110
0000
0010
0000
,
0110
0000
0010
0000
,
0002
0000
0003
0000
,
2000
0000
3000
0000
,
0020
0000
0030
0000
,
1000
0001
0100
0010
,
0000
0010
0000
0010
,
0000
0010
0000
0010
,
0000
0010
0000
0010
,
0020
0000
0000
0030
0000
0000
0000
0000
,
0010
0010
0010
0010
,
1000
1000
1000
1000
,
2000
0000
0000
3000
,
2000
0000
0000
3000
,
1000
0100
0010
0001
,
0002
0000
0000
0003
,
0002
0000
0000
0003
,
0001
0010
0100
1000
,
2000
0000
0000
3000
,
0002
0000
0000
0003
,
0010
0010
0010
0010
,
0010
0010
0010
0010
,
0100
0100
0100
0100
,
0100
0100
0100
0100
,
1001
0000
0000
0000
;

//---------------dance-single - ----------------
#NOTES:
     dance-single:
     :
     Beginner:
     2:
     0.127104,0.152525,0.069330,0.057775,0.000000,77.000000,71.000000,6.000000,5.000000,0.000000,0.000000,0.127104,0.152525,0.069330,0.057775,0.000000,77.000000,71.000000,6.000000,5.000000,0.000000,0.000000:
// measure 0
0000
0000
0000
0000
,  // measure 1
0000
0000
0000
0000
,  // measure 2
0000
1000
0000
1000
,  // measure 3
0000
1000
0000
1000
,  // measure 4
0000
1000
0000
2000
,  // measure 5
0000
0000
3000
0000
,  // measure 6
0000
0001
0000
0001
,  // measure 7
0000
0001
0000
0001
,  // measure 8
0000
0001
0000
0002
,  // measure 9
0000
0000
0003
0000
,  // measure 10
0010
0000
0010
0000
,  // measure 11
0100
0000
0100
0000
,  // measure 12
0001
0000
0001
0000
,  // measure 13
1000
0000
1000
0000
,  // measure 14
0100
0000
0100
0000
,  // measure 15
0010
0000
0010
0000
,  // measure 16
0001
0000
0001
0000
,  // measure 17
0010
0000
0010
0000
,  // measure 18
0110
0000
0000
0000
,  // measure 19
0110
0000
0000
0000
,  // measure 20
1001
0000
0000
0000
,  // measure 21
1001
0000
0000
0000
,  // measure 22
0002
0000
0000
0003
,  // measure 23
0001
0000
0000
0000
,  // measure 24
2000
0000
0000
3000
,  // measure 25
1000
0000
0001
0000
,  // measure 26
0000
0010
0000
0010
,  // measure 27
0000
0010
0000
0010
,  // measure 28
0000
0010
0000
0020
,  // measure 29
0000
0000
0030
0000
,  // measure 30
0010
0000
0010
0000
,  // measure 31
0100
0000
0100
0000
,  // measure 32
0001
0000
0001
0000
,  // measure 33
1000
0000
1000
0000
,  // measure 34
1000
0000
0001
0000
,  // measure 35
1001
0000
0000
0000
,  // measure 36
1000
0000
1000
0000
,  // measure 37
0001
0000
0001
0000
,  // measure 38
0100
0000
0100
0000
,  // measure 39
0010
0000
0010
0000
,  // measure 40
0010
0000
0010
0000
,  // measure 41
0010
0000
0010
0000
,  // measure 42
0100
0000
0100
0000
,  // measure 43
0100
0000
0100
0000
,  // measure 44
1001
0000
0000
0000
;
