#VERSION:0.82;
#TITLE:愛の地球祭;
#SUBTITLE:;
#ARTIST:チームしゃちほこ;
#TITLETRANSLIT:Ai no Chikyuusai;
#SUBTITLETRANSLIT:;
#ARTISTTRANSLIT:Team Syachihoko;
#GENRE:J-Pop;
#ORIGIN:;
#CREDIT:chewi;
#BANNER:Ai no Chikyuusai.png;
#BACKGROUND:Ai no Chikyuusai-bg.png;
#PREVIEWVID:;
#JACKET:Ai no Chikyuusai-jacket.png;
#CDIMAGE:;
#DISCIMAGE:;
#LYRICSPATH:;
#CDTITLE:cdtitle.png;
#MUSIC:Ai no Chikyuusai.ogg;
#OFFSET:-0.422000;
#SAMPLESTART:70.098999;
#SAMPLELENGTH:15.000000;
#SELECTABLE:YES;
#BPMS:0.000=127.000,
144.000=145.000,
196.000=127.000;
#STOPS:;
#DELAYS:;
#WARPS:;
#TIMESIGNATURES:0.000=4=4;
#TICKCOUNTS:0.000=4;
#COMBOS:0.000=1;
#SPEEDS:0.000=1.000=0.000=0;
#SCROLLS:0.000=1.000;
#FAKES:;
#LABELS:0.000=Song Start;
#BGCHANGES:-0.844=Ai no Chikyuusai.avi=1.000=1=0=0=StretchNoLoop==CrossFade==,
99999=-nosongbg-=1.000=0=0=0 // don't automatically add -songbackground-
;
#KEYSOUNDS:;
#ATTACKS:
;

//---------------dance-single - ----------------
#NOTEDATA:;
#CHARTNAME:;
#STEPSTYPE:dance-single;
#DESCRIPTION:;
#CHARTSTYLE:;
#DIFFICULTY:Beginner;
#METER:2;
#RADARVALUES:0.108271,0.156700,0.020484,0.020484,0.000000,70.000000,2.000000,2.000000,0.000000,0.000000,0.000000,0.000000,0.000000,0.108271,0.156700,0.020484,0.020484,0.000000,70.000000,2.000000,2.000000,0.000000,0.000000,0.000000,0.000000,0.000000;
#CREDIT:;
#NOTES:
// measure 0
0000
0000
0000
0000
,  // measure 1
0000
0000
0000
0000
,  // measure 2
0000
0000
0000
0000
,  // measure 3
0000
0000
0000
0000
,  // measure 4
1000
0000
0000
0000
,  // measure 5
0001
0000
0000
0000
,  // measure 6
1000
0000
0000
0000
,  // measure 7
0001
0000
0000
0000
,  // measure 8
0100
0000
0000
0000
,  // measure 9
0100
0000
0000
0000
,  // measure 10
0010
0000
0000
0000
,  // measure 11
0010
0000
0000
0000
,  // measure 12
1000
0000
1000
0000
,  // measure 13
1000
0000
0000
0000
,  // measure 14
0001
0000
0001
0000
,  // measure 15
0001
0000
0000
0000
,  // measure 16
0010
0000
0010
0000
,  // measure 17
0010
0000
0000
0000
,  // measure 18
0100
0000
0100
0000
,  // measure 19
0100
0000
0000
0000
,  // measure 20
1000
0000
1000
0000
,  // measure 21
1000
0000
1000
0000
,  // measure 22
0010
0000
0010
0000
,  // measure 23
0010
0000
0010
0000
,  // measure 24
0100
0000
0100
0000
,  // measure 25
0100
0000
0100
0000
,  // measure 26
0001
0000
0001
0000
,  // measure 27
0001
0000
0001
0000
,  // measure 28
1001
0000
0000
0000
,  // measure 29
0010
0000
0000
0000
,  // measure 30
0010
0000
0000
0000
,  // measure 31
0010
0010
0010
0010
,  // measure 32
0010
0000
0000
0000
,  // measure 33
0100
0000
0000
0000
,  // measure 34
0100
0000
0000
0000
,  // measure 35
0100
0100
0100
0100
,  // measure 36
0100
0000
0000
0000
,  // measure 37
1000
0000
0000
0000
,  // measure 38
0001
0000
0000
0000
,  // measure 39
1000
1000
0000
0000
,  // measure 40
0001
0001
0000
0000
,  // measure 41
0100
0000
0000
0000
,  // measure 42
0010
0000
0000
0000
,  // measure 43
0100
0100
0000
0000
,  // measure 44
0010
0010
0000
0000
,  // measure 45
2000
0000
0000
3000
,  // measure 46
1000
0000
0000
0000
,  // measure 47
0002
0000
0000
0003
,  // measure 48
0001
0000
0000
0000
,  // measure 49
0010
0000
0000
0000
,  // measure 50
0010
0000
0000
0000
,  // measure 51
0110
0000
0000
0000
;

//---------------dance-single - ----------------
#NOTEDATA:;
#CHARTNAME:;
#STEPSTYPE:dance-single;
#DESCRIPTION:;
#CHARTSTYLE:;
#DIFFICULTY:Easy;
#METER:4;
#RADARVALUES:0.160943,0.208933,0.040967,0.143385,0.000000,92.000000,4.000000,14.000000,0.000000,0.000000,0.000000,0.000000,0.000000,0.160943,0.208933,0.040967,0.143385,0.000000,92.000000,4.000000,14.000000,0.000000,0.000000,0.000000,0.000000,0.000000;
#CREDIT:;
#NOTES:
0000
0000
0000
0000
,
0000
0000
0000
0000
,
0000
0000
0000
0000
,
0000
0000
0000
0000
,
2000
0000
0000
3000
,
1000
0000
0000
0000
,
0002
0000
0000
0003
,
0001
0000
0000
0000
,
0110
0000
0000
0000
,
0010
0100
0010
0000
,
0100
0010
0100
0000
,
0110
0000
0000
0000
,
1000
0000
1000
0000
,
0100
0000
0100
0000
,
0001
0000
0001
0000
,
0002
0000
0000
0003
,
0001
0000
0001
0000
,
1000
0000
1000
0000
,
0010
0000
0010
0000
,
0200
0000
0000
0300
,
0100
0100
0100
0000
,
0010
0010
0010
0000
,
1000
1000
1000
0000
,
0001
0001
0001
0000
,
1000
0100
1000
0000
,
0001
0100
0001
0000
,
1000
0010
1000
0000
,
0001
0010
0001
0000
,
0020
0000
0000
0030
,
0200
0000
0000
0300
,
2000
0000
0000
3000
,
0001
0001
0001
0001
,
2000
0000
0000
3000
,
0020
0000
0000
0030
,
0200
0000
0000
0300
,
0001
0001
1000
1000
,
1001
0000
0000
0000
,
1000
0000
0001
0000
,
1000
0001
1000
0000
,
0001
0000
1000
0000
,
0001
1000
0001
0000
,
0100
0000
0010
0000
,
0100
0010
0100
0000
,
0010
0000
0100
0000
,
0010
0100
0010
0000
,
2000
0000
0000
3000
,
0200
0000
0000
0300
,
0020
0000
0000
0030
,
0002
0000
0000
0003
,
0001
0000
0000
0000
,
1000
0000
0000
0000
,
1001
0000
0000
0000
;

//---------------dance-single - ----------------
#NOTEDATA:;
#CHARTNAME:;
#STEPSTYPE:dance-single;
#DESCRIPTION:;
#CHARTSTYLE:;
#DIFFICULTY:Medium;
#METER:7;
#RADARVALUES:0.330664,0.470099,0.112660,0.286771,0.030725,187.000000,11.000000,28.000000,0.000000,0.000000,0.000000,0.000000,0.000000,0.330664,0.470099,0.112660,0.286771,0.030725,187.000000,11.000000,28.000000,0.000000,0.000000,0.000000,0.000000,0.000000;
#CREDIT:;
#NOTES:
0000
0000
0000
0000
,
0000
0000
0000
0000
,
0000
0000
0000
0000
,
0000
0000
0000
0000
,
1000
0000
0000
0000
,
0100
0000
0000
0000
,
0001
0000
0000
0000
,
0010
0000
0000
0000
,
1000
0010
0001
0010
,
1000
0100
0001
0100
,
1000
0010
0001
0010
,
0110
0000
0000
0000
,
2000
0000
3100
0000
1000
1000
1000
0000
,
0002
0000
0103
0000
0001
0001
0001
0000
,
0100
0010
1000
0001
,
1000
0001
0000
1000
0001
0000
0000
0000
,
2000
3100
0020
0031
,
2000
3010
0200
0301
,
0100
0100
0100
0000
0010
0010
0010
0000
,
1000
0001
1000
0001
,
0002
0000
0013
0000
0001
0001
0001
0000
,
2000
0000
3010
0000
1000
1000
1000
0000
,
0010
0100
0001
1000
,
0001
1000
0000
0001
1000
0000
0000
0000
,
0002
0013
0200
1300
,
0002
0103
0020
1030
,
0010
0010
0010
0000
0100
0100
0100
0000
,
0001
1000
0001
1000
,
0001
0000
0000
0000
1000
0000
0000
0000
0010
0000
0000
0010
0000
0000
0010
0000
,
0100
0000
0000
0000
0001
0000
0000
0000
0100
0000
0000
0100
0000
0000
0100
0000
,
0010
0000
0000
0000
1000
0000
0000
0000
0001
0000
0000
0001
0000
0000
0001
0000
,
0101
0101
1100
1100
,
0001
0000
0000
0000
0010
0000
0000
0000
0100
0000
0000
0100
0000
0000
0100
0000
,
0010
0000
0000
0000
0100
0000
0000
0000
1000
0000
0000
1000
0000
0000
1000
0000
,
0001
0000
0000
0000
1000
0000
0000
0000
0001
0000
0000
0001
0000
0000
0001
0000
,
0101
0101
1010
1010
,
0001
0000
0000
0000
,
1000
0001
0010
0100
,
1000
0001
0100
0010
1000
0000
0000
0000
,
1000
0100
0010
0001
1000
0000
0000
0000
,
0001
1000
1100
0000
,
0010
0100
1000
0001
,
0100
0010
1000
0001
0010
0000
0000
0000
,
0001
0010
0100
1000
0001
0000
0000
0000
,
1000
0100
1001
0000
,
2000
3020
0230
0302
,
2003
3200
0320
0032
,
2003
3200
2300
3002
,
0203
0320
0230
0320
,
0130
0000
0100
0000
,
0010
0000
0010
0000
0010
0010
0010
0010
,
0010
0000
0000
0000
;

//---------------dance-single - ----------------
#NOTEDATA:;
#CHARTNAME:;
#STEPSTYPE:dance-single;
#DESCRIPTION:;
#CHARTSTYLE:;
#DIFFICULTY:Hard;
#METER:10;
#RADARVALUES:0.419914,0.470099,0.348222,0.102418,0.020484,243.000000,34.000000,10.000000,0.000000,0.000000,0.000000,0.000000,0.000000,0.419914,0.470099,0.348222,0.102418,0.020484,243.000000,34.000000,10.000000,0.000000,0.000000,0.000000,0.000000,0.000000;
#CREDIT:;
#NOTES:
0000
0000
0000
0000
,
0000
0000
0000
0000
,
0000
0000
0000
0000
,
0000
0000
0000
0000
,
2000
0100
0000
3100
,
0002
0100
0000
0103
,
2000
0010
0000
3010
,
0002
0010
0000
0013
,
0011
0000
0010
0000
0001
0010
0100
1000
,
1100
0000
1000
0000
0100
1000
0001
0100
,
0110
0000
0100
0000
0010
0100
0010
0100
,
0001
1000
0001
1000
0100
0000
0000
0000
,
1001
0000
0100
0000
0010
1000
0001
0010
,
0100
0000
1000
0000
0001
0000
0100
0010
,
1000
0000
0100
0010
0001
1000
0001
0010
,
0100
0100
0000
1000
1000
0000
0000
0000
,
0010
0000
0100
0000
0001
0010
0100
1000
,
0001
0000
1000
0000
0100
0010
0100
1000
,
0001
0000
1000
0100
0001
0000
1000
0010
,
0001
0000
1000
0000
0001
0100
0010
1000
,
1001
0000
0100
0010
0001
1000
0001
0010
,
1100
0000
1000
0001
0100
0010
1000
0001
,
1000
0000
0001
1000
0100
1000
0001
0100
,
0010
0010
0000
0100
0100
0000
0000
0000
,
0010
0000
0100
0001
0010
0000
0100
1000
,
0010
1000
0000
0010
1000
0100
0010
0001
,
1000
1100
0001
0101
,
1100
0000
1000
0100
0010
0001
1000
0000
,
1001
0000
0000
0000
0100
0000
0000
0000
0010
0000
0000
1000
0000
0000
0100
0000
,
0011
0000
0000
0000
0010
0000
0000
0000
0100
0000
0000
1000
0000
0000
0010
0000
,
0101
0000
0100
0010
1000
0001
1000
0001
,
1001
1100
1001
0101
,
0110
0000
0000
0000
0100
0000
0000
0000
0010
0000
0000
1000
0000
0000
0100
0000
,
0011
0000
0000
0000
0010
0000
0000
0000
0100
0000
0000
1000
0000
0000
0001
0000
,
1001
0000
1000
0000
0001
1000
0100
0010
,
0110
1100
0110
0011
,
1001
0000
0000
0000
,
1002
0000
1003
0000
0001
0010
0100
1000
,
0000
0100
1000
0100
1000
0000
0000
0010
,
0000
1000
0010
1000
0010
0000
0000
0000
,
0100
0001
0100
0001
0100
0000
0000
0000
,
0102
0000
0103
0000
0010
1000
0001
0010
,
0000
0100
0010
0100
0010
0000
0000
0100
,
0000
0100
1000
0001
0010
0000
0000
0000
,
0100
1000
0010
0100
0001
0000
0000
0000
,
0102
1003
2010
3001
,
1002
1003
2001
3001
,
1000
0100
1000
0100
0010
0001
0010
0001
,
1000
0100
0010
0001
1000
0010
0100
0001
,
0100
0010
0000
0010
,
0110
1001
0110
1001
,
0001
0000
0000
0000
;
