#VERSION:0.82;
#TITLE:艶姿ナミダ娘;
#SUBTITLE:;
#ARTIST:小泉今日子;
#TITLETRANSLIT:Adesugata Namida Musume;
#SUBTITLETRANSLIT:;
#ARTISTTRANSLIT:Kyoko Koizumi;
#GENRE:80s Idol Pop;
#ORIGIN:;
#CREDIT:chewi;
#BANNER:Adesugata Namida Musume.png;
#BACKGROUND:Adesugata Namida Musume-bg.png;
#PREVIEWVID:;
#JACKET:Adesugata Namida Musume-jacket.png;
#CDIMAGE:;
#DISCIMAGE:;
#LYRICSPATH:;
#CDTITLE:cdtitle.png;
#MUSIC:Adesugata Namida Musume.ogg;
#OFFSET:-2.365000;
#SAMPLESTART:64.960999;
#SAMPLELENGTH:15.000000;
#SELECTABLE:YES;
#BPMS:0.000=149.500;
#STOPS:;
#DELAYS:;
#WARPS:;
#TIMESIGNATURES:0.000=4=4;
#TICKCOUNTS:0.000=4;
#COMBOS:0.000=1;
#SPEEDS:0.000=1.000=0.000=0;
#SCROLLS:0.000=1.000;
#FAKES:;
#LABELS:0.000=Song Start;
#BGCHANGES:;
#KEYSOUNDS:;
#ATTACKS:
;

//---------------dance-single - ----------------
#NOTEDATA:;
#CHARTNAME:;
#STEPSTYPE:dance-single;
#DESCRIPTION:;
#CHARTSTYLE:;
#DIFFICULTY:Beginner;
#METER:2;
#RADARVALUES:0.141327,0.148394,0.000000,0.087058,0.000000,114.000000,0.000000,11.000000,0.000000,0.000000,0.000000,0.000000,0.000000,0.141327,0.148394,0.000000,0.087058,0.000000,114.000000,0.000000,11.000000,0.000000,0.000000,0.000000,0.000000,0.000000;
#CREDIT:;
#NOTES:
// measure 0
0000
0000
0000
0000
,  // measure 1
0000
0000
0000
0000
,  // measure 2
0000
0000
0000
0000
,  // measure 3
0000
0000
0000
0000
,  // measure 4
0000
1000
0000
0001
,  // measure 5
0000
1000
0000
0001
,  // measure 6
0000
0000
0000
0000
,  // measure 7
0000
0000
0000
0000
,  // measure 8
0010
0000
0010
0000
,  // measure 9
0010
0000
0000
0000
,  // measure 10
0100
0000
0100
0000
,  // measure 11
0100
0000
0000
0000
,  // measure 12
0001
0000
0001
0000
,  // measure 13
0001
0000
0000
0000
,  // measure 14
1000
0000
1000
0000
,  // measure 15
1000
0000
0000
0000
,  // measure 16
0020
0000
0000
0030
,  // measure 17
0010
0000
0010
0010
,  // measure 18
0200
0000
0000
0300
,  // measure 19
0100
0000
0100
0100
,  // measure 20
0010
0000
0010
0000
,  // measure 21
0010
0010
0010
0000
,  // measure 22
0100
0000
0100
0000
,  // measure 23
0100
0100
0100
0000
,  // measure 24
0001
0000
0001
0000
,  // measure 25
0001
0001
0001
0000
,  // measure 26
1000
0000
1000
0000
,  // measure 27
1000
1000
1000
0000
,  // measure 28
0001
0000
0001
0000
,  // measure 29
1000
0000
1000
0000
,  // measure 30
0010
0000
0010
0000
,  // measure 31
0100
0000
0100
0000
,  // measure 32
0010
0000
0010
0000
,  // measure 33
1000
0000
1000
0000
,  // measure 34
0001
0000
0001
0000
,  // measure 35
0010
0000
0010
0000
,  // measure 36
0100
0000
0100
0000
,  // measure 37
0200
0000
0000
0000
,  // measure 38
0000
0000
0000
0300
,  // measure 39
0100
0000
0100
0000
,  // measure 40
0100
0000
0100
0000
,  // measure 41
0010
0000
0010
0000
,  // measure 42
0010
0000
0010
0000
,  // measure 43
0001
0000
0001
0000
,  // measure 44
0001
0000
0001
0000
,  // measure 45
1000
0000
1000
0000
,  // measure 46
1000
0000
1000
0000
,  // measure 47
2000
0000
0000
0000
,  // measure 48
0000
0000
0000
3000
,  // measure 49
0002
0000
0000
0000
,  // measure 50
0000
0000
0000
0003
,  // measure 51
0200
0000
0000
0000
,  // measure 52
0000
0000
0000
0300
,  // measure 53
0020
0000
0000
0000
,  // measure 54
0000
0000
0000
0030
,  // measure 55
0010
0000
0010
0000
,  // measure 56
0010
0000
0000
0000
,  // measure 57
1000
0000
0001
0000
,  // measure 58
1000
0000
0001
0000
,  // measure 59
0100
0000
0100
0000
,  // measure 60
0100
0000
0000
0000
,  // measure 61
0010
0000
0100
0000
,  // measure 62
0001
0000
1000
0000
,  // measure 63
0001
0000
0001
0000
,  // measure 64
0002
0000
0000
0003
,  // measure 65
1000
0000
1000
0000
,  // measure 66
2000
0000
0000
3000
,  // measure 67
1000
0000
0010
0000
,  // measure 68
0020
0000
0000
0030
,  // measure 69
0010
0000
0100
0000
,  // measure 70
0200
0000
0000
0300
,  // measure 71
0001
0000
0000
0000
,  // measure 72
1000
0000
0000
0000
,  // measure 73
0001
0000
0000
0000
,  // measure 74
1000
0000
0000
0000
,  // measure 75
0010
0000
0000
0000
;

//---------------dance-single - ----------------
#NOTEDATA:;
#CHARTNAME:;
#STEPSTYPE:dance-single;
#DESCRIPTION:;
#CHARTSTYLE:;
#DIFFICULTY:Easy;
#METER:5;
#RADARVALUES:0.255520,0.237430,0.118715,0.197858,0.000000,186.000000,15.000000,25.000000,0.000000,0.000000,0.000000,0.000000,0.000000,0.255520,0.237430,0.118715,0.197858,0.000000,186.000000,15.000000,25.000000,0.000000,0.000000,0.000000,0.000000,0.000000;
#CREDIT:;
#NOTES:
0000
0000
0000
0000
,
0000
0000
0000
0000
,
0000
0000
0000
0000
,
0000
0000
0000
0000
,
1000
1000
0100
0000
,
0001
0001
0100
0000
,
1001
0000
0000
0000
,
0110
0000
0000
0000
,
0010
0010
0100
0100
,
0010
0010
0100
0100
,
0010
0100
0002
0000
,
2003
0000
3002
0000
,
1003
1000
0001
0001
,
1000
0001
1000
0001
,
0010
0010
0200
0000
,
0320
0000
0032
0000
,
1003
0000
0000
0000
,
1000
0000
1001
1001
,
0001
0000
0000
0000
,
0001
0000
1001
1001
,
0001
0000
0010
0000
,
0100
0100
0100
0000
,
0100
0000
1000
0000
,
0001
0001
0001
0000
,
1000
0000
0010
0000
,
0100
0100
0100
0000
,
0010
0000
0100
0000
,
0001
0001
0001
0000
,
0002
0000
1000
0000
,
2003
0000
0001
0000
,
3200
0000
1000
0000
,
0320
0000
0100
0000
,
0230
0000
0010
0000
,
0320
0000
0001
0000
,
0032
0000
1000
0000
,
0203
0000
0010
0000
,
0310
0010
0100
0100
,
0110
0000
0110
0000
,
0110
0000
0110
0000
,
1000
1000
0001
0001
,
1000
0001
1001
0000
,
0001
1000
1001
0000
,
0010
0010
0010
0000
,
0010
0010
0100
0100
,
0010
0100
0110
0000
,
0100
0010
0110
0000
,
0001
1000
0001
0000
,
2000
0000
3010
0000
,
0002
0000
0013
0000
,
2000
0000
3100
0000
,
0001
0100
0001
0100
,
0020
0000
0130
0000
,
0020
0000
1030
0000
,
0010
1000
0001
1000
,
1001
0000
0000
0000
,
0010
0010
0100
0100
,
0010
0010
0100
0100
,
0010
0100
0002
0000
,
2003
0000
3002
0000
,
1003
1000
0001
0001
,
1000
0001
1000
0001
,
0010
0010
0200
0000
,
0320
0000
0032
0000
,
1003
0000
0000
0000
,
1000
0100
0001
0010
,
1000
0000
0000
0000
,
1000
0010
0001
0100
,
1000
0000
0000
0000
,
1000
0100
0001
0010
,
1000
0000
0000
0000
,
1000
0010
0001
0100
,
1000
0000
0000
0000
,
0100
0000
0010
0010
,
0010
0000
0000
0000
,
0001
0000
1000
1000
,
1000
0000
0000
0000
;

//---------------dance-single - ----------------
#NOTEDATA:;
#CHARTNAME:;
#STEPSTYPE:dance-single;
#DESCRIPTION:;
#CHARTSTYLE:;
#DIFFICULTY:Medium;
#METER:7;
#RADARVALUES:0.383280,0.415503,0.245344,0.316573,0.000000,268.000000,31.000000,40.000000,0.000000,0.000000,0.000000,0.000000,0.000000,0.383280,0.415503,0.245344,0.316573,0.000000,268.000000,31.000000,40.000000,0.000000,0.000000,0.000000,0.000000,0.000000;
#CREDIT:;
#NOTES:
0000
0000
0000
0000
,
0000
0000
0000
0000
,
0000
0000
0000
0000
,
0000
0000
0000
0000
,
1000
1100
0001
0101
,
1000
1100
0001
0101
,
0201
0000
0000
0000
,
0320
0000
0000
0000
,
1030
0010
0100
0010
,
1000
0010
0100
0010
,
1000
0001
2002
3003
,
2002
3003
2002
3003
,
0001
0010
0100
0010
,
0001
0100
0001
0010
,
0100
1000
2002
3003
,
2002
3003
2002
3003
,
1000
0010
0100
0010
,
2000
0000
0001
0001
,
3001
0010
0100
0010
,
0002
0000
0010
0013
,
0001
0010
0100
1000
,
0100
0100
0100
0000
1000
0000
0000
0000
,
1000
0001
0100
0010
,
0100
0100
0100
0000
0010
0000
0000
0000
,
0010
1000
0001
0100
,
0001
0001
0001
0000
0001
0000
0000
0000
,
0001
1000
0100
0010
,
0100
0100
0100
0000
0100
0000
0000
0000
,
0100
0010
0001
1000
,
0001
0001
0001
0000
1000
0000
0000
0000
,
0001
1000
0010
0100
,
0010
0010
0010
0000
0100
0000
0000
0000
,
0100
0001
1000
0010
,
1000
1000
1000
0000
0001
0000
0000
0000
,
1000
0100
0010
0001
,
0010
0010
0010
0000
0001
0000
0000
0000
,
0001
0000
1000
0000
0010
0000
0100
0020
,
0000
0000
0230
0000
,
0301
1000
0001
1000
0001
1000
0001
1000
,
0001
1001
1000
1001
,
0001
1001
1000
1001
,
1000
0100
0001
0010
,
1000
0100
0010
0001
,
1000
1001
0001
1001
,
1000
1001
0001
1001
,
1000
0010
0001
0100
,
1000
0010
0001
0010
,
0200
0000
0320
0000
,
1030
0000
0001
0000
1000
0001
1000
0000
,
0002
0000
2003
0000
,
3001
1000
0001
0000
1000
0100
1000
0000
,
2000
0000
3200
0000
,
0310
0100
0010
0000
0100
0010
0100
0000
,
0010
0000
0001
0000
1000
0000
0100
1000
,
0000
0100
1000
0000
0000
0000
1001
0000
,
0001
0100
0010
0100
,
0001
0100
0010
0100
,
0001
1000
2002
3003
,
2002
3003
2002
3003
,
1000
0100
0010
0100
,
1000
0010
1000
0100
,
0010
0001
2002
3003
,
2002
3003
2002
3003
,
0001
1000
0001
1000
,
0001
0100
0001
0000
0100
0001
0100
0000
,
0001
1000
0001
1000
,
0010
1000
0010
0000
1000
0010
1000
0000
,
0010
0100
0010
0100
,
0010
0100
0010
0000
0100
0010
0100
0000
,
0010
1000
0001
0100
,
0001
0100
0001
0000
0100
0001
0100
0000
,
2002
0000
3003
1000
,
0010
0000
0100
0101
,
2002
0000
3003
1000
,
0001
0000
1000
1100
,
0101
0000
0000
0000
;

//---------------dance-single - ----------------
#NOTEDATA:;
#CHARTNAME:;
#STEPSTYPE:dance-single;
#DESCRIPTION:;
#CHARTSTYLE:;
#DIFFICULTY:Hard;
#METER:12;
#RADARVALUES:0.537044,0.563896,0.514432,0.340316,0.035615,367.000000,65.000000,43.000000,0.000000,0.000000,0.000000,0.000000,0.000000,0.537044,0.563896,0.514432,0.340316,0.035615,367.000000,65.000000,43.000000,0.000000,0.000000,0.000000,0.000000,0.000000;
#CREDIT:;
#NOTES:
0000
0000
0000
0000
,
0000
0000
0000
0000
,
0000
0000
0000
0000
,
0000
0000
0000
0000
,
0000
0001
0100
0010
1000
0001
0100
0010
,
1000
0000
0001
0000
0010
0000
0100
0000
1000
0000
0100
1000
0100
0000
2002
0000
,
0000
0000
0000
0000
0000
0000
3003
0010
,
0000
0100
0010
0000
0000
0000
0110
0000
,
0020
0000
0031
0000
0010
0100
1000
0010
,
0000
0010
1000
0000
0001
0000
1000
0010
,
0100
0001
1000
0000
2002
0000
3003
0000
,
2200
3300
0202
0303
,
0010
0000
0100
0010
0001
1000
0100
1000
,
0000
1000
0001
0000
1000
0000
1000
0001
,
0100
0010
0100
0000
0220
0000
0330
0000
,
2020
3030
2002
3003
,
1000
0100
0001
0000
1000
0100
0001
0000
,
0011
0000
1010
1001
,
1000
0010
0001
0000
1000
0010
0001
0000
,
1001
0000
0110
1001
,
2000
0000
3001
1000
0002
0000
1003
0001
,
1000
0100
0010
0001
0000
0010
0010
0000
,
0002
0000
0013
0001
0020
0000
0031
0010
,
0100
1000
0010
1000
0000
0100
0100
0000
,
2000
0000
3001
1000
0002
0000
1003
0001
,
1000
0010
0100
0001
0000
0100
0100
0000
,
0020
0000
0130
0010
0200
0000
0310
0100
,
0010
1000
0001
1000
0100
0000
0110
0000
,
0000
0010
0100
0010
0000
0100
0010
0001
,
0000
1000
0100
1000
0000
0001
1000
0010
,
0000
0100
0001
0100
0000
0010
0100
0001
,
0000
1000
0100
1000
0000
0001
0010
0100
,
0110
0000
0010
0000
0001
1000
0100
0000
,
1100
0000
1000
0000
0001
0100
0010
0000
,
1010
0000
0010
0000
0100
0010
1000
0000
,
1001
0000
0001
0000
1000
0100
0010
0000
,
0001
0010
0100
1000
0010
0100
0001
0100
,
0000
0000
0001
0100
0001
0100
0001
0000
0000
0000
1000
0100
1000
0100
1000
0000
,
0000
1000
0100
0010
0100
0010
0001
1000
,
1010
1100
0011
0101
,
0001
1000
0100
0020
0000
0000
0030
0000
,
0100
0010
0001
0000
1000
0000
0001
1001
,
0000
0000
1000
0000
0001
0000
0100
0000
0001
0100
0001
0000
1000
0010
0000
0000
,
0101
1010
0101
1010
,
0001
0100
0010
0200
0000
0000
0300
0000
,
0001
0010
0100
0000
1000
0000
0001
0011
,
0000
0000
1000
0000
0010
0000
0100
0000
0001
0100
0001
0000
1000
0010
0000
0000
,
0000
0000
0001
1000
0020
0000
0230
0000
,
0301
1000
0100
0020
0000
0000
0030
0000
,
0000
0000
0100
1000
0001
0000
0011
0000
,
2002
0000
0000
3003
,
0000
0000
0010
1000
0001
0000
1000
0000
,
1001
0000
0000
0010
0000
0001
0010
0100
,
1000
0100
1000
0001
0010
0100
0010
0001
,
0000
1000
0001
0000
0000
0000
0110
0000
,
0200
0000
1300
0000
0100
0010
0001
0100
,
0000
0100
0001
0000
1000
0000
0001
0100
,
0010
1000
0001
0000
2002
0000
3003
0000
,
0022
0033
2020
3030
,
0100
0000
0010
0100
0001
1000
0010
1000
,
0000
1000
0001
0000
0001
0000
0001
1000
,
0010
0100
0010
0000
0220
0000
0330
0000
,
0202
0303
2002
3003
,
0001
1000
0001
1000
0100
0010
0100
0010
,
0110
0011
1100
1001
,
1000
0001
1000
0001
0100
0001
0100
0001
,
0101
0110
1010
0110
,
0010
1000
0010
1000
0001
1000
0001
1000
,
1100
0011
0101
1010
,
0001
1000
0001
1000
0100
0010
0100
0010
,
0110
0011
1001
1010
,
1100
0001
0010
1001
,
0110
1000
0110
0101
,
1001
0100
0010
0011
,
1100
1000
1001
0110
,
0010
0000
0000
0000
;
