#TITLE:According to You;
#SUBTITLE:;
#ARTIST:Orianthi;
#TITLETRANSLIT:;
#SUBTITLETRANSLIT:;
#ARTISTTRANSLIT:;
#GENRE:;
#CREDIT:;
#MENUCOLOR:#FF0000;
#METERTYPE:DDR X;
#BANNER:According to You.png;
#BACKGROUND:According to You-bg.png;
#LYRICSPATH:;
#CDTITLE:;
#MUSIC:According to You.mp3;
#OFFSET:1.803;
#SAMPLESTART:31.629;
#SAMPLELENGTH:15.000;
#SELECTABLE:YES;
#LISTSORT:;
#BPMS:0.000=131.000;
#STOPS:;
#BGCHANGES:;
#ATTACKS:;

//---------------dance-single - Chewi----------------
#NOTES:
     dance-single:
     Chewi:
     Beginner:
     1:
     0.075,0.129,0.040,0.000,0.000:
0000
0000
0000
0000
,
0000
0000
0000
0000
,
0000
0000
0000
0000
,
0010
0000
0000
0000
,
0010
0000
0000
0000
,
0100
0000
0000
0000
,
0100
0000
0000
0000
,
1000
0000
0000
0000
,
0001
0000
0000
0000
,
1000
0000
0000
0000
,
0001
0000
0000
0000
,
0010
0000
0000
0000
,
0001
0000
0000
0000
,
0100
0000
0000
0000
,
1000
0000
0000
0000
,
0100
0000
0000
0000
,
0001
0000
0000
0000
,
0110
0000
0000
0000
,
0000
0000
0000
0000
,
1000
0000
0000
0000
,
1000
0000
0000
0000
,
1000
0000
0000
0000
,
1000
0000
0000
0000
,
0001
0000
0000
0000
,
0001
0000
0000
0000
,
1000
0000
0000
0000
,
0100
0000
0000
0000
,
0010
0000
0000
0000
,
0010
0000
0000
0000
,
0100
0000
0000
0000
,
0100
0000
0000
0000
,
1001
0000
0000
0000
,
1001
0000
0000
0000
,
1000
0000
0000
0000
,
0001
0000
0000
0000
,
0100
0000
0000
0000
,
0100
0000
0000
0000
,
0010
0000
0000
0000
,
0001
0000
0000
0000
,
1000
0000
0000
0000
,
0001
0000
0000
0000
,
1001
0000
0000
0000
,
0100
0000
0000
0000
,
0010
0000
0000
0000
,
0100
0000
0000
0000
,
0010
0000
0000
0000
,
0010
0000
0000
0000
,
1000
0000
0000
0000
,
1000
0000
0000
0000
,
1000
0000
0000
0000
,
0001
0000
0000
0000
,
0010
0000
0000
0000
;

//---------------dance-single - Chewi----------------
#NOTES:
     dance-single:
     Chewi:
     Easy:
     4:
     0.212,0.303,0.071,0.202,0.000:
0000
0000
0000
0000
,
0000
0000
0000
0000
,
0000
0000
0000
0000
,
0010
0010
0010
0010
,
0010
0010
0010
0010
,
0100
0100
0100
0100
,
0100
0100
0100
0100
,
1000
0000
1001
0000
,
0001
0000
1001
0000
,
1000
0000
1001
0000
,
0001
0000
1001
0000
,
0020
0000
0000
0030
,
0002
0000
0000
0003
,
0200
0000
0000
0300
,
2000
0000
0000
3000
,
0200
0000
0000
0300
,
0002
0000
0000
0003
,
0020
0000
0000
0000
,
0000
0030
0000
0000
,
1000
0100
0001
0100
,
1000
0100
0001
0100
,
1000
0001
0010
0100
,
1000
0000
0001
1000
,
0001
0010
1000
0010
,
0001
0010
1000
0010
,
1000
0100
0010
0001
,
0100
0000
0000
0000
,
0010
0010
0100
0100
,
0010
0100
0001
1000
,
0100
0100
0010
0010
,
0100
0010
0001
1000
,
1001
0001
1000
0001
,
1001
0000
0000
0000
,
2000
0000
0000
3000
,
0002
0000
0000
0003
,
0200
0000
0000
0300
,
0100
0100
0100
0100
,
0020
0000
0000
0030
,
0002
0000
0000
0003
,
2000
0000
0000
3000
,
0001
0001
0001
0001
,
2002
0000
0000
3003
,
0200
0000
0000
0300
,
0010
0100
0001
1000
,
0200
0000
0000
0300
,
0010
0010
0010
0001
,
0010
0010
0010
1000
,
1000
0100
0010
0001
,
1000
0010
0100
0001
,
2000
0000
0000
3000
,
0002
0000
0000
0003
,
0020
0000
0000
0000
,
0000
0000
0000
0000
,
0000
0000
0000
0000
,
0000
0000
0030
0000
;

//---------------dance-single - Chewi----------------
#NOTES:
     dance-single:
     Chewi:
     Medium:
     7:
     0.307,0.413,0.222,0.121,0.000:
0000
0000
0000
0000
,
0000
0000
0000
0000
,
0000
0000
0000
0000
,
1000
1000
1000
1000
,
0001
0001
0001
0001
,
0100
0100
0100
0100
,
0010
0010
0010
0010
,
1000
0100
1000
0010
,
0001
0100
0001
0010
,
1000
0100
1000
0010
,
0001
0100
0001
0010
,
0210
0010
0010
0010
,
0010
0010
0010
0310
,
1002
1000
1000
1000
,
1000
1000
1000
1003
,
1000
1000
1000
0000
0100
0000
0010
0000
,
0001
0001
0001
0000
0100
0000
0010
0000
,
2000
0010
0001
0100
,
0002
3003
0000
0000
,
1000
1000
1000
0000
1000
0000
0100
0000
,
0001
0001
0001
0000
0001
0000
0010
0000
,
0110
0000
1001
0000
,
0110
0000
1001
0000
,
0010
0000
0001
0000
0010
0010
0010
0000
,
1000
0000
0010
0000
0100
0100
0100
0000
,
0110
0000
1001
0000
,
0110
0000
1001
0000
,
0001
0000
0100
0000
1000
1000
1000
0000
,
1000
0000
0100
0000
0001
0001
0001
0000
,
0001
0000
0010
0000
1000
1000
1000
0000
,
1000
0000
0010
0000
0001
0001
0001
0000
,
0101
0101
1100
1100
,
1001
0000
0000
0000
,
0010
0000
0001
0000
,
0001
0010
0100
1000
,
0010
0000
1000
0000
,
0100
0010
0001
1000
,
0010
0000
0010
0000
0100
0010
0100
0000
,
0100
0000
0100
0000
0010
0100
0010
0000
,
0010
1000
0001
0010
,
0011
0011
1010
1010
,
2002
0000
3003
0100
,
0010
2020
0000
3030
,
0010
1000
0100
0001
,
0010
0001
0100
1000
,
0010
0010
0010
0010
,
0100
0100
0100
0100
,
0001
0100
0001
0000
0100
0000
1000
0000
,
1000
0100
1000
0000
0100
0000
0001
0000
,
2002
0000
0000
3000
,
0020
0000
0000
0003
,
0002
0000
0000
0000
,
0000
0000
0000
0000
,
0000
0000
0000
0000
,
0000
0000
0033
0000
;

//---------------dance-single - Chewi----------------
#NOTES:
     dance-single:
     Chewi:
     Hard:
     9:
     0.445,0.496,0.202,0.192,0.015:
0000
0000
0000
0000
,
0000
0000
0000
0000
,
0000
0000
0000
0000
,
1000
0000
1000
0000
1000
1000
1000
0000
,
0100
0000
0100
0000
0100
0100
0100
0000
,
0010
0000
0010
0000
0010
0010
0010
0000
,
0001
0000
0001
0000
0001
0001
0001
0000
,
0002
0000
1003
0000
0100
0010
0100
0000
,
0002
0000
1003
0000
0010
0100
0010
0000
,
2000
0000
3010
0000
0001
0010
0001
0000
,
0002
0000
0013
0000
0001
0100
0001
0000
,
2100
0001
0010
3001
,
0102
1000
0100
0013
,
2100
0010
0001
3010
,
0012
0100
0010
0103
,
1000
0100
1000
0100
0010
0001
0010
0001
,
1000
0001
1000
0001
0100
0010
0100
0010
,
0100
0010
1000
0001
0010
0100
1000
0001
,
1000
0001
2002
0000
0000
0000
3003
0000
,
1000
0010
0001
0010
1000
0010
0001
0010
,
1000
0100
0001
0100
1000
0100
0001
0100
,
1000
0100
0010
0000
0001
0010
0100
0000
,
0001
1000
0100
0000
1000
0001
0100
0000
,
0001
0100
0010
1000
0001
0100
0010
1000
,
0001
0010
0100
1000
0001
0010
0100
1000
,
0001
0010
0100
0000
1000
0100
0010
0000
,
0001
1000
0010
0000
1000
0001
0010
0000
,
0100
0100
0010
0010
0100
0010
0001
0100
,
0010
0010
0100
0100
0010
1000
0100
1000
,
0010
0010
1000
1000
0001
0010
0100
1000
,
0010
0010
1000
1000
0100
0010
0001
1000
,
1100
0011
0101
1010
,
1001
0000
0000
0000
0010
0100
0010
0001
,
0000
0000
0001
0000
0010
0000
0100
1000
,
0000
0010
0000
0101
0000
1001
0000
0100
,
0000
1100
0000
0011
0000
1000
0000
0000
,
0002
0000
2000
0000
,
3003
0001
0010
0100
,
1000
0100
0001
0010
0000
0100
0000
0000
,
0000
0010
0001
0100
,
0101
1100
1010
0011
,
0012
0000
0000
0000
0000
0000
0013
0100
,
2000
0000
3010
0200
0000
0000
0300
0000
,
0010
1000
0100
0010
1000
0100
0010
0100
,
1000
0010
0100
0001
1000
0010
0100
0000
,
0100
0001
0010
0001
0100
0001
0010
0001
,
0100
0010
1000
0100
1000
0010
1000
0100
,
1000
0010
0100
0001
1000
0100
0010
0001
,
1000
0001
1000
0001
1000
0010
1000
0010
,
0220
0000
0000
0300
,
2000
0000
0000
3030
,
1000
0000
0000
0010
0000
0000
0000
0100
0000
0000
0001
0000
0000
0000
0010
0000
0000
0000
0000
0000
0000
0200
0000
0000
,
0000
0000
0000
0000
,
0000
0000
0000
0000
,
0000
0000
0300
0000
;

//---------------dance-double - Chewi----------------
#NOTES:
     dance-double:
     Chewi:
     Hard:
     10:
     0.507,0.688,0.111,0.354,0.015: // measure 1
00000000
00000000
00000000
00000000
,  // measure 2
00000000
00000000
00000000
00000000
,  // measure 3
00000000
00000000
00000000
00000000
,  // measure 4
10000000
01000000
10000000
01000000
00100000
00010000
00100000
00010000
,  // measure 5
10000000
01000000
10000000
01000000
00100000
00010000
00100000
00010000
,  // measure 6
01000000
00010000
01000000
00010000
00010000
00001000
00010000
00001000
,  // measure 7
00001000
00000010
00001000
00000010
00000100
00000010
00000100
00000010
,  // measure 8
00000200
00000000
00000301
00000000
00000001
00000001
00001000
00000000
,  // measure 9
00000200
00000000
00001300
00000000
00000010
00000010
00001000
00000000
,  // measure 10
00000002
00000000
00000103
00000000
00000010
00000010
00000100
00000000
,  // measure 11
00000001
00000100
00000001
00000100
00000010
00001000
00000010
00001000
,  // measure 12
00000002
00000100
00001000
00000010
,  // measure 13
00002003
00000100
00000001
00000100
,  // measure 14
00003200
00010000
00001000
00010000
,  // measure 15
00002300
00010000
00100000
00013000
,  // measure 16
00001000
00010000
00001000
00010000
00010000
01000000
00010000
01000000
,  // measure 17
00100000
01000000
00100000
01000000
00010000
01000000
00010000
01000000
,  // measure 18
00100000
10000000
00010000
00100000
01000000
10000000
00010000
10000000
,  // measure 19
00020000
20000000
00000000
30030000
,  // measure 20
10000000
00100000
01000000
00010000
10000000
00100000
01000000
00010000
,  // measure 21
10000000
01000000
00100000
00010000
10000000
01000000
00100000
00010000
,  // measure 22
00100000
00010000
00001000
00000000
00010000
00000100
00001000
00000000
,  // measure 23
00001000
00000100
00000001
00000000
00000100
00000100
00000010
00000010
,  // measure 24
00000001
00000100
00000010
00001000
00000001
00000100
00000010
00001000
,  // measure 25
00000001
00000010
00000100
00001000
00010000
01000000
10000000
00100000
,  // measure 26
10000000
00100000
00010000
00000000
10000000
01000000
00010000
00000000
,  // measure 27
00100000
00010000
00100000
00000000
00100000
10000000
00100000
00000000
,  // measure 28
10000000
10000000
01000000
01000000
00100000
00010000
01000000
00100000
,  // measure 29
01000000
01000000
00010000
00010000
00100000
00010000
01000000
00010000
,  // measure 30
00100000
00100000
00001000
00001000
00010000
00000100
00001000
00000001
,  // measure 31
00000100
00000100
00000010
00000010
00001000
00000001
00000100
00000010
,  // measure 32
00001010
00000011
00000101
00001100
,  // measure 33
00001002
00000000
00000000
00000000
00000100
00000010
00000100
00000013
,  // measure 34
00001000
00000001
00000010
00000100
00001000
00000010
00000100
00000010
,  // measure 35
00000000
00001010
00000000
00001100
00000000
00010100
00000000
00001000
,  // measure 36
00000000
00010000
00000000
01010000
00000000
00110000
00000000
00000000
,  // measure 37
02100000
00010000
00200000
00000000
,  // measure 38
03300000
00000000
00100000
10000000
01000000
00100000
00010000
10000000
,  // measure 39
01000000
00100000
01000000
10000000
00100000
01000000
00010000
01000000
,  // measure 40
01000000
00100000
00010000
00000000
00010000
00001000
00010000
00000010
,  // measure 41
00000001
00000000
00000100
00000000
00001000
00000000
00000010
00001000
,  // measure 42
00000002
00000000
00000000
00000000
00000000
00000000
00000103
00000010
,  // measure 43
00002000
00000000
00003001
00000020
00000000
00000000
00000000
00000000
,  // measure 44
00000031
00000002
00000013
00000020
00000130
00000200
00001300
00002000
,  // measure 45
00003100
00010000
00001000
00100000
00010000
01000000
00100000
10000000
,  // measure 46
00010000
00020000
10030000
20000000
30100000
00200000
01300000
02000000
,  // measure 47
03010000
00100000
01000000
10000000
00010000
00100000
01000000
00100000
,  // measure 48
00020000
02030000
03200000
02300000
03020000
00230000
00302000
00023000
,  // measure 49
00030100
00000000
00001000
00000000
00000001
00000000
00000100
00000000
00000010
00001000
00000010
00000000
00001000
00000001
00001000
00000000
,  // measure 50
00000002
00000010
00000100
00001000
,  // measure 51
00002003
00000010
00000100
00000010
,  // measure 52
00003002
00000000
00000000
00000000
00000000
00000000
00000000
00000000
00000000
00000000
00000200
00000000
,  // measure 53
00000000
00000000
00000000
00000000
,  // measure 54
00000000
00000000
00000000
00000000
,  // measure 55
00000000
00000000
00000303
00000000
;

//---------------dance-double - Chewi----------------
#NOTES:
     dance-double:
     Chewi:
     Medium:
     8:
     0.349,0.413,0.111,0.344,0.005: // measure 1
00000000
00000000
00000000
00000000
,  // measure 2
00000000
00000000
00000000
00000000
,  // measure 3
00000000
00000000
00000000
00000000
,  // measure 4
10000000
10000000
10000000
20000000
,  // measure 5
31000000
01000000
01000000
02000000
,  // measure 6
03100000
00100000
00100000
00200000
,  // measure 7
00310000
00010000
00010000
00020000
,  // measure 8
00031000
00010000
00001000
00000010
,  // measure 9
00001000
00000001
00001000
00000100
,  // measure 10
00000001
00000010
00001000
00000010
,  // measure 11
00000010
00000010
00000010
00000000
00001000
00001000
00001000
00000000
,  // measure 12
00002000
00023000
02030000
23000000
,  // measure 13
30100000
00100000
01000000
01000000
,  // measure 14
20000000
32000000
03200000
00320000
,  // measure 15
00130000
00100000
00001000
00001000
,  // measure 16
00020000
00032000
00003020
00000032
,  // measure 17
00000103
00000100
00000010
00000010
,  // measure 18
00000002
00000023
00000230
00002300
,  // measure 19
00003001
00001000
00001001
00000000
00000000
00000000
00000000
00000000
,  // measure 20
00000010
00001000
00000100
00001000
,  // measure 21
00000010
00001000
00010000
01000000
,  // measure 22
10000000
10000000
10000000
00000000
00010000
00010000
00010000
00000000
,  // measure 23
00100000
01000000
00100000
00010000
,  // measure 24
10000000
00100000
00010000
00100000
,  // measure 25
01000000
00100000
00010000
00001000
,  // measure 26
00000100
00000100
00000100
00000000
00000010
00000010
00000010
00000000
,  // measure 27
00000001
00001000
00000010
00000100
,  // measure 28
00000001
00000100
00001000
00000000
00000010
00000000
00001000
00000000
,  // measure 29
00001000
00000100
00000001
00000000
00000010
00000000
00001000
00000000
,  // measure 30
00000100
00010000
00001000
00000000
00100000
00000000
00010000
00000000
,  // measure 31
01000000
00100000
10000000
00000000
00010000
00000000
10000000
00000000
,  // measure 32
11000000
11000000
00110000
00110000
,  // measure 33
10010000
00000000
01000000
01000000
,  // measure 34
02000000
00000000
03200000
00000000
,  // measure 35
10300000
00010000
10000000
00010000
,  // measure 36
00200000
00000000
00302000
00000000
,  // measure 37
00013000
00001000
00000010
00000100
,  // measure 38
00000002
00000000
00000203
00000000
,  // measure 39
00000310
00001000
00000001
00001000
,  // measure 40
00000100
00000001
00000010
00000001
,  // measure 41
00000101
00000000
00000011
00000000
00000101
00000000
00001100
00000100
,  // measure 42
00000200
00000000
00000000
00000000
00000000
00000000
00010300
00001000
,  // measure 43
00020000
00002000
00000000
00033000
,  // measure 44
00001000
00010000
01000000
00000000
10000000
00000000
01000000
00000000
,  // measure 45
10000000
01000000
00010000
00000000
00100000
00000000
10000000
00000000
,  // measure 46
00100000
00100000
00100000
00000000
01000000
00100000
01000000
00000000
,  // measure 47
01000000
01000000
01000000
00000000
00010000
01000000
00010000
00000000
,  // measure 48
00100000
00010000
00001000
00000000
00000100
00000010
00000001
00000000
,  // measure 49
00000100
00000000
00000010
00000000
00001000
00000001
00000010
00000000
,  // measure 50
00000022
00000000
00000000
00000030
,  // measure 51
00002000
00000000
00000000
00003003
,  // measure 52
00000020
00000000
00000000
00000000
00000000
00000000
00000000
00000000
00000000
00000000
00000200
00000000
,  // measure 53
00000000
00000000
00000000
00000000
,  // measure 54
00000000
00000000
00000000
00000000
,  // measure 55
00000000
00000000
00000330
00000000
;

//---------------dance-double - Chewi----------------
#NOTES:
     dance-double:
     Chewi:
     Easy:
     4:
     0.183,0.248,0.000,0.222,0.000: // measure 1
00000000
00000000
00000000
00000000
,  // measure 2
00000000
00000000
00000000
00000000
,  // measure 3
00000000
00000000
00000000
00000000
,  // measure 4
20000000
00000000
00000000
30000000
,  // measure 5
00020000
00000000
00000000
00030000
,  // measure 6
00200000
00000000
00000000
00300000
,  // measure 7
00020000
00000000
00000000
00030000
,  // measure 8
00100000
00000000
00010000
00000000
,  // measure 9
00001000
00000000
00010000
00000000
,  // measure 10
00001000
00000000
00000010
00000000
,  // measure 11
00000001
00000000
00000010
00000000
,  // measure 12
00000200
00000000
00000000
00000300
,  // measure 13
00000020
00000000
00000000
00000030
,  // measure 14
00000002
00000000
00000000
00000003
,  // measure 15
00002000
00000000
00000000
00003000
,  // measure 16
00001000
00000000
00010000
00000000
,  // measure 17
01000000
00000000
10000000
00000000
,  // measure 18
01000000
00000000
00010000
00000000
,  // measure 19
00200000
00300000
00000000
00000000
,  // measure 20
10000000
10000000
10000000
10000000
,  // measure 21
01000000
01000000
01000000
01000000
,  // measure 22
00200000
00000000
00000000
00300000
,  // measure 23
00100000
00000000
00010000
00100000
,  // measure 24
00001000
00001000
00001000
00001000
,  // measure 25
00000010
00000010
00000010
00000010
,  // measure 26
00000200
00000000
00000000
00000300
,  // measure 27
00000100
00000000
00000000
00000000
,  // measure 28
00000001
00000100
00001000
00000010
,  // measure 29
00001000
00000100
00000001
00000010
,  // measure 30
00001000
00001000
00010000
00010000
,  // measure 31
01000000
00100000
01000000
10000000
,  // measure 32
01000000
00010000
00100000
10000000
,  // measure 33
01000000
00010000
00100000
10000000
,  // measure 34
20000000
00000000
00000000
30000000
,  // measure 35
00010000
10000000
00010000
00000000
,  // measure 36
00002000
00000000
00000000
00003000
,  // measure 37
00010000
00001000
00000010
00000000
,  // measure 38
00000020
00000000
00000000
00000030
,  // measure 39
00000100
00000010
00001000
00000000
,  // measure 40
00000002
00000000
00000000
00000003
,  // measure 41
00001000
00000001
00000100
00000010
,  // measure 42
00002000
00000000
00000000
00000000
,  // measure 43
00000000
00023000
00000000
00000000
,  // measure 44
01030000
01000000
00010000
00010000
,  // measure 45
00100000
01000000
10000000
01000000
,  // measure 46
00200000
00000000
00000000
00000000
,  // measure 47
00320000
00000000
00000000
00000000
,  // measure 48
00032000
00000000
00000000
00000000
,  // measure 49
00003020
00000000
00000000
00000000
,  // measure 50
00000130
00000000
00001000
00000000
,  // measure 51
00000001
00000000
00000010
00000000
,  // measure 52
00000200
00000000
00000000
00000000
,  // measure 53
00000000
00000000
00000000
00000000
,  // measure 54
00000000
00000000
00000000
00000000
,  // measure 55
00000000
00000000
00000300
00000000
;
