#TITLE:Acceptable in the 80s;
#SUBTITLE:;
#ARTIST:Calvin Harris;
#TITLETRANSLIT:;
#SUBTITLETRANSLIT:;
#ARTISTTRANSLIT:;
#GENRE:;
#CREDIT:Chewi☆;
#MENUCOLOR:#FFFF00;
#METERTYPE:DDR X;
#BANNER:Acceptable in the 80s.png;
#BACKGROUND:Acceptable in the 80s-bg.png;
#LYRICSPATH:;
#CDTITLE:;
#MUSIC:Acceptable in the 80s.mp3;
#OFFSET:-0.525;
#SAMPLESTART:68.042;
#SAMPLELENGTH:15.000;
#SELECTABLE:YES;
#LISTSORT:;
#DISPLAYBPM:128.000;
#BPMS:0.000=128.000;
#STOPS:;
#BGCHANGES:;
#ATTACKS:;

//---------------dance-single - Chewi----------------
#NOTES:
     dance-single:
     Chewi:
     Beginner:
     1:
     0.075,0.104,0.020,0.000,0.000:
0000
0000
0000
0000
,
0000
0000
0000
0000
,
0000
0000
0000
0000
,
0000
0000
0000
0000
,
1000
0000
0000
0000
,
0010
0000
0000
0000
,
0010
0000
0000
0000
,
0100
0000
0000
0000
,
0001
0000
0000
0000
,
1000
0000
0000
0000
,
0100
0000
0000
0000
,
0010
0000
0000
0000
,
0001
0000
0000
0000
,
1000
0000
0000
0000
,
1000
0000
0000
0000
,
0001
0000
0000
0000
,
0100
0000
0000
0000
,
0010
0000
0000
0000
,
0010
0000
0000
0000
,
0100
0000
0000
0000
,
1000
0000
0000
0000
,
1000
0000
0000
0000
,
0001
0000
0000
0000
,
0001
0000
0000
0000
,
0100
0000
0000
0000
,
0100
0000
0000
0000
,
0100
0000
0000
0000
,
0010
0000
0000
0000
,
0010
0000
0000
0000
,
0010
0000
0000
0000
,
0100
0000
0000
0000
,
0100
0000
0000
0000
,
1000
0000
0000
0000
,
1000
0000
0000
0000
,
0001
0000
0000
0000
,
1000
0000
0000
0000
,
0110
0000
0000
0000
,
1000
0000
0000
0000
,
1000
0000
0000
0000
,
1000
0000
0000
0000
,
1001
0000
0000
0000
,
0001
0000
0000
0000
,
0001
0000
0000
0000
,
0001
0000
0000
0000
,
0100
0000
0000
0000
,
0010
0000
0000
0000
,
1000
0000
0000
0000
,
0001
0000
0000
0000
,
0010
0000
0000
0000
,
0010
0000
0000
0000
,
0100
0000
0000
0000
,
0010
0000
0100
0100
;

//---------------dance-single - Chewi----------------
#NOTES:
     dance-single:
     Chewi:
     Easy:
     4:
     0.190,0.236,0.020,0.081,0.000:
0000
0000
0000
0000
,
0000
0000
0000
0000
,
0000
0000
0000
0000
,
0000
0000
0000
0000
,
2000
0000
3000
0000
,
0010
0001
0100
1000
,
0010
0000
0000
0000
,
0100
0000
0000
0000
,
0002
0000
0003
0000
,
1000
0100
0001
0010
,
0100
0000
0000
0000
,
0010
0000
0000
0000
,
0001
0001
0001
0000
,
1000
0100
1000
0000
,
1000
1000
1000
0000
,
0001
0100
0001
0000
,
0100
0100
0100
0000
,
0010
1000
0001
0000
,
0010
0010
0010
0000
,
0100
1000
0001
0000
,
2000
0000
0000
3000
,
1000
1000
1000
0000
,
0002
0000
0000
0003
,
0001
0001
0001
0000
,
0100
1000
0010
0000
,
0100
0010
0100
0000
,
0100
0001
0010
0000
,
0010
0100
0010
0000
,
0020
0000
0000
0030
,
0010
0010
0010
0000
,
0200
0000
0000
0300
,
0100
0100
0100
0000
,
1000
0100
0001
0000
,
1000
0010
0001
0000
,
0001
1000
0001
0000
,
1000
0001
1000
0000
,
0110
0000
0000
0000
,
1000
0010
0001
0100
,
1000
0000
0001
0000
,
1000
0000
0001
0000
,
1001
0000
0000
0000
,
0001
0010
1000
0100
,
0001
0000
1000
0000
,
0001
0000
0100
0100
,
0100
0010
0100
0000
,
0010
0100
0010
0000
,
1000
0001
1000
0000
,
0001
1000
0001
0000
,
0010
1000
0100
0000
,
0010
0001
0100
0000
,
0100
0010
0100
0000
,
0010
0100
0020
0230
,
0300
0000
0000
0000
;

//---------------dance-single - Chewi----------------
#NOTES:
     dance-single:
     Chewi:
     Medium:
     6:
     0.307,0.314,0.181,0.020,0.000:
0000
0000
0000
0000
,
0000
0000
0000
0000
,
0000
0000
0000
0000
,
0000
0000
0000
0000
,
1000
0100
1000
0100
,
0001
1100
1000
0101
,
0001
0010
0001
0010
,
0001
1010
1000
0011
,
0100
0001
0010
1000
,
0100
1000
0010
0001
,
0100
0010
0001
1000
,
0001
0010
0100
1000
,
0001
0000
1100
0000
1000
1000
1000
0000
,
1000
0100
0010
0001
,
1000
0000
0101
0000
0001
0001
0001
0000
,
0100
0010
1000
0001
,
1000
0000
0100
0000
0010
0001
0100
0000
,
0001
0000
0010
0000
0100
1000
0010
0000
,
1000
0100
0010
0001
,
1000
0001
0100
0010
,
1000
0000
1000
0000
1000
0100
1000
0000
,
0100
0010
0001
0010
,
0100
1000
0000
0010
,
0100
0000
0110
0110
,
0001
0100
0001
0000
0100
0000
0010
0000
,
1000
0100
1000
0000
0010
0000
1000
0000
,
0100
0010
0000
0001
,
1000
0000
1001
1001
,
1000
0100
1000
0000
0001
0000
0010
0000
,
0100
0010
0001
0000
0100
0000
1000
0000
,
0010
0100
0000
1000
,
0100
0000
1100
0101
,
0100
0110
0100
0110
,
1000
0100
1000
0000
0010
0000
0100
0000
,
0001
1000
0000
0000
,
0100
0010
0110
1001
,
1000
0100
1000
0000
0100
0000
0000
0000
,
0010
0001
0100
1000
,
0010
0010
0100
0100
,
1000
0100
0001
0100
,
0010
0100
0010
0000
0100
0000
0000
0000
,
0010
1000
0100
0001
,
1000
0100
0010
0001
,
0001
0010
0100
1000
,
0100
0010
1001
0000
,
1000
0100
1000
0000
0100
0000
0000
0000
,
0001
0100
0010
1000
,
0001
0001
1000
1000
,
0001
0010
0110
0000
,
0100
0010
0100
0000
0010
0000
0100
0000
,
1000
0100
0010
0001
,
1000
0010
0200
0302
,
0003
0000
0000
0000
;

//---------------dance-single - Chewi----------------
#NOTES:
     dance-single:
     Chewi:
     Hard:
     9:
     0.390,0.393,0.181,0.242,0.000:
0000
0000
0000
0000
,
0000
0000
0000
0000
,
0000
0000
0000
0000
,
0000
0000
0000
0000
,
1000
0100
1000
0000
0100
0000
0000
0000
,
0001
0100
0001
0000
0100
0000
0000
0000
,
0010
0110
1000
0100
,
0010
0010
0002
2003
,
3001
0010
0001
0000
0010
0000
0000
0000
,
1000
0010
1000
0000
0100
0000
0000
0000
,
0010
0110
1000
0001
,
1000
0100
0002
0023
,
0031
0010
0001
0000
0100
0000
1000
0000
,
1000
0010
1000
0000
0100
0000
0001
0000
,
0010
0110
0001
1000
,
0010
0100
0020
0032
,
1003
0000
0100
0000
0001
0100
1000
0000
,
1000
0000
0010
0000
0001
0010
1000
0000
,
0100
1001
0010
0100
,
1000
0001
0200
0302
,
1003
0100
1000
1100
,
0001
0010
0001
0011
,
1000
0100
1000
0000
0010
0010
0010
0000
,
0001
0100
0001
0000
0110
0000
0110
0000
,
0010
0000
1000
0000
0100
0001
0100
0000
,
1000
0000
0010
0000
0001
0010
0001
0000
,
0100
0000
0010
0000
0100
1000
0100
0000
,
0010
0100
0011
0101
,
0010
0000
0101
0000
1000
0100
1000
0000
,
0010
0000
1001
0000
0001
0100
1000
0000
,
0100
0010
0100
0000
0010
0000
0001
0000
,
1000
0100
0001
0000
0101
0000
1100
0000
,
0001
0000
1001
0000
0010
0100
0001
0000
,
0001
0000
0101
0000
0100
1000
0010
0000
,
0001
0100
1000
0000
0100
0000
1000
0000
,
1000
0001
0110
0011
,
1000
0100
1000
0100
2000
0000
3010
0000
,
0001
0100
1000
0010
,
0100
0010
0100
0010
0200
0000
0310
0000
,
0010
0010
0010
0000
0002
0000
0023
0000
,
0031
1000
0100
1000
0002
0000
1003
0000
,
0010
1000
0100
0001
,
0010
0100
0010
0100
0020
0000
0130
0000
,
1000
0100
1000
0000
2000
0000
3002
0000
,
0013
1000
0010
1000
0020
0000
0031
0000
,
0100
1000
0010
0001
,
1000
0001
1000
0001
2000
0000
3001
0000
,
0001
0001
0001
0000
0200
0000
0302
0000
,
0103
0010
1000
0010
0200
0000
0310
0000
,
0001
0010
1000
0100
,
0001
1000
0001
1000
0002
0000
1003
0000
,
0010
1000
0010
0000
0020
0000
0230
0000
,
0300
0000
0000
0000
;

//---------------dance-double - Chewi----------------
#NOTES:
     dance-double:
     Chewi:
     Hard:
     9:
     0.393,0.393,0.252,0.171,0.000:
00000000
00000000
00000000
00000000
,
00000000
00000000
00000000
00000000
,
00000000
00000000
00000000
00000000
,
00000000
00000000
00000000
00000000
,
10000000
00100000
01000000
00000000
00010000
00000000
00000000
00000000
,
00010000
00100000
01000000
00000000
00100000
00000000
00000000
00000000
,
00010000
01010000
00100000
00010000
,
00001000
00001000
00000200
00002300
,
00003001
00000010
00000001
00000000
00000010
00000000
00000000
00000000
,
00000100
00001000
00000010
00000000
00000100
00000000
00000000
00000000
,
00000010
00000110
00001000
00000001
,
00001000
00000100
00020000
02030000
,
03010000
00100000
00010000
00000000
01000000
00000000
10000000
00000000
,
10000000
00100000
10000000
00000000
01000000
00000000
00010000
00000000
,
00100000
01100000
00010000
00100000
,
00001000
00010000
00000200
00002300
,
00003100
00000001
00000100
00000000
00000001
00000100
00001000
00000000
,
00001000
00000000
00000010
00000000
00001000
00000001
00000010
00000000
,
00000100
00001001
00000010
00000100
,
00001000
00010000
00200000
00320000
,
10030000
01000000
10000000
11000000
,
00010000
00100000
00010000
01010000
,
01000000
00100000
01000000
00000000
01000000
01000000
01000000
00000000
,
00010000
00100000
00001000
00000000
00011000
00000000
00010100
00000000
,
00000100
00000000
00001000
00000000
00000010
00000001
00000100
00000000
,
00001000
00000000
00000100
00000000
00000010
00000001
00000100
00000000
,
00000010
00000000
00000100
00000000
00000010
00001000
00000100
00000000
,
00000010
00000100
00001100
01010000
,
00100000
00000000
01010000
00000000
10000000
01000000
10000000
00000000
,
00100000
00000000
10010000
00000000
00010000
00100000
10000000
00000000
,
01000000
00100000
01000000
00000000
00100000
00000000
00010000
00000000
,
01000000
00010000
00100000
00000000
00110000
00000000
00011000
00000000
,
00000010
00000000
00001010
00000000
00000010
00000100
00000001
00000000
,
00000001
00000000
00000011
00000000
00000010
00000001
00000100
00000000
,
00001000
00000100
00000001
00000000
00000100
00000000
00001000
00000000
,
00001000
00000100
00010100
00011000
,
00010000
01000000
00010000
01000000
00200000
00000000
10300000
00000000
,
01000000
00010000
00100000
01000000
,
00100000
00100000
00100000
00000000
00010000
01000000
00010000
00000000
,
00100000
00001000
00020000
00032000
,
00003010
00001000
00000100
00001000
00000010
00000000
00000200
00000000
,
00000310
00000001
00000100
00000001
,
00000001
00001000
00000100
00000000
00001000
00001000
00001000
00000000
,
00000100
00010000
00001000
00000000
00002000
00000000
00023000
00000000
,
01030000
00010000
00100000
00010000
01000000
00000000
10100000
00000000
,
01000000
10000000
00100000
10000000
01000000
00000000
00110000
00000000
,
01000000
00100000
01000000
00000000
00010000
01000000
00100000
00000000
,
01000000
00010000
00100000
00000000
00011000
00000000
00001010
00000000
,
00001000
00000100
00000010
00000001
00000020
00000000
00000130
00000000
,
00001000
00000100
00010000
00011000
,
00010000
00001000
00000100
00000000
00010000
00001000
00010000
00000000
,
00001000
00100000
00010000
00000000
00110000
00000000
00022000
00000000
,
00033000
00000000
00000000
00000000
;

//---------------dance-double - Chewi----------------
#NOTES:
     dance-double:
     Chewi:
     Medium:
     6:
     0.330,0.341,0.101,0.242,0.000: // measure 1
00000000
00000000
00000000
00000000
,  // measure 2
00000000
00000000
00000000
00000000
,  // measure 3
00000000
00000000
00000000
00000000
,  // measure 4
00000000
00000000
00000000
00000000
,  // measure 5
10000000
01000000
10010000
00000000
,  // measure 6
00010000
10000000
00100000
01000000
,  // measure 7
00010000
00001000
00011000
00000000
,  // measure 8
00001000
00000010
00000002
00000023
,  // measure 9
00000031
00000010
00000110
00000000
,  // measure 10
00000100
00001000
00000010
00000100
,  // measure 11
00000010
00001000
00010100
00000000
,  // measure 12
00010000
00001000
00020000
02030000
,  // measure 13
03100000
00100000
10000000
11000000
,  // measure 14
00100000
00100000
00010000
01010000
,  // measure 15
01000000
00010000
00001000
00000010
,  // measure 16
00000001
00000100
00002000
00003002
,  // measure 17
00001003
00000100
00001001
00000000
,  // measure 18
00000010
00000001
00000100
00000000
,  // measure 19
00001000
00000100
00000100
00000000
,  // measure 20
00000100
00010000
00002000
00203000
,  // measure 21
00310000
01000000
10000000
00100000
,  // measure 22
10000000
01000000
00010000
00100000
,  // measure 23
01000000
01000000
01000000
00000000
00100000
00000000
01000000
00000000
,  // measure 24
00100000
00100000
00100000
00000000
00020000
00000000
00032000
00000000
,  // measure 25
00003010
00000000
00000100
00000000
00000001
00001000
00000001
00000000
,  // measure 26
00001000
00000000
00000100
00000000
00000010
00000100
00000010
00000000
,  // measure 27
00000001
00001100
00000100
00010000
,  // measure 28
00001000
00011000
00020000
02030000
,  // measure 29
03100000
10000000
01000000
00010000
,  // measure 30
00100000
00010000
01000000
00000000
10000000
00000000
00100000
00000000
,  // measure 31
10000000
01000000
00010000
00100000
,  // measure 32
00001000
00010000
00000100
00000000
00002000
00000000
00003002
00000000
,  // measure 33
00001003
00000000
00000010
00000000
00000001
00000010
00001000
00000000
,  // measure 34
00000100
00000000
00001000
00000000
00000100
00000001
00000100
00000000
,  // measure 35
00001000
00000100
00010000
00001000
,  // measure 36
00011000
00000000
00020000
20030000
,  // measure 37
30100000
01000000
00010000
00000000
01000000
00000000
00000000
00000000
,  // measure 38
10000000
01000000
00100000
00010000
,  // measure 39
00001000
00000100
00000001
00000010
,  // measure 40
00000001
00000100
00000020
00000230
,  // measure 41
00000301
00001000
00000100
00000000
00001000
00000000
00000000
00000000
,  // measure 42
00000001
00000010
00000100
00001000
,  // measure 43
00010000
00100000
10000000
01000000
,  // measure 44
00010000
01000000
00200000
02300000
,  // measure 45
03100000
10000000
01000000
00000000
10000000
00000000
10000000
00000000
,  // measure 46
01000000
00100000
00010000
01000000
,  // measure 47
00010000
00100000
00001000
00000000
00010000
00000000
00000100
00000000
,  // measure 48
00001000
00000010
00000200
00000320
,  // measure 49
00001030
00000001
00000010
00000000
00000100
00000000
00000010
00000000
,  // measure 50
00000001
00000100
00000010
00001000
,  // measure 51
00000100
00010000
00100000
10000000
,  // measure 52
01000000
00100000
00020000
00230000
,  // measure 53
00300000
00000000
00000000
00000000
;

//---------------dance-double - Chewi----------------
#NOTES:
     dance-double:
     Chewi:
     Easy:
     4:
     0.239,0.262,0.030,0.141,0.000: // measure 1
00000000
00000000
00000000
00000000
,  // measure 2
00000000
00000000
00000000
00000000
,  // measure 3
00000000
00000000
00000000
00000000
,  // measure 4
00000000
00000000
00000000
00000000
,  // measure 5
10000000
01000000
00010000
00000000
,  // measure 6
00100000
00010000
01000000
00000000
,  // measure 7
01000000
00010000
00001000
00000000
,  // measure 8
00000010
00000001
00000200
00000000
,  // measure 9
00000310
00001000
00000001
00000000
,  // measure 10
00001000
00000100
00010000
00000000
,  // measure 11
00001000
00010000
00001000
00000000
,  // measure 12
00010000
01000000
20000000
00000000
,  // measure 13
30100000
00100000
00100000
00100000
,  // measure 14
01000000
01000000
01000000
01000000
,  // measure 15
00010000
00010000
00010000
00010000
,  // measure 16
00100000
00100000
00200000
00000000
,  // measure 17
00310000
00010000
00010000
00010000
,  // measure 18
00001000
00001000
00001000
00001000
,  // measure 19
00000010
00000010
00000010
00000010
,  // measure 20
00000100
00000100
00000200
00000000
,  // measure 21
00000301
00000100
00000010
00000000
,  // measure 22
00001000
00000100
00001000
00000000
,  // measure 23
00000100
00001000
00010000
00000000
,  // measure 24
00010000
01000000
00200000
00000000
,  // measure 25
10300000
01000000
10000000
00000000
,  // measure 26
01000000
00100000
00010000
00000000
,  // measure 27
00100000
00001000
00010000
00000000
,  // measure 28
00000100
00001000
00000020
00000000
,  // measure 29
00000130
00000100
00000010
00000010
,  // measure 30
00001000
00000001
00001000
00000001
,  // measure 31
00001001
00000000
00000000
00000000
,  // measure 32
00001000
00000000
00020000
00000000
,  // measure 33
01030000
00100000
01000000
00100000
,  // measure 34
10000000
00010000
10000000
00010000
,  // measure 35
10010000
00000000
00000000
00000000
,  // measure 36
01100000
00000000
00020000
00000000
,  // measure 37
00031000
00001000
00000010
00000000
,  // measure 38
00000001
00000001
00000100
00000000
,  // measure 39
00000010
00000010
00001000
00001000
,  // measure 40
00000100
00000100
00002000
00000000
,  // measure 41
00013000
01000000
10000000
00000000
,  // measure 42
10000000
00100000
00010000
00000000
,  // measure 43
00100000
00100000
01000000
00000000
,  // measure 44
01000000
01000000
02000000
00000000
,  // measure 45
03100000
00010000
00001000
00000000
,  // measure 46
00000100
00001000
00000001
00000000
,  // measure 47
00000100
00000010
00001000
00000000
,  // measure 48
00000010
00000010
00000020
00000000
,  // measure 49
00000130
00000010
00001000
00000100
,  // measure 50
00000001
00000100
00001000
00000010
,  // measure 51
00000200
00000000
00000000
00000300
,  // measure 52
00000020
00000000
00001000
00002000
,  // measure 53
00003030
00000000
00000000
00000000
;
