#TITLE:Acapella;
#SUBTITLE:;
#ARTIST:Kelis;
#TITLETRANSLIT:;
#SUBTITLETRANSLIT:;
#ARTISTTRANSLIT:;
#GENRE:;
#CREDIT:Chewphoria~;
#MENUCOLOR:;
#METERTYPE:DDR;
#BANNER:Acapella.png;
#BACKGROUND:Acapella-bg.png;
#LYRICSPATH:;
#CDTITLE:;
#MUSIC:Acapella.MP3;
#OFFSET:-7.919;
#SAMPLESTART:44.477;
#SAMPLELENGTH:15.000;
#SELECTABLE:YES;
#LISTSORT:;
#BPMS:0.000=128.040;
#STOPS:;
#BGCHANGES:-19.838=Acapella.avi=1.000=1=0=0,
188.000=black.png=1.000=1=0=1,
99999=-nosongbg-=1.000=0=0=0 // don't automatically add -songbackground-
;
#ATTACKS:;

//---------------dance-single - Chewphoria~----------------
#NOTES:
     dance-single:
     Chewphoria~:
     Beginner:
     2:
     0.119,0.182,0.010,0.000,0.000: // measure 1
1000
0000
0000
0000
,  // measure 2
0001
0000
0000
0000
,  // measure 3
1000
0000
0000
0000
,  // measure 4
0001
0000
0000
0000
,  // measure 5
0001
0000
0010
0000
,  // measure 6
0000
0000
0000
0000
,  // measure 7
1000
0000
0010
0000
,  // measure 8
0000
0000
0000
0000
,  // measure 9
0001
0000
0100
0000
,  // measure 10
0000
0000
0000
0000
,  // measure 11
1000
0000
0010
0000
,  // measure 12
0000
0000
0000
0000
,  // measure 13
0001
0000
0010
0000
,  // measure 14
0000
0000
0000
0000
,  // measure 15
1000
0000
0100
0000
,  // measure 16
0000
0000
0000
0000
,  // measure 17
0010
0010
0000
0000
,  // measure 18
0001
0000
0000
0000
,  // measure 19
0010
0010
0000
0000
,  // measure 20
1000
0000
0000
0000
,  // measure 21
0001
0000
1000
0000
,  // measure 22
0001
0000
1000
0000
,  // measure 23
0001
0000
0000
0000
,  // measure 24
0000
0000
0000
0000
,  // measure 25
0010
0000
0100
0000
,  // measure 26
0010
0000
0100
0000
,  // measure 27
0010
0000
0000
0000
,  // measure 28
0000
0000
0000
0000
,  // measure 29
0010
0010
0010
0000
,  // measure 30
1000
1000
1000
0000
,  // measure 31
0010
0010
0010
0000
,  // measure 32
1000
1000
1000
0000
,  // measure 33
0010
0010
0010
0000
,  // measure 34
0001
0001
0001
0000
,  // measure 35
0010
0010
0010
0000
,  // measure 36
0001
0001
0001
0000
,  // measure 37
0001
0000
0001
0000
,  // measure 38
0001
0000
0001
0000
,  // measure 39
1000
0000
1000
0000
,  // measure 40
1000
0000
1000
0000
,  // measure 41
0100
0100
0100
0000
,  // measure 42
0001
0001
0001
0000
,  // measure 43
0100
0100
0100
0000
,  // measure 44
0001
0001
0001
0000
,  // measure 45
0100
0100
0100
0000
,  // measure 46
1000
1000
1000
0000
,  // measure 47
1001
0000
0000
0000
;

//---------------dance-single - Chewphoria~----------------
#NOTES:
     dance-single:
     Chewphoria~:
     Easy:
     4:
     0.185,0.209,0.020,0.069,0.000: // measure 1
1000
0000
0100
0000
,  // measure 2
0001
0000
0100
0000
,  // measure 3
1000
0100
0010
0001
,  // measure 4
0000
0000
0000
0000
,  // measure 5
0001
0000
0010
0000
,  // measure 6
1000
0000
0010
0000
,  // measure 7
0001
0010
0100
1000
,  // measure 8
0000
0000
0000
0000
,  // measure 9
1000
0100
0010
1000
,  // measure 10
0000
1000
0000
1000
,  // measure 11
1000
0100
0001
0010
,  // measure 12
0000
0010
0000
0010
,  // measure 13
1000
0100
0010
1000
,  // measure 14
0100
0000
0100
0000
,  // measure 15
0100
0001
0010
0100
,  // measure 16
0001
0000
0001
0000
,  // measure 17
2000
0000
3100
0000
,  // measure 18
0002
0000
0103
0000
,  // measure 19
0020
0000
1030
0000
,  // measure 20
0020
0000
0031
0000
,  // measure 21
0001
0100
0010
1000
,  // measure 22
1000
0000
0100
0000
,  // measure 23
1000
0000
0100
0000
,  // measure 24
0001
0000
0100
0000
,  // measure 25
0001
0100
0010
1000
,  // measure 26
0100
0010
0001
0000
,  // measure 27
0010
0000
0010
0000
,  // measure 28
0100
0000
0100
0010
,  // measure 29
0001
1000
0100
0100
,  // measure 30
0000
0001
0000
0100
,  // measure 31
0000
0001
0000
0010
,  // measure 32
0000
0001
0000
0010
,  // measure 33
0001
1000
0100
0001
,  // measure 34
1000
0010
0000
1000
,  // measure 35
0000
1000
0000
0001
,  // measure 36
0000
0001
0000
0010
,  // measure 37
1000
0100
1000
0100
,  // measure 38
1000
0100
1000
0000
,  // measure 39
0001
0010
0001
0010
,  // measure 40
0001
0010
0001
0000
,  // measure 41
0110
0100
0100
0000
,  // measure 42
1000
0001
1000
0000
,  // measure 43
0110
0010
0010
0000
,  // measure 44
0001
1000
0001
0000
,  // measure 45
2000
0000
3100
0000
,  // measure 46
0200
0000
0301
0000
,  // measure 47
0002
0000
0000
0000
,  // measure 48
0003
0000
0000
0000
;

//---------------dance-double - Chewphoria~----------------
#NOTES:
     dance-double:
     Chewphoria~:
     Easy:
     3:
     0.187,0.209,0.020,0.069,0.000:
00010000
00000000
00001000
00000000
,
00010000
00000000
00001000
00000000
,
00010000
00001000
00000010
00000001
,
00000000
00000000
00000000
00000000
,
00000001
00000000
00000100
00000000
,
00001000
00000000
00000100
00000000
,
00000100
00010000
00001000
00100000
,
00000000
00000000
00000000
00000000
,
00100000
10000000
01000000
00100000
,
00000000
00100000
00000000
00100000
,
00100000
10000000
01000000
00010000
,
00010000
00000000
00010000
00000000
,
00010000
00100000
10000000
01000000
,
00100000
00000000
00100000
00000000
,
00100000
00010000
00001000
00010000
,
00001000
00000000
00001000
00000000
,
00002000
00000000
00003010
00000000
,
00000002
00000000
00000103
00000000
,
00002000
00000000
00003100
00000000
,
00000002
00000000
00000103
00000000
,
00000010
00001000
00000100
00010000
,
00010000
00000000
00001000
00000000
,
00010000
00000000
00001000
00000000
,
00010000
00000000
01000000
00000000
,
01000000
00100000
10000000
01000000
,
00100000
00010000
00100000
00000000
,
00100000
00000000
00100000
00000000
,
00010000
00000000
00010000
00001000
,
00000010
00000001
00000100
00001000
,
00000010
00000000
00001000
00000000
,
00000010
00000000
00001000
00000000
,
00000100
00000000
00010000
00000000
,
00010000
00100000
10000000
01000000
,
00010000
00100000
10000000
01000000
,
10000000
00000000
01000000
00000000
,
00100000
00000000
00010000
00000000
,
00010000
00100000
00010000
00100000
,
00010000
00100000
00010000
00000000
,
00001000
00000010
00001000
00000010
,
00001000
00000010
00001000
00000000
,
00011000
00010000
00010000
00000000
,
00010000
00001000
00000010
00000000
,
00000110
00000100
00000100
00000000
,
00000100
00001000
00000100
00000000
,
00020000
00000000
00031000
00000000
,
00002000
00000000
00103000
00000000
,
02000000
00000000
00000000
00000000
,
03000000
00000000
00000000
00000000
;

//---------------dance-single - Chewphoria~----------------
#NOTES:
     dance-single:
     Chewphoria~:
     Medium:
     6:
     0.189,0.256,0.010,0.089,0.020: // measure 1
1000
0000
1000
0000
,  // measure 2
1000
0100
0001
0000
,  // measure 3
0001
0100
1000
0000
,  // measure 4
1000
0010
0001
0000
,  // measure 5
0001
0000
0001
0000
,  // measure 6
0001
0010
1000
0000
,  // measure 7
1000
0010
0001
0000
,  // measure 8
0001
0100
1000
0000
,  // measure 9
1000
0100
0010
0001
,  // measure 10
1000
0000
0000
0000
,  // measure 11
1000
0100
0001
0010
,  // measure 12
0001
0000
0000
0000
,  // measure 13
0001
0100
1000
0010
,  // measure 14
0100
0000
0000
0000
,  // measure 15
0100
0010
1000
0001
,  // measure 16
0010
0000
0000
0000
,  // measure 17
1000
0000
0100
0000
1000
0100
1000
0000
,  // measure 18
0001
0000
0100
0000
0001
0100
0001
0000
,  // measure 19
0100
0000
0010
0000
0100
0010
0100
0000
,  // measure 20
0110
0000
1000
0100
,  // measure 21
0020
0000
0000
0000
,  // measure 22
0030
0000
0001
0000
0010
0000
0100
1000
,  // measure 23
0002
0000
0000
0003
,  // measure 24
0000
0000
0000
1000
,  // measure 25
0010
0000
0100
0001
0000
0000
0100
1000
,  // measure 26
0000
0000
1000
0010
0000
0000
0001
0020
,  // measure 27
0000
0000
0000
0000
,  // measure 28
0030
0000
0010
1000
,  // measure 29
0002
0000
0000
0000
,  // measure 30
0003
0000
0100
0000
0001
0000
1000
0010
,  // measure 31
0200
0000
0000
0300
,  // measure 32
0000
0000
0000
0010
,  // measure 33
0001
0000
1000
0100
0000
0000
1000
0010
,  // measure 34
0000
0000
0010
0001
0000
0000
0100
0002
,  // measure 35
0000
0000
0000
0000
,  // measure 36
0003
0000
0000
0000
,  // measure 37
1000
0000
0000
1000
0000
0000
1000
0000
0000
0000
0000
0000
0000
0000
0000
0000
,  // measure 38
0001
0000
0000
0001
0000
0000
0001
0000
0000
0000
0000
0000
0000
0000
0000
0000
,  // measure 39
0100
0000
0000
0100
0000
0000
0100
0000
0000
0000
0000
0000
0000
0000
0000
0000
,  // measure 40
0010
0000
0000
0010
0000
0000
0010
0000
0001
0000
0000
0000
0010
0000
0000
0000
,  // measure 41
0200
0000
0000
0000
,  // measure 42
0300
0000
1000
0000
0100
0000
0010
0001
,  // measure 43
2000
0000
0000
3000
,  // measure 44
0000
0000
0000
0001
,  // measure 45
0100
0000
0010
1000
0000
0000
0010
0001
,  // measure 46
0000
0000
0001
0100
0000
0000
1000
0200
,  // measure 47
0000
0000
0000
0000
,  // measure 48
0300
0000
0000
0000
;

//---------------dance-double - Chewphoria~----------------
#NOTES:
     dance-double:
     Chewphoria~:
     Medium:
     5:
     0.189,0.256,0.010,0.089,0.020:
00010000
00000000
00010000
00000000
,
00010000
00001000
00000010
00000000
,
00001000
00000010
00000001
00000000
,
00000001
00000100
00001000
00000000
,
00001000
00000000
00001000
00000000
,
00001000
00000100
00010000
00000000
,
00010000
00001000
00100000
00000000
,
01000000
10000000
00100000
00000000
,
00100000
10000000
01000000
00100000
,
00010000
00000000
00000000
00000000
,
00010000
00100000
01000000
10000000
,
00100000
00000000
00000000
00000000
,
01000000
00010000
00001000
00000010
,
00000001
00000000
00000000
00000000
,
00000001
00000010
00000100
00001000
,
00000010
00000000
00000000
00000000
,
00001000
00000000
00000100
00000000
00001000
00000100
00001000
00000000
,
00000001
00000000
00000100
00000000
00000001
00000100
00000001
00000000
,
00000100
00000000
00000010
00000000
00000100
00000010
00000100
00000000
,
00000110
00000000
00001000
00000100
,
00020000
00000000
00000000
00000000
,
00030000
00000000
00001000
00000000
00010000
00000000
00100000
10000000
,
02000000
00000000
00000000
00000000
,
03000000
00000000
00000000
10000000
,
00100000
00000000
01000000
00010000
00000000
00000000
00010000
00001000
,
00000000
00000000
00001000
00000010
00000000
00000000
00000001
00000020
,
00000000
00000000
00000000
00000000
,
00000030
00000000
00000010
00001000
,
00000002
00000000
00000000
00000000
,
00000003
00000000
00000100
00000000
00000001
00000000
00001000
00000100
,
00020000
00000000
00000000
00000000
,
00030000
00000000
00000000
00100000
,
00010000
00000000
00100000
10000000
00000000
00000000
00100000
00010000
,
00000000
00000000
00100000
10000000
00000000
00000000
00010000
20000000
,
00000000
00000000
00000000
00000000
,
30000000
00000000
00000000
00000000
,
10000000
00000000
00000000
10000000
00000000
00000000
10000000
00000000
00000000
00000000
00000000
00000000
00000000
00000000
00000000
00000000
,
00010000
00000000
00000000
00010000
00000000
00000000
00010000
00000000
00000000
00000000
00000000
00000000
00000000
00000000
00000000
00000000
,
00001000
00000000
00000000
00001000
00000000
00000000
00001000
00000000
00000000
00000000
00000000
00000000
00000000
00000000
00000000
00000000
,
00010000
00000000
00000000
00010000
00000000
00000000
00010000
00000000
00001000
00000000
00000000
00000000
00000010
00000000
00000000
00000000
,
00000200
00000000
00000000
00000000
,
00000300
00000000
00000010
00000000
00001000
00000000
00000001
00000010
,
00000200
00000000
00000000
00000000
,
00000300
00000000
00000000
00000100
,
00001000
00000000
00000100
00010000
00000000
00000000
00001000
00010000
,
00000000
00000000
00010000
00100000
00000000
00000000
00100000
20000000
,
00000000
00000000
00000000
00000000
,
30000000
00000000
00000000
00000000
;

//---------------dance-double - Chewphoria~----------------
#NOTES:
     dance-double:
     Chewphoria~:
     Hard:
     8:
     0.314,0.395,0.059,0.188,0.168:
00010000
00000000
00000000
00001000
00000000
00000000
00010000
00000000
00001000
00000000
00000000
00000010
00000000
00000000
00001000
00000000
,
00000001
00000000
00000000
00000100
00000000
00000000
00000010
00000000
00001000
00000000
00000000
00000001
00000000
00000000
00000010
00000000
,
00000020
00000000
00000000
00000002
00000000
00000000
00000000
00000000
00000000
00000000
00000000
00000000
00000000
00000000
00000000
00000000
,
00000033
00000000
00000000
00000000
00000000
00000000
00000001
00000010
,
00000100
00000000
00000000
00001000
00000000
00000000
00000010
00000000
00000100
00000000
00000000
00000001
00000000
00000000
00000100
00000000
,
00000010
00000000
00000000
00001000
00000000
00000000
00000100
00000000
00010000
00000000
00000000
00001000
00000000
00000000
00200000
00000000
,
00020000
00000000
00000000
00000000
,
00330000
00000000
00000000
00000000
00000000
00000000
00000000
00010000
,
00100000
00000000
00000000
01000000
00000000
00000000
10000000
00000000
00100000
00000000
00000000
01000000
00000000
00000000
00010000
00000000
,
01000000
00000000
00000000
00100000
00000000
00000000
01000000
00000000
00010000
00000000
00000000
00100000
00000000
00000000
00001000
00000000
,
00020000
00000000
00000000
00002000
00000000
00000000
00000000
00000000
00000000
00000000
00000000
00000000
00000000
00000000
00000000
00000000
,
00033000
00000000
00000000
00000000
00000000
00000000
00001000
00000010
,
00000100
00000000
00000000
00000100
00000000
00000000
00000001
00000000
00000010
00000000
00000000
00000100
00000000
00000000
00000100
00000000
,
00001000
00000000
00000000
00000100
00000000
00000000
00010000
00000000
00001000
00000000
00000000
00100000
00000000
00000000
00010000
00000000
,
00200000
00010000
00010000
00310000
,
00020000
01000000
01000000
01030000
,
01000000
00000000
00000000
01000000
00000000
00000000
01000000
00000000
00100000
00000000
00000000
00100000
00000000
00000000
00100000
00000000
,
10000000
00000000
00000000
10000000
00000000
00000000
10000000
00000000
00010000
00000000
00000000
00010000
00000000
00000000
00010000
00000000
,
00100000
00000000
00000000
00100000
00000000
00000000
00100000
00000000
00001000
00000000
00000000
00001000
00000000
00000000
00002000
00000000
,
00020000
00000000
00000000
00033000
00010000
00000000
00001000
00000000
,
00000010
00001000
00000001
00000000
00000100
00000000
00000001
00000000
,
00000100
00000000
00000000
00000000
00000001
00000000
00000010
00000000
00000100
00000000
00001000
00000000
00000100
00000000
00001000
00000100
,
00000000
00000200
00000000
00000000
00000000
00000000
00000000
00000000
00000000
00000000
00000000
00000000
00000000
00000000
00000000
00000000
,
00000300
00000000
00000000
00000000
00000000
00000000
00000100
00001000
,
00000010
00000000
00000010
00001000
00000000
00000000
00000100
00010000
,
00000000
00000000
00010000
00001000
00000000
00000000
00002000
00020000
,
00000000
00000000
00000000
00000000
,
00033000
00000000
00001000
00010000
,
00100000
00000000
01000000
10000000
00010000
00000000
01000000
00000000
,
00100000
00000000
00000000
00000000
10000000
00000000
00100000
00000000
01000000
00000000
00010000
00000000
10000000
00000000
01000000
00010000
,
00000000
00020000
00000000
00000000
00000000
00000000
00000000
00000000
00000000
00000000
00000000
00000000
00000000
00000000
00000000
00000000
,
00000000
00000000
00030000
00000000
00000000
00000000
00010000
00001000
,
00000010
00000000
00001000
00001010
00000000
00000000
00000001
00000011
,
00000000
00000000
00000100
00001100
00000000
00000000
00000010
00002000
,
00000002
00000000
00000000
00000000
,
00000000
00000000
00003003
00000000
,
00000100
00000000
00000010
00000100
00000010
00000000
00001000
00000000
00000100
00000000
00010000
00000100
00010000
00000000
00010000
00000000
,
00001000
00100000
01000000
10000000
01000000
00000000
00000000
00000000
,
10000000
00000000
00100000
10000000
00100000
00000000
01000000
00000000
00010000
00000000
01000000
00010000
01000000
00000000
00010000
00000000
,
00100000
00001000
00010000
00000100
00001000
00000000
00000010
00000000
,
00000100
00000000
00000100
00000001
00000010
00000000
00000100
00000000
,
00001000
00000000
00000000
00000000
00000100
00000000
00001000
00000000
00000010
00000000
00001000
00000000
00000100
00000000
00010000
00001000
,
00000000
00002000
00000000
00000000
00000000
00000000
00000000
00000000
00000000
00000000
00000000
00000000
00000000
00000000
00000000
00000000
,
00003000
00000000
00000000
00000000
00000000
00000000
00001000
00001000
,
00010000
00000000
10000000
10100000
00000000
00000000
00010000
00110000
,
00000000
00000000
10000000
11000000
00000000
00000000
00010000
00200000
,
00020000
00000000
00000000
00000000
,
00330000
00000000
00000000
00000000
;

//---------------dance-single - Chewphoria~----------------
#NOTES:
     dance-single:
     Chewphoria~:
     Hard:
     10:
     0.324,0.395,0.089,0.168,0.158: // measure 1
1000
0000
0000
0100
0000
0000
0010
0000
0001
0000
0000
0010
0000
0000
0100
0000
,  // measure 2
1000
0000
0000
0010
0000
0000
0100
0000
0001
0000
0000
0100
0000
0000
0010
0000
,  // measure 3
2000
0000
0000
0002
0000
0000
0000
0000
0000
0000
0000
0000
0000
0000
0000
0000
,  // measure 4
3003
0000
0000
0000
0000
0000
0001
0010
,  // measure 5
0100
0000
0000
1000
0000
0000
0010
0000
0100
0000
0000
0001
0000
0000
0100
0000
,  // measure 6
0010
0000
0000
1000
0000
0000
0001
0000
0010
0000
0000
0100
0000
0000
2000
0000
,  // measure 7
0200
0000
0000
0000
,  // measure 8
3300
0000
0000
0000
0000
0000
0000
0010
,  // measure 9
1000
0000
0000
0100
0000
0000
0001
0000
0100
0000
0000
1000
0000
0000
0010
0000
,  // measure 10
0001
0000
0000
0010
0000
0000
1000
0000
0010
0000
0000
0001
0000
0000
0010
0000
,  // measure 11
0200
0000
0000
0020
0000
0000
0000
0000
0000
0000
0000
0000
0000
0000
0000
0000
,  // measure 12
0330
0000
0000
0000
0000
0000
0010
1000
,  // measure 13
0100
0000
0000
0100
0000
0000
0100
0000
1000
0000
0000
0000
0010
0000
0000
0000
,  // measure 14
0100
0000
0000
0100
0000
0000
0100
0000
0001
0000
0000
0000
0010
0000
0000
0000
,  // measure 15
0100
0010
0001
0000
0100
0010
1000
0000
,  // measure 16
0001
0010
1000
0100
0001
0100
0010
0000
,  // measure 17
0010
0000
0000
0010
0000
0000
0010
0000
0100
0000
0000
0100
0000
0000
0100
0000
,  // measure 18
0001
0000
0000
0001
0000
0000
0001
0000
1000
0000
0000
1000
0000
0000
1000
0000
,  // measure 19
0100
0000
0000
0100
0000
0000
0100
0000
0010
0000
0000
0010
0000
0000
0020
0000
,  // measure 20
0002
0000
0000
0033
1000
0000
0100
0000
,  // measure 21
0001
1000
0010
0000
1000
0000
0010
0000
,  // measure 22
1000
0000
0000
0000
0010
0000
1000
0000
0100
0000
0010
0000
0001
0000
0010
0001
,  // measure 23
0000
0002
0000
0000
0000
0000
0000
0000
0000
0000
0000
0000
0000
0000
0000
0000
,  // measure 24
0003
0000
0000
0000
0000
0000
0001
0010
,  // measure 25
0100
0000
0100
1100
0000
0000
0100
0101
,  // measure 26
0000
0000
0100
0110
0000
0000
0010
2000
,  // measure 27
0002
0000
0000
0000
,  // measure 28
3003
0000
0001
0010
,  // measure 29
1000
0001
0100
0000
0001
0000
0100
0000
,  // measure 30
0001
0000
0000
0000
0100
0000
0001
0000
0010
0000
0100
0000
1000
0000
0100
1000
,  // measure 31
0000
2000
0000
0000
0000
0000
0000
0000
0000
0000
0000
0000
0000
0000
0000
0000
,  // measure 32
3000
0000
0000
0000
0000
0000
1000
0100
,  // measure 33
0010
0000
0010
0011
0000
0000
0010
1010
,  // measure 34
0000
0000
0010
0110
0000
0000
0100
0002
,  // measure 35
2000
0000
0000
0000
,  // measure 36
3003
0000
0000
0000
0000
0000
1000
0010
,  // measure 37
0100
0000
0001
0100
0001
0000
0100
0000
0010
0000
1000
0010
1000
0000
0100
0000
,  // measure 38
0010
0001
0010
0100
1000
0000
0000
0000
,  // measure 39
0001
0000
0010
0100
0010
0000
0100
0000
1000
0000
0010
1000
0010
0000
1000
0000
,  // measure 40
0010
0100
0001
0100
0010
0000
1000
0000
,  // measure 41
0100
0010
0001
0000
0010
0000
0001
0000
,  // measure 42
0010
0000
0000
0000
0001
0000
0010
0000
1000
0000
0001
0000
0100
0000
0001
0100
,  // measure 43
0000
0200
0000
0000
0000
0000
0000
0000
0000
0000
0000
0000
0000
0000
0000
0000
,  // measure 44
0300
0000
0000
0000
0000
0000
0100
0001
,  // measure 45
1000
0000
1000
1010
0000
0000
1000
1100
,  // measure 46
0000
0000
1000
1001
0000
0000
0001
0020
,  // measure 47
0200
0000
0000
0000
,  // measure 48
0330
0000
0000
0000
;
