#TITLE:Abracadabra;
#SUBTITLE:;
#ARTIST:Brown Eyed Girls;
#TITLETRANSLIT:;
#SUBTITLETRANSLIT:;
#ARTISTTRANSLIT:;
#GENRE:Pop;
#CREDIT:chewi;
#BANNER:Abracadabra.png;
#BACKGROUND:Abracadabra-bg.png;
#LYRICSPATH:;
#CDTITLE:cdtitle.png;
#MUSIC:Abracadabra.ogg;
#OFFSET:-0.109000;
#SAMPLESTART:37.605000;
#SAMPLELENGTH:15.000000;
#SELECTABLE:YES;
#DISPLAYBPM:128.000000;
#BPMS:0.000000=128.000000
;
#STOPS:
;
#BGCHANGES:-0.200=Abracadabra.avi=1.000=1=0=0=StretchNoLoop==CrossFade==,
271.000=Abracadabra-bg.png=1.000=1=0=1===CrossFade==,
99999=-nosongbg-=1.000=0=0=0 // don't automatically add -songbackground-
;
#KEYSOUNDS:;
#ATTACKS:;

//---------------dance-single - ----------------
#NOTES:
     dance-single:
     :
     Beginner:
     1:
     0.083249,0.131603,0.000000,0.093239,0.000000,75.000000,75.000000,0.000000,12.000000,0.000000,0.000000,0.083249,0.131603,0.000000,0.093239,0.000000,75.000000,75.000000,0.000000,12.000000,0.000000,0.000000:
0000
0000
0000
0000
,
0000
0000
0000
0000
,
0000
0000
0000
0000
,
0000
0000
0000
0000
,
1000
0000
0000
0000
,
1000
0000
0000
0000
,
0001
0000
0000
0000
,
0001
0000
0000
0000
,
0100
0000
0000
0000
,
0100
0000
0000
0000
,
0010
0000
0000
0000
,
0010
0000
0000
0000
,
2000
0000
0000
3000
,
1000
0000
0000
0000
,
0001
0000
0001
0000
,
1000
0000
1000
0000
,
0002
0000
0000
0003
,
0001
0000
0000
0000
,
0001
0000
0001
0000
,
1000
0000
1000
0000
,
0020
0000
0000
0030
,
0020
0000
0000
0030
,
0010
0000
0010
0000
,
0100
0000
0100
0000
,
0200
0000
0000
0300
,
0200
0000
0000
0300
,
0010
0000
0010
0000
,
1000
0000
0000
0000
,
1000
0000
0000
0000
,
0001
0000
0000
0000
,
1000
0000
0000
0000
,
0001
0000
0000
0000
,
0010
0000
0000
0000
,
0100
0000
0000
0000
,
0010
0000
0000
0000
,
0100
0000
0000
0000
,
2000
0000
0000
0000
,
0000
0000
0000
3000
,
0002
0000
0000
0000
,
0000
0000
0000
0003
,
0001
0000
0000
0000
,
0100
0000
0000
0000
,
0010
0000
0000
0000
,
1000
0000
0000
0000
,
1000
0000
0000
0000
,
1000
0000
0000
0000
,
0001
0000
0000
0000
,
0001
0000
0000
0000
,
0100
0000
0000
0000
,
0100
0000
0000
0000
,
0010
0000
0000
0000
,
0010
0000
0000
0000
,
0020
0000
0000
0030
,
0020
0000
0000
0030
,
0010
0000
0010
0000
,
0100
0000
0100
0000
,
0200
0000
0000
0300
,
0200
0000
0000
0300
,
0010
0000
0010
0000
,
1000
0000
0000
0000
,
1000
0000
0000
0000
,
0001
0000
0000
0000
,
1000
0000
0000
0000
,
0001
0000
0001
0000
,
0001
0000
0000
0000
,
0001
0000
0000
0000
,
1000
0000
0000
0000
,
0001
0000
0001
0001
;

//---------------dance-single - ----------------
#NOTES:
     dance-single:
     :
     Hard:
     12:
     0.507267,0.605376,0.396267,0.108779,0.147629,457.000000,406.000000,51.000000,14.000000,0.000000,0.000000,0.507267,0.605376,0.396267,0.108779,0.147629,457.000000,406.000000,51.000000,14.000000,0.000000,0.000000:
// measure 0
0000
0000
0000
0000
,  // measure 1
0000
0000
0000
0000
,  // measure 2
0000
0000
0000
0000
,  // measure 3
0000
0000
0000
0000
,  // measure 4
0000
1000
0100
0010
0100
1000
0001
0010
,  // measure 5
0100
0010
0100
0010
0100
0000
1000
0001
0010
0000
0001
0000
0100
0000
0010
0000
,  // measure 6
1000
0000
0100
1000
0000
0000
0100
0000
1000
0000
0010
0000
0100
0000
0001
0000
,  // measure 7
0010
0100
1000
0001
0010
0100
0010
0001
,  // measure 8
0000
0100
0010
1000
0001
1000
0010
0100
,  // measure 9
0001
1000
0100
0010
0100
1000
0001
0010
,  // measure 10
0100
1000
0000
0001
0000
0000
1000
0000
0010
0000
0100
0000
0001
0000
1000
0000
,  // measure 11
0001
0000
0000
1000
0000
0001
1000
0000
,  // measure 12
1002
0023
0230
2300
,  // measure 13
3001
0000
0000
0001
0000
0000
1000
0000
0000
0000
0001
0000
1000
0000
0000
0000
,  // measure 14
0010
1001
0010
1001
,  // measure 15
0100
0000
1001
0000
0100
0100
1001
0000
,  // measure 16
2001
3200
0320
0230
,  // measure 17
1300
0000
0000
1000
0000
0000
0001
0000
0000
0000
1000
0000
0001
0000
0000
0000
,  // measure 18
0010
1001
0010
1001
,  // measure 19
0100
0000
1001
0000
0100
0100
1001
0000
,  // measure 20
1010
0101
0011
1100
,  // measure 21
0001
0010
0100
0010
0002
0000
2003
0000
,  // measure 22
3001
0100
0001
0010
0001
0100
1000
0000
,  // measure 23
1000
0100
1000
0010
1000
0100
0001
0000
,  // measure 24
0101
1100
1001
0110
,  // measure 25
1000
0001
0100
0010
1000
0000
1000
0010
,  // measure 26
0000
1000
1010
1000
0000
0001
0101
0001
,  // measure 27
0000
0100
0001
0100
0010
1000
0001
0010
,  // measure 28
0100
0000
0010
0100
0000
0010
0100
0000
0000
0000
1000
0000
0001
0000
1000
0000
,  // measure 29
0001
0000
0100
0001
0000
0100
0001
0000
0000
0000
0100
0000
0010
0000
1000
0000
,  // measure 30
0010
0000
1000
0001
0000
1000
0001
0000
0000
0000
1000
0000
0100
0000
0010
0000
,  // measure 31
0001
0000
0010
0001
0000
0010
0001
0000
0000
0000
0010
0000
0000
0010
0000
0000
,  // measure 32
0100
1000
0100
0000
0010
0000
0100
0010
0000
0100
0010
0000
0011
0000
0000
0000
,  // measure 33
0001
0000
0100
0000
0010
0000
0100
0000
0001
1000
0001
0000
1000
0000
0001
0100
,  // measure 34
0001
0100
0001
0100
0001
0000
1000
0100
0000
1000
0100
0000
1100
0000
0000
0000
,  // measure 35
1001
1000
0001
0100
,  // measure 36
0100
0000
0000
0100
0000
0000
0100
0000
0010
0000
0000
0010
0000
0000
0010
0000
,  // measure 37
1000
0000
0000
0100
0000
0000
0001
0000
0100
0000
0000
0000
0000
0000
0000
0000
,  // measure 38
1000
0000
0000
1000
0000
0000
1000
0000
0001
0000
0000
0001
0000
0000
0001
0000
,  // measure 39
0010
0000
0000
1000
0000
0000
0010
0000
0001
0000
0000
0000
0000
0000
0000
0000
,  // measure 40
1001
1000
0100
0010
0010
0100
1000
0000
,  // measure 41
1001
0001
0010
0100
0100
0010
0001
0000
,  // measure 42
0001
0001
0101
0000
1000
1000
1100
0000
,  // measure 43
2002
0000
0000
3003
,  // measure 44
0011
0000
0000
0110
0000
0100
1000
0000
,  // measure 45
1100
0000
0000
0110
0000
0010
0001
0010
,  // measure 46
1001
0000
0000
0110
0000
0100
0010
0000
,  // measure 47
0110
0000
0000
1001
0000
1000
0001
1000
,  // measure 48
1001
0010
0100
1000
0100
0100
0100
0000
,  // measure 49
0110
0100
1000
0001
0100
0100
0100
0000
,  // measure 50
0110
1000
0001
0010
0010
1000
0001
0000
,  // measure 51
1001
0001
1000
0100
0100
0001
1000
0000
,  // measure 52
0101
1010
1100
0011
,  // measure 53
1000
0100
0010
0100
2000
0000
3002
0000
,  // measure 54
1003
0010
1000
0100
1000
0010
0001
0000
,  // measure 55
0001
0010
0001
0100
0001
0010
1000
0000
,  // measure 56
1010
0011
1001
0110
,  // measure 57
0001
1000
0010
0100
0001
0000
0001
0100
,  // measure 58
0000
0001
0101
0001
0000
1000
1010
1000
,  // measure 59
0000
0010
1000
0010
0100
0001
1000
0100
,  // measure 60
0010
0001
0010
0100
0010
0001
1000
0100
,  // measure 61
0010
0100
0010
0100
0010
0000
0001
1000
0100
0000
1000
0000
0010
0000
0100
0000
,  // measure 62
0001
0000
0010
0001
0000
0000
0010
0000
0001
0000
0100
0000
0010
0000
1000
0000
,  // measure 63
0100
0010
0001
1000
0100
0010
0100
1000
,  // measure 64
0000
0010
0100
0001
1000
0001
0100
0010
,  // measure 65
1000
0001
0010
0100
0010
0001
1000
0100
,  // measure 66
0010
0001
0000
1000
0000
0000
0001
0000
0100
0000
0010
0000
1000
0000
0001
0000
,  // measure 67
1000
0000
0000
0001
0000
1000
1001
0000
;

//---------------dance-single - ----------------
#NOTES:
     dance-single:
     :
     Easy:
     4:
     0.158729,0.184245,0.031080,0.139859,0.000000,143.000000,139.000000,4.000000,18.000000,0.000000,0.000000,0.158729,0.184245,0.031080,0.139859,0.000000,143.000000,139.000000,4.000000,18.000000,0.000000,0.000000:
0000
0000
0000
0000
,
0000
0000
0000
0000
,
0000
0000
0000
0000
,
0000
0000
0000
0000
,
1000
0000
0001
0000
,
1000
1000
1000
0000
,
0001
0000
1000
0000
,
0001
0001
0001
0000
,
0100
0000
0010
0000
,
0100
0100
0100
0000
,
0010
0000
0100
0000
,
0010
0010
0010
0000
,
2000
0000
0000
3000
,
0002
0000
0000
0003
,
1000
0001
1000
0000
,
0001
1000
0001
0000
,
0200
0000
0000
0300
,
0020
0000
0000
0030
,
0100
0010
0100
0000
,
0010
0100
0010
0000
,
0010
0000
1000
0000
,
0100
0000
0001
0000
,
0010
0010
0010
0000
,
0001
0001
0001
0000
,
0010
0000
0001
0000
,
0100
0000
1000
0000
,
0010
0010
0010
0000
,
1000
1000
1000
0000
,
1000
0000
1000
0000
,
2000
3000
1000
0000
,
0001
0000
0001
0000
,
0002
0003
0001
0000
,
0010
0000
0010
0000
,
0020
0030
0010
0000
,
0100
0000
0100
0000
,
0200
0300
0100
0000
,
2002
0000
0000
0000
,
0000
0000
0000
3003
,
0220
0000
0000
0000
,
0000
0000
0000
0330
,
0001
1000
0000
0001
,
0000
1000
0000
1000
,
1000
0001
0000
1000
,
0000
0001
0000
0001
,
0010
0000
1000
0000
,
0010
0000
0001
0000
,
0010
0000
1000
0000
,
0010
0000
0001
0000
,
0100
0000
1000
0000
,
0100
0000
0001
0000
,
0100
0000
1000
0000
,
0100
0000
0001
0000
,
2002
0000
0000
3003
,
0220
0000
0000
0330
,
0100
0100
0200
0300
,
0010
0010
0020
0030
,
0010
0000
1000
0000
,
0100
0000
0001
0000
,
0010
0010
0010
0000
,
0001
0001
0001
0000
,
1000
0000
0001
0000
,
1000
1000
1000
0000
,
0001
0000
1000
0000
,
0001
0001
0001
0000
,
0100
0000
0010
0000
,
0100
0100
0100
0000
,
0010
0000
0100
0000
,
0010
0010
0010
0010
;

//---------------dance-single - ----------------
#NOTES:
     dance-single:
     :
     Medium:
     7:
     0.283048,0.289528,0.046620,0.170939,0.007770,255.000000,249.000000,6.000000,22.000000,0.000000,0.000000,0.283048,0.289528,0.046620,0.170939,0.007770,255.000000,249.000000,6.000000,22.000000,0.000000,0.000000:
0000
0000
0000
0000
,
0000
0000
0000
0000
,
0000
0000
0000
0000
,
0000
0000
0000
0000
,
2000
0000
3100
0000
1000
0100
1000
0000
,
0100
0100
0010
0010
,
0002
0000
0013
0000
0001
0010
0001
0000
,
0010
0010
0100
0100
,
2000
0000
3001
0000
1000
0001
1000
0000
,
0001
0001
1000
1000
,
0002
0000
1003
0000
0001
1000
0001
0000
,
1000
1000
0001
0001
,
1002
0000
0010
0000
,
1000
0000
0000
1003
0000
0001
1000
0000
,
0001
0010
0100
1000
,
0001
0010
0100
1000
,
1002
0000
0100
0000
,
0010
0000
0000
0013
0000
0010
0100
0000
,
0010
0100
1000
0001
,
0010
0100
1000
0001
,
2000
3100
2000
3100
,
0010
0100
1000
0000
0010
0100
0001
0000
,
0002
0010
0100
0013
,
0002
0010
0100
0013
,
0002
0013
0200
1300
,
0100
1000
0100
0000
1000
0000
0100
0000
,
2000
0010
0100
3010
,
2000
0010
0100
3010
,
1010
0010
0100
0100
,
0001
0001
0100
0100
,
0010
0010
1000
1000
,
0001
0001
1000
1000
,
0001
0010
0100
0010
,
0100
0010
0100
1000
,
0100
0010
0100
1000
,
0010
0100
0001
0010
,
0001
0000
0001
0000
,
0001
0000
0000
1000
0000
0000
0001
0000
1000
0000
0000
0000
0000
0000
0000
0000
,
1000
0000
1000
0000
,
1000
0000
0000
0001
0000
0000
1000
0000
0001
0000
0000
0000
0000
0000
0000
0000
,
0010
0010
0020
0130
,
0100
0100
0200
1300
,
0010
1000
0100
0001
,
0010
1000
0100
0000
,
1000
0000
0000
0100
0000
0000
1000
0000
,
0001
0000
0000
0100
0000
0000
0001
0000
,
0100
0000
0000
0010
0000
0000
0100
0000
,
0010
0000
0000
0100
0000
0000
0010
0000
,
1000
0100
0010
0001
,
1000
0100
1000
1001
,
0001
0100
0010
1000
,
0001
0100
0001
1001
,
0010
0000
0000
0010
0000
0000
0010
0000
,
0100
0000
0000
0100
0000
0000
0100
0000
,
2000
0100
0010
3100
,
2000
0100
0010
3100
,
2000
3100
0020
0031
,
0010
0001
0010
0000
0001
0000
0010
0000
,
0002
0100
0010
0103
,
0002
0100
0010
0103
,
0101
0100
0010
0010
,
1000
1000
0010
0010
,
0100
0100
0001
0001
,
1000
1000
0001
0001
,
1000
0100
0010
0100
,
0010
0100
0010
0001
,
0010
0100
0010
0001
,
0100
0000
0000
0010
0000
1000
0001
0000
;
