#TITLE:About a Girl;
#SUBTITLE:;
#ARTIST:Sugababes;
#TITLETRANSLIT:;
#SUBTITLETRANSLIT:;
#ARTISTTRANSLIT:;
#CREDIT:Chewi☆;
#BANNER:About a Girl.png;
#BACKGROUND:About a Girl-bg.png;
#LYRICSPATH:;
#CDTITLE:;
#MUSIC:About a Girl.mp3;
#OFFSET:-0.525;
#SAMPLESTART:29.330;
#SAMPLELENGTH:15.000;
#SELECTABLE:YES;
#DISPLAYBPM:127.000;
#BPMS:0.000=127.000;
#STOPS:;
#BGCHANGES:;

//---------------dance-single - Chewi----------------
#NOTES:
     dance-single:
     Chewi:
     Hard:
     9:
     0.391,0.402,0.157,0.063,0.000: // measure 1
0000
0000
0000
0000
,  // measure 2
0000
0000
0000
0000
,  // measure 3
0000
0000
0000
0000
,  // measure 4
0000
0000
0000
0000
,  // measure 5
1000
0000
0001
0000
1000
0001
0010
0000
,  // measure 6
0100
0010
0100
0000
0010
0100
0010
0000
,  // measure 7
0010
0001
0100
1000
,  // measure 8
0220
0000
0000
0330
,  // measure 9
0100
0000
0010
0000
1000
0100
0010
0000
,  // measure 10
0001
1000
0100
0000
1000
0001
0100
0000
,  // measure 11
0001
0100
1000
0010
,  // measure 12
2002
0000
0000
3003
,  // measure 13
0001
0001
0001
0000
1000
0000
0100
0000
,  // measure 14
1000
1000
1000
0000
0100
0000
0010
0000
,  // measure 15
0001
1000
0010
0000
1000
0001
0100
0000
,  // measure 16
0202
0000
0000
0303
,  // measure 17
0001
0100
0001
0000
0100
1000
0100
0000
,  // measure 18
1000
0010
1000
0000
0010
0001
0010
0000
,  // measure 19
0010
0100
0010
0000
0001
1000
0001
0000
,  // measure 20
0001
0100
1000
0000
1000
0100
0001
0000
,  // measure 21
0001
0010
0100
0000
1000
0010
0100
0000
,  // measure 22
0001
0100
0001
0000
1000
0100
1000
0000
,  // measure 23
0010
0100
1000
0000
0010
0100
0001
0000
,  // measure 24
1000
0001
1000
0000
0001
1000
0001
0000
,  // measure 25
1001
0000
0101
0000
0001
1000
0010
0100
,  // measure 26
0000
0010
0000
0100
0001
0010
0100
0000
,  // measure 27
0110
0000
0011
0000
0100
0010
0001
1000
,  // measure 28
0000
0010
0000
0010
0100
0010
1000
0001
,  // measure 29
0101
0000
1100
0000
1000
0100
0010
0001
,  // measure 30
0000
1000
0000
0001
1000
0010
0100
0001
,  // measure 31
0101
0000
1010
0000
0010
1000
0100
0010
,  // measure 32
0000
0001
0010
0100
1000
0000
0001
0000
,  // measure 33
1000
0100
1000
0000
0001
0010
0001
0000
,  // measure 34
1000
1000
0001
0001
0010
0010
0100
0100
,  // measure 35
0010
0001
0100
0000
0100
1000
0010
0000
,  // measure 36
0010
0100
0001
0000
0010
0100
1000
0000
,  // measure 37
0001
1000
0100
0000
1000
0001
0010
0000
,  // measure 38
0010
0010
0010
0000
0100
0100
0100
0000
,  // measure 39
0010
0010
0001
0001
1000
1000
0010
0010
,  // measure 40
0100
0001
1000
0000
0010
1000
0001
0000
,  // measure 41
1001
0000
0001
0000
1000
0001
0100
0010
,  // measure 42
0000
0100
0000
0100
0010
0100
0010
0000
,  // measure 43
1010
0000
1000
0000
1000
0100
0010
0001
,  // measure 44
0000
0010
0000
0010
0100
0010
0001
0000
,  // measure 45
0101
0000
0100
0000
0100
0010
1000
0001
,  // measure 46
0000
1000
0000
0001
1000
0100
0010
0000
,  // measure 47
1100
0000
0010
0000
0100
0010
0100
0001
,  // measure 48
0000
0100
0000
0010
1000
0001
0010
0100
,  // measure 49
0010
0000
0000
0000
;

//---------------dance-single - Chewi----------------
#NOTES:
     dance-single:
     Chewi:
     Medium:
     7:
     0.258,0.326,0.094,0.126,0.000: // measure 1
0000
0000
0000
0000
,  // measure 2
0000
0000
0000
0000
,  // measure 3
0000
0000
0000
0000
,  // measure 4
0000
0000
0000
0000
,  // measure 5
1000
1000
0100
0001
,  // measure 6
0001
0001
0010
1000
,  // measure 7
1000
0001
1000
0001
,  // measure 8
1001
0000
0000
0000
,  // measure 9
1000
0100
0010
1000
,  // measure 10
0100
0001
0010
0010
,  // measure 11
0100
0001
0010
1000
,  // measure 12
0100
0100
1000
1000
,  // measure 13
1001
0000
0100
0000
,  // measure 14
0100
0010
0100
0000
,  // measure 15
0110
0000
1000
0000
,  // measure 16
1001
0000
0000
0000
,  // measure 17
0002
0103
2000
3100
,  // measure 18
0002
0013
2000
3010
,  // measure 19
0002
1003
2000
3001
,  // measure 20
0020
0130
0200
0310
,  // measure 21
1000
0010
0001
0100
,  // measure 22
1000
0010
0001
0010
,  // measure 23
1000
0100
0001
0010
,  // measure 24
1000
0010
0001
0010
,  // measure 25
0100
0000
0100
0000
0200
0000
0000
0300
,  // measure 26
0000
0010
0000
0000
0010
0000
0010
0000
,  // measure 27
1000
0000
1000
0000
2000
0000
0000
3000
,  // measure 28
0000
0001
0000
0000
0001
0000
0001
0000
,  // measure 29
0001
0000
0010
0000
0200
0000
0000
0300
,  // measure 30
0000
1000
0000
0000
0010
0000
1000
0000
,  // measure 31
0010
0000
0100
0000
0020
0000
0000
0030
,  // measure 32
0000
1000
0000
0000
0001
0000
1001
0000
,  // measure 33
0010
0000
0010
0000
0100
0010
0100
0000
,  // measure 34
0100
0001
0010
1000
,  // measure 35
0100
0000
0011
0000
,  // measure 36
0100
0000
1010
0000
,  // measure 37
0001
0000
0001
0000
0001
1000
0001
0000
,  // measure 38
1000
0010
0100
0001
,  // measure 39
0010
0000
1100
0000
,  // measure 40
0010
0000
0101
0000
,  // measure 41
0001
0000
0001
0000
0001
0000
1000
0001
,  // measure 42
0000
1000
0000
0000
1000
0000
0100
0000
,  // measure 43
0001
0000
0010
0000
1000
0000
0001
1000
,  // measure 44
0000
0001
0001
1000
,  // measure 45
0010
0000
0100
0000
0001
0000
0100
0010
,  // measure 46
0000
0010
0010
1000
,  // measure 47
0001
0000
1000
0000
0001
0000
0001
0010
,  // measure 48
0000
0100
0000
0000
1000
0000
0010
0000
,  // measure 49
0001
0000
0000
0000
;

//---------------dance-single - Chewi----------------
#NOTES:
     dance-single:
     Chewi:
     Easy:
     4:
     0.200,0.226,0.052,0.084,0.000: // measure 1
0000
0000
0000
0000
,  // measure 2
0000
0000
0000
0000
,  // measure 3
0000
0000
0000
0000
,  // measure 4
0000
0000
0000
0000
,  // measure 5
1000
0100
1000
0000
,  // measure 6
0100
0000
0100
0000
,  // measure 7
0001
0100
0001
0000
,  // measure 8
0100
0000
0100
0000
,  // measure 9
0100
0010
0100
0000
,  // measure 10
0010
0000
0010
0000
,  // measure 11
0010
0100
0010
0000
,  // measure 12
0100
0000
0100
0000
,  // measure 13
1000
0100
0000
0000
,  // measure 14
0001
0010
0000
0000
,  // measure 15
1000
0010
0000
0000
,  // measure 16
0001
0100
0000
0000
,  // measure 17
1000
1000
1000
1000
,  // measure 18
0001
0001
0001
0001
,  // measure 19
0010
0010
0010
0010
,  // measure 20
0100
0100
0100
0100
,  // measure 21
0100
0100
0100
0100
,  // measure 22
0001
0001
0001
0001
,  // measure 23
0010
0010
0010
0010
,  // measure 24
1000
1000
1000
1000
,  // measure 25
2000
0000
0000
3000
,  // measure 26
1000
0001
1000
1001
,  // measure 27
0002
0000
0000
0003
,  // measure 28
0001
1000
0001
1001
,  // measure 29
2000
0000
0000
3000
,  // measure 30
0100
0010
0001
0100
,  // measure 31
0002
0000
0000
0003
,  // measure 32
0100
0010
1000
0100
,  // measure 33
0010
0000
0100
0000
,  // measure 34
0010
0100
0010
0000
,  // measure 35
0001
0000
1000
0000
,  // measure 36
0001
0100
1000
0000
,  // measure 37
1000
0000
0001
0000
,  // measure 38
1000
0001
1000
0000
,  // measure 39
0010
0000
0100
0000
,  // measure 40
0010
0100
0001
0000
,  // measure 41
2000
0000
0000
3000
,  // measure 42
1000
0001
1000
1001
,  // measure 43
0002
0000
0000
0003
,  // measure 44
0001
1000
0001
1001
,  // measure 45
0200
0000
0000
0300
,  // measure 46
0010
0100
0001
1000
,  // measure 47
0200
0000
0000
0300
,  // measure 48
0010
0100
1000
0001
,  // measure 49
1001
0000
0000
0000
;

//---------------dance-single - Chewi----------------
#NOTES:
     dance-single:
     Chewi:
     Beginner:
     1:
     0.100,0.126,0.010,0.084,0.000: // measure 1
0000
0000
0000
0000
,  // measure 2
0000
0000
0000
0000
,  // measure 3
0000
0000
0000
0000
,  // measure 4
0000
0000
0000
0000
,  // measure 5
1000
0000
0000
0000
,  // measure 6
0100
0000
0000
0000
,  // measure 7
0001
0000
0000
0000
,  // measure 8
0100
0000
0000
0000
,  // measure 9
0100
0000
0000
0000
,  // measure 10
0010
0000
0000
0000
,  // measure 11
0010
0000
0000
0000
,  // measure 12
0100
0000
0000
0000
,  // measure 13
1000
0000
0000
0000
,  // measure 14
0001
0000
0000
0000
,  // measure 15
1000
0000
0000
0000
,  // measure 16
0001
0000
0000
0000
,  // measure 17
1000
0000
1000
0000
,  // measure 18
0001
0000
0001
0000
,  // measure 19
0010
0000
0010
0000
,  // measure 20
0100
0000
0100
0000
,  // measure 21
0100
0000
0100
0000
,  // measure 22
0001
0000
0001
0000
,  // measure 23
0010
0000
0010
0000
,  // measure 24
1000
0000
1000
0000
,  // measure 25
2000
0000
0000
3000
,  // measure 26
1000
0000
0000
0000
,  // measure 27
0002
0000
0000
0003
,  // measure 28
0001
0000
0000
0000
,  // measure 29
0200
0000
0000
0300
,  // measure 30
0100
0000
0000
0000
,  // measure 31
0020
0000
0000
0030
,  // measure 32
0010
0000
0000
0000
,  // measure 33
0010
0000
0000
0000
,  // measure 34
0010
0000
0010
0000
,  // measure 35
0001
0000
0000
0000
,  // measure 36
0001
0000
1000
0000
,  // measure 37
1000
0000
0000
0000
,  // measure 38
1000
0000
1000
0000
,  // measure 39
0010
0000
0100
0000
,  // measure 40
0010
0000
0001
0000
,  // measure 41
2000
0000
0000
3000
,  // measure 42
1000
0000
0000
0000
,  // measure 43
0002
0000
0000
0003
,  // measure 44
0001
0000
0000
0000
,  // measure 45
0200
0000
0000
0300
,  // measure 46
0100
0000
0000
0000
,  // measure 47
0020
0000
0000
0030
,  // measure 48
0010
0000
0000
0000
,  // measure 49
1001
0000
0000
0000
;
