#TITLE:ATTACK THE MUSIC;
#SUBTITLE:;
#ARTIST:DJ FX;
#TITLETRANSLIT:;
#SUBTITLETRANSLIT:;
#ARTISTTRANSLIT:;
#GENRE:;
#CREDIT:xRGTMx;
#MENUCOLOR:;
#METERTYPE:DDR;
#BANNER:ATTACK THE MUSIC.png;
#BACKGROUND:ATTACK THE MUSIC-bg.png;
#LYRICSPATH:;
#CDTITLE:;
#MUSIC:Attack The Music.mp3;
#OFFSET:-0.040;
#SAMPLESTART:47.980;
#SAMPLELENGTH:12.000;
#SELECTABLE:YES;
#LISTSORT:;
#BPMS:0.000=140.000;
#STOPS:;
#BGCHANGES:;
#ATTACKS:;

//---------------dance-single - xRGTMx----------------
#NOTES:
     dance-single:
     xRGTMx:
     Easy:
     4:
     0.217,0.253,0.076,0.000,0.000: // measure 1
0000
0000
0000
0000
,  // measure 2
0000
0000
0000
0000
,  // measure 3
0000
0000
0000
0000
,  // measure 4
0000
0000
0000
0000
,  // measure 5
0010
0010
0010
0010
,  // measure 6
0010
0010
0010
0010
,  // measure 7
0010
0010
0010
0010
,  // measure 8
0010
0010
0010
0000
,  // measure 9
1000
1000
1000
1000
,  // measure 10
1000
1000
1000
1000
,  // measure 11
1000
1000
1000
1000
,  // measure 12
1000
1000
1000
0000
,  // measure 13
0001
0001
0001
0001
,  // measure 14
0001
0001
0001
0001
,  // measure 15
0001
0001
0001
0001
,  // measure 16
0001
0001
0001
0000
,  // measure 17
0100
0100
0100
0100
,  // measure 18
0100
0100
0100
0100
,  // measure 19
0100
0100
0100
0100
,  // measure 20
0100
0100
0100
0000
,  // measure 21
0010
0010
0010
0000
,  // measure 22
1000
1000
1000
0000
,  // measure 23
0001
0001
0001
0000
,  // measure 24
0100
0100
0100
0000
,  // measure 25
1001
0000
0000
0000
,  // measure 26
0000
0000
0000
0000
,  // measure 27
0110
0000
0000
0000
,  // measure 28
0000
0000
0000
0000
,  // measure 29
1000
0001
1000
0000
,  // measure 30
1000
0000
1000
0000
,  // measure 31
0001
1000
0001
0000
,  // measure 32
0001
0000
0001
0000
,  // measure 33
1000
0001
1000
0000
,  // measure 34
0001
1000
0001
0000
,  // measure 35
1000
0001
1000
0000
,  // measure 36
0001
1000
0001
0000
,  // measure 37
0100
0010
0100
0000
,  // measure 38
0010
0100
0010
0000
,  // measure 39
0100
0010
0100
0000
,  // measure 40
0010
0100
0010
0000
,  // measure 41
1001
0000
0000
0000
,  // measure 42
0110
0000
0000
0000
,  // measure 43
1001
0000
0000
0000
,  // measure 44
0110
0000
0000
0000
,  // measure 45
1000
0000
0000
0001
0000
0000
0000
0000
;

//---------------dance-single - xRGTMx----------------
#NOTES:
     dance-single:
     xRGTMx:
     Beginner:
     2:
     0.147,0.226,0.139,0.000,0.000: // measure 1
0000
0000
0000
0000
,  // measure 2
0000
0000
0000
0000
,  // measure 3
0000
0000
0000
0000
,  // measure 4
0000
0000
0000
0000
,  // measure 5
1001
0000
1000
0000
,  // measure 6
1000
0000
0000
0000
,  // measure 7
1001
0000
0001
0000
,  // measure 8
0001
0000
0000
0000
,  // measure 9
1000
0000
0000
0000
,  // measure 10
1000
0000
0000
0000
,  // measure 11
0001
0000
0000
0000
,  // measure 12
0001
0000
0000
0000
,  // measure 13
0100
0000
0000
0000
,  // measure 14
0100
0000
0000
0000
,  // measure 15
0010
0000
0000
0000
,  // measure 16
0010
0000
0000
0000
,  // measure 17
1001
0000
0000
0000
,  // measure 18
0110
0000
0000
0000
,  // measure 19
1001
0000
0000
0000
,  // measure 20
0110
0000
0000
0000
,  // measure 21
1001
0000
0000
0000
,  // measure 22
0110
0000
0000
0000
,  // measure 23
1001
0000
0000
0000
,  // measure 24
0110
0000
0000
0000
,  // measure 25
1000
0000
0000
0000
,  // measure 26
0000
0000
0000
0000
,  // measure 27
0001
0000
0000
0000
,  // measure 28
0000
0000
0000
0000
,  // measure 29
1000
1000
1000
1000
,  // measure 30
1000
1000
1000
0000
,  // measure 31
0001
0001
0001
0001
,  // measure 32
0001
0001
0001
0000
,  // measure 33
1000
1000
1000
0000
,  // measure 34
0001
0001
0001
0000
,  // measure 35
1000
1000
1000
0000
,  // measure 36
0001
0001
0001
0000
,  // measure 37
0100
0100
0100
0000
,  // measure 38
0010
0010
0010
0000
,  // measure 39
0100
0100
0100
0000
,  // measure 40
0010
0010
0010
0000
,  // measure 41
1000
0000
0000
0001
,  // measure 42
0000
0000
0100
0000
,  // measure 43
0000
0010
0000
0000
,  // measure 44
1001
0000
0000
0000
,  // measure 45
0100
0000
0000
0100
0000
0100
0000
0000
;

//---------------dance-single - xRGTMx----------------
#NOTES:
     dance-single:
     xRGTMx:
     Medium:
     6:
     0.297,0.311,0.051,0.228,0.000: // measure 1
0000
0000
0000
0000
,  // measure 2
0000
0000
0000
0000
,  // measure 3
0000
0000
0000
0000
,  // measure 4
0000
0000
0000
0000
,  // measure 5
1000
0100
1000
0100
,  // measure 6
0010
0100
0010
0100
,  // measure 7
1000
0100
1000
0100
,  // measure 8
1000
0100
0010
0100
,  // measure 9
1000
1000
2000
0000
,  // measure 10
3001
0001
0002
0000
,  // measure 11
1003
1000
2001
0000
,  // measure 12
3001
0001
1002
0000
,  // measure 13
0103
0100
0200
0000
,  // measure 14
0310
0010
0020
0000
,  // measure 15
0130
0100
0210
0000
,  // measure 16
0310
0010
0120
0000
,  // measure 17
1030
0100
0010
0100
,  // measure 18
1000
0100
0010
0100
,  // measure 19
1000
0010
0100
0010
,  // measure 20
1000
0010
0100
0010
,  // measure 21
0100
0001
0010
0001
,  // measure 22
0100
0001
0010
0001
,  // measure 23
0010
0001
0100
0001
,  // measure 24
0010
0001
0100
0001
,  // measure 25
0010
0000
0000
0010
0000
0010
0000
0010
,  // measure 26
0000
0000
0000
0001
0000
0001
0000
0000
,  // measure 27
1000
0000
0000
0010
0000
0010
0000
0010
,  // measure 28
0000
0000
0000
1000
0000
1000
0000
0000
,  // measure 29
0001
1000
0001
1000
,  // measure 30
0010
0100
0010
0000
,  // measure 31
1000
0001
1000
0001
,  // measure 32
0010
0100
0010
0000
,  // measure 33
1000
0100
0010
0001
,  // measure 34
1000
0100
0010
0001
,  // measure 35
1000
0010
0100
0001
,  // measure 36
1000
0010
0100
0001
,  // measure 37
1000
0100
0010
0001
,  // measure 38
1000
0100
0010
0001
,  // measure 39
1000
0010
0100
0001
,  // measure 40
1000
0010
0100
0001
,  // measure 41
2000
0000
0000
3200
0000
0000
0320
0000
,  // measure 42
0000
0032
0000
0000
0203
0000
0000
0320
,  // measure 43
0000
0000
2030
0000
0000
3002
0000
0000
,  // measure 44
2003
0000
0000
0000
0000
3002
0000
0000
,  // measure 45
0000
0000
0000
1003
0000
1000
0000
0000
;

//---------------dance-single - xRGTMx----------------
#NOTES:
     dance-single:
     xRGTMx:
     Hard:
     10:
     0.400,0.453,0.013,0.178,0.178: // measure 1
0000
0000
0000
0000
,  // measure 2
0000
0000
0000
0000
,  // measure 3
0000
0000
0000
0000
,  // measure 4
0000
0000
0000
0000
,  // measure 5
1000
0000
0000
0000
0000
0000
0000
0000
0100
0000
0000
0100
0000
0000
0100
0000
,  // measure 6
0010
0000
0000
0000
0000
0000
0000
0000
0001
0000
0000
0001
0000
0000
0001
0000
,  // measure 7
0100
0000
0000
0000
0000
0000
0000
0000
0010
0000
0000
0010
0000
0000
0010
0000
,  // measure 8
1000
0000
0000
0000
0000
0000
0000
0000
0001
0000
0000
0001
0000
0000
0001
0000
,  // measure 9
1000
0100
0010
0100
,  // measure 10
1000
0000
0001
0000
0100
0000
0010
0100
,  // measure 11
0001
0010
0100
1000
,  // measure 12
0001
0000
0000
0000
0100
0000
0000
0000
0010
0000
0000
1000
0000
0000
0001
0000
,  // measure 13
1000
0100
0010
0100
,  // measure 14
1000
0000
0001
0000
0100
0000
0010
0100
,  // measure 15
0001
0010
0100
1000
,  // measure 16
0001
0000
0000
0000
0100
0000
0000
0000
0010
1000
0000
1000
0100
0000
0010
0000
,  // measure 17
0001
0000
0100
0010
1000
0000
0100
1000
,  // measure 18
0010
0000
0100
0001
0010
0000
0001
0100
,  // measure 19
0010
0000
1000
0100
0010
0000
0100
1000
,  // measure 20
0001
0000
0000
0000
0100
0000
0001
0000
0010
0000
0000
0100
0000
0000
1000
0000
,  // measure 21
0001
0000
0100
0010
1000
0000
0100
1000
,  // measure 22
0010
0000
0100
0001
0010
0000
0001
0100
,  // measure 23
0010
0000
1000
0100
0010
0000
0100
1000
,  // measure 24
0001
0000
0000
1000
0001
1000
0000
0000
,  // measure 25
0002
0000
0000
0000
0000
0000
0100
0000
0000
0000
0100
0000
0000
0203
0000
0000
,  // measure 26
0000
0000
0000
0000
0000
0000
0010
0000
0000
0000
0010
0000
0000
0010
0000
0000
,  // measure 27
0320
0000
0000
0000
0000
0000
1000
0000
0000
0000
1000
0000
0000
2030
0000
0000
,  // measure 28
0000
0000
0000
0000
0000
0000
0001
0000
0000
0000
0001
0000
0000
3001
0000
0000
,  // measure 29
1000
0000
0100
0000
0010
0000
0100
0010
,  // measure 30
0001
0000
0100
0000
0010
0000
1000
0001
,  // measure 31
1000
0000
0001
0000
0100
0000
0010
1000
,  // measure 32
0100
0000
0010
0000
0100
1000
1001
0000
,  // measure 33
1000
0100
0000
0100
0010
0000
0000
0000
0001
0000
0000
0000
1000
0000
0000
0000
,  // measure 34
0001
0100
0000
0100
0010
0000
0000
0000
1000
0000
0001
0000
1000
0000
0000
0000
,  // measure 35
0001
0010
0000
0010
0100
0000
0000
0000
1000
0000
0000
0000
0001
0000
0000
0000
,  // measure 36
1000
0010
0000
0010
0100
0000
0000
0000
0001
0000
1000
0000
0001
0000
0000
0000
,  // measure 37
1000
0100
0000
0100
0010
0000
0000
0000
0001
0000
0000
0000
1000
0000
0000
0000
,  // measure 38
0001
0100
0000
0100
0010
0000
0000
0000
1000
0000
0001
0000
1000
0000
0000
0000
,  // measure 39
0001
0010
0000
0010
0100
0000
0000
0000
1000
0000
0000
0000
0001
0000
0000
0000
,  // measure 40
1000
0010
0000
0010
0100
0000
0000
0000
0001
0000
1000
0000
0001
0000
0000
0000
,  // measure 41
2000
0000
3100
0020
0000
0031
0200
0000
,  // measure 42
0310
2000
0000
3100
0020
0000
0031
0200
,  // measure 43
0000
0310
2000
0000
3100
0020
0000
0031
,  // measure 44
2000
0000
0000
0000
0000
3002
0000
0000
,  // measure 45
0000
0000
0000
0100
0000
0103
0000
0000
;
