#TITLE:마지막처럼;
#SUBTITLE:;
#ARTIST:BLACKPINK;
#TITLETRANSLIT:AS IF IT'S YOUR LAST;
#SUBTITLETRANSLIT:;
#ARTISTTRANSLIT:;
#GENRE:Pop;
#CREDIT:chewi;
#BANNER:AS IF IT'S YOUR LAST.png;
#BACKGROUND:AS IF IT'S YOUR LAST-bg.png;
#LYRICSPATH:;
#CDTITLE:cdtitle.png;
#MUSIC:AS IF IT'S YOUR LAST.ogg;
#OFFSET:-0.031000;
#SAMPLESTART:62.424000;
#SAMPLELENGTH:15.000000;
#SELECTABLE:YES;
#BPMS:0.000000=125.000
;
#STOPS:128.000000=0.960000
;
#BGCHANGES:-0.031=AS IF IT'S YOUR LAST.avi=1.000=1=0=1===CrossFade==,
192.000=AS IF IT'S YOUR LAST-bg.png=1.000=1=0=1===CrossFade==,
99999=-nosongbg-=1.000=0=0=0 // don't automatically add -songbackground-
;
#KEYSOUNDS:;
#ATTACKS:;

//---------------dance-single - ----------------
#NOTES:
     dance-single:
     :
     Hard:
     10:
     0.504243,0.535834,0.063790,0.000000,0.308317,332.000000,326.000000,6.000000,0.000000,0.000000,0.000000,0.504243,0.535834,0.063790,0.000000,0.308317,332.000000,326.000000,6.000000,0.000000,0.000000,0.000000:
0000
0000
0000
0000
,
0000
0000
0000
0000
,
0000
0000
0000
0000
,
0000
0000
0000
0000
,
1000
0000
0000
1000
0000
0000
0100
0000
0010
0000
0000
0010
0000
0000
0001
0000
,
1000
0000
0000
1000
0000
0000
0010
0000
0100
0010
0100
0010
0100
0000
0000
0000
,
0001
0000
0000
0001
0000
0000
0010
0000
0100
0000
0000
0100
0000
0000
1000
0000
,
0001
0000
0000
0000
0000
0000
0000
0000
0000
0001
0000
0000
0000
0000
0000
0000
0000
0000
0100
0000
0000
0000
0000
0000
0010
0000
0000
0000
0100
0000
0000
0000
0010
0000
0000
0000
0100
0000
0000
0000
0000
0000
0000
0000
0000
0000
0000
0000
,
0100
0000
0000
0100
0010
0000
1000
0000
0100
0000
0000
0100
0010
0000
0001
0000
,
1000
0000
0000
1000
0010
0000
0100
0000
0001
0000
0100
0001
0100
0000
0001
0000
,
0100
0000
0000
0010
0100
0000
0001
0000
0010
0000
0000
0010
0100
0000
1000
0000
,
0001
0000
0000
0001
0100
0000
0010
0000
1000
0000
0010
1000
0010
0000
0100
0000
,
0001
0000
0000
0001
1000
0000
0010
0000
1000
0000
0000
1000
0001
0000
0010
0000
,
0100
0000
0000
0100
1000
0000
0001
0000
1000
0000
0010
1000
0010
0000
0100
0000
,
0001
0000
0000
1000
0001
0000
0010
0000
0100
0000
0000
0100
0010
0000
0001
0000
,
0100
0000
0000
0000
0000
0000
0000
0000
0000
0100
0000
0000
0000
0000
0000
0000
0000
0000
0010
0000
0000
0000
0000
0000
1000
0000
0000
0000
0010
0000
0000
0000
1000
0000
0000
0000
0010
0000
0000
0000
0000
0000
0000
0000
0000
0000
0000
0000
,
0010
0000
0000
0010
0100
0000
0001
0000
0010
0000
0000
0010
0100
0000
1000
0000
,
0001
0000
0000
0001
0100
0000
0010
0000
1000
0000
0010
1000
0010
0000
1000
0000
,
0010
0000
0000
0100
0010
0000
1000
0000
0100
0000
0000
0100
0010
0000
0001
0000
,
1000
0000
0000
1000
0010
0000
0100
0000
0001
0000
0100
0001
0100
0000
0010
0000
,
1000
0000
0000
1000
0001
0000
0100
0000
0001
0000
0000
0001
1000
0000
0100
0000
,
0010
0000
0000
0010
0001
0000
1000
0000
0001
0000
0100
0001
0100
0000
0010
0000
,
1000
0000
0000
0001
1000
0000
0100
0000
0010
0000
0000
0010
0100
0000
1000
0000
,
0010
0000
0000
0000
0000
0000
0000
0000
0000
0100
0000
0000
0000
0000
0000
0000
0000
0000
0001
0000
0000
0000
0000
0000
0010
0000
0000
0000
0001
0000
0000
0000
0010
0000
0000
0000
0001
0000
0000
0000
0000
0000
0000
0000
0000
0000
0000
0000
,
0000
0000
0010
0001
0100
0000
0010
1000
,
0000
0100
1000
0010
0000
1000
1000
1000
,
0000
0010
0000
0100
0000
0001
0000
1000
,
0000
0000
0100
1000
,
0001
0000
0010
0100
0010
0001
1000
0001
,
0000
0101
0000
1100
0000
1000
0001
1000
,
0000
0001
0000
0100
0000
0110
0000
1010
,
1000
1000
0001
0001
0100
0100
0010
0010
,
0110
0000
1001
1000
0001
1000
0100
0010
,
0001
0000
1000
0010
0100
0000
0001
0000
0010
0000
0100
0000
0010
0000
0001
0000
,
1000
0000
0001
0100
0001
0000
1000
0000
0100
0000
0010
0000
0100
0000
1000
0000
,
0010
0000
0100
0001
0100
0000
0001
0000
0010
0000
0100
1000
0100
0000
1000
0010
,
1000
0000
0001
0100
0001
0000
1000
0000
1000
0000
0001
0000
0010
0000
0100
0000
,
1000
0000
0001
0100
0010
0000
1000
0000
0100
0000
0010
0000
0100
0000
1000
0000
,
0001
0000
1000
0010
1000
0000
0001
0000
0010
0000
0100
0000
0010
0000
0001
0000
,
0100
0000
0010
1000
0010
0000
1000
0000
0100
0000
0010
0001
0010
0000
0001
0100
,
0001
0000
1000
0010
1000
0000
0010
0000
1000
0000
0100
0000
0001
0000
0010
0000
,
1000
0000
0100
0100
0001
0010
1000
0100
,
0001
0000
0000
0010
1000
0010
0001
0010
,
1000
0000
0000
1000
0000
0000
1000
0000
0001
0000
0000
0000
0000
0000
0001
0000
,
1000
0000
1000
0000
0001
0010
1000
0100
,
0001
0000
0010
0010
1000
0100
0001
0010
,
1000
0000
0100
0000
0001
0100
1000
0100
,
0001
0000
0000
0001
0000
0000
0001
0000
1000
0000
0000
0000
0000
0000
1000
0000
,
0001
0000
0000
0000
;

//---------------dance-single - ----------------
#NOTES:
     dance-single:
     :
     Medium:
     7:
     0.358438,0.408254,0.063790,0.000000,0.085053,236.000000,230.000000,6.000000,0.000000,0.000000,0.000000,0.358438,0.408254,0.063790,0.000000,0.085053,236.000000,230.000000,6.000000,0.000000,0.000000,0.000000:
0000
0000
0000
0000
,
0000
0000
0000
0000
,
0000
0000
0000
0000
,
0000
0000
0000
0000
,
1000
0000
0000
1000
0000
0000
0000
0000
0100
0000
0000
0100
0000
0000
0000
0000
,
0010
0000
0000
0010
0000
0000
0000
0000
0001
0000
0001
0000
0001
0000
0000
0000
,
0010
0000
0000
0010
0000
0000
0000
0000
0100
0000
0000
0100
0000
0000
0000
0000
,
1000
0000
0000
0000
0000
0000
0000
0000
0000
1000
0000
0000
0000
0000
0000
0000
0000
0000
1000
0000
0000
0000
0000
0000
0001
0000
0000
0000
1000
0000
0000
0000
0001
0000
0000
0000
1000
0000
0000
0000
0000
0000
0000
0000
0000
0000
0000
0000
,
0001
0000
0100
0000
0010
1000
0010
0000
,
1000
0000
0100
0000
0010
0001
0010
0000
,
0001
0000
0100
0000
0010
0100
0010
0000
,
1000
0000
0001
0000
0010
0100
0010
0000
,
0001
1000
0001
0100
,
0001
1000
0001
0010
,
0001
1000
0010
0000
1000
0001
0010
0000
,
0100
0000
0000
0000
0000
0000
0000
0000
0000
0100
0000
0000
0000
0000
0000
0000
0000
0000
0100
0000
0000
0000
0000
0000
0010
0000
0000
0000
0100
0000
0000
0000
0010
0000
0000
0000
0100
0000
0000
0000
0000
0000
0000
0000
0000
0000
0000
0000
,
1000
0000
0010
0000
0100
0001
0100
0000
,
0001
0000
0010
0000
0100
1000
0100
0000
,
1000
0000
0010
0000
0100
0010
0100
0000
,
0001
0000
1000
0000
0100
0010
0100
0000
,
1000
0001
1000
0010
,
1000
0001
1000
0100
,
1000
0001
0100
0000
0001
1000
0100
0000
,
0010
0000
0000
0000
0000
0000
0000
0000
0000
0010
0000
0000
0000
0000
0000
0000
0000
0000
0010
0000
0000
0000
0000
0000
0100
0000
0000
0000
0010
0000
0000
0000
0100
0000
0000
0000
0010
0000
0000
0000
0000
0000
0000
0000
0000
0000
0000
0000
,
0010
0000
0001
0000
0010
0001
0100
0000
,
0010
0000
0100
0000
0010
1000
0100
0000
,
1000
0000
0100
0000
1000
0010
0100
0000
,
0001
0010
0100
1000
,
1000
0000
0001
0000
1000
0001
1000
0000
,
0001
0000
1000
0000
0001
1000
0001
0000
,
1000
0000
0100
0000
0010
0001
0100
0000
,
0100
0010
1000
0001
,
1001
0000
0110
0000
1000
0100
1000
0010
,
0000
1000
0001
0010
0000
0010
0000
0100
,
0000
1000
0001
0100
0000
0010
0000
1000
,
0000
0001
0100
0010
0000
1000
0000
0001
,
0000
1000
0001
0010
0000
0100
1000
0001
,
0000
0010
0100
1000
0000
0001
0000
1000
,
0000
0010
0100
0001
0000
0100
0000
0010
,
0000
1000
0001
1000
0001
0000
0001
0000
,
1000
0000
1000
0000
1000
0100
1000
0010
,
1000
0000
1001
0000
0001
0010
0001
0100
,
0001
0000
1001
0100
0010
1000
0001
0010
,
0100
0000
0000
0100
0000
0000
0100
0000
1000
0000
0000
0000
0000
0000
1000
0000
,
0100
0000
0000
0000
0001
0010
0001
0100
,
0001
0000
1001
0000
1000
0100
1000
0010
,
1000
0000
1001
0010
0100
0001
1000
0100
,
0010
0000
0000
0010
0000
0000
0010
0000
0001
0000
0000
0000
0000
0000
0001
0000
,
0010
0000
0000
0000
;

//---------------dance-single - ----------------
#NOTES:
     dance-single:
     :
     Easy:
     3:
     0.173144,0.229643,0.042526,0.085053,0.000000,114.000000,110.000000,4.000000,8.000000,0.000000,0.000000,0.173144,0.229643,0.042526,0.085053,0.000000,114.000000,110.000000,4.000000,8.000000,0.000000,0.000000:
// measure 0
0000
0000
0000
0000
,  // measure 1
0000
0000
0000
0000
,  // measure 2
0000
0000
0000
0000
,  // measure 3
0000
0000
0000
0000
,  // measure 4
1000
0000
1000
0000
,  // measure 5
1000
0000
1001
0000
,  // measure 6
0001
0000
0001
0000
,  // measure 7
0001
0000
1001
0000
,  // measure 8
1000
1000
0100
0000
,  // measure 9
0001
0001
0100
0000
,  // measure 10
1000
1000
0010
0000
,  // measure 11
0001
0001
0010
0000
,  // measure 12
1000
0001
1000
0000
,  // measure 13
0001
1000
0001
0000
,  // measure 14
0100
0010
0100
0000
,  // measure 15
0010
0100
0010
0000
,  // measure 16
1000
0100
1000
0000
,  // measure 17
0100
0010
0100
0000
,  // measure 18
0010
0001
0010
0000
,  // measure 19
0001
0100
0001
0000
,  // measure 20
0100
0010
0100
0000
,  // measure 21
0010
0100
0010
0000
,  // measure 22
1000
0001
1000
0000
,  // measure 23
0001
1000
0001
0000
,  // measure 24
2000
0000
0000
3000
,  // measure 25
0200
0000
0000
0300
,  // measure 26
0020
0000
0000
0030
,  // measure 27
0002
0000
0000
0003
,  // measure 28
0002
0000
0000
0003
,  // measure 29
0020
0000
0000
0030
,  // measure 30
0200
0000
0000
0300
,  // measure 31
2000
0000
0000
3000
,  // measure 32
1001
1001
0100
0000
,  // measure 33
0100
0000
0010
0010
,  // measure 34
0010
0000
1000
0000
,  // measure 35
0001
0000
1000
0001
,  // measure 36
1000
0000
0001
0000
,  // measure 37
0010
0000
0001
0010
,  // measure 38
0100
0000
1000
0000
,  // measure 39
0100
0000
1000
0100
,  // measure 40
0010
0000
0001
0001
,  // measure 41
0001
0000
0001
1000
,  // measure 42
0001
0000
1000
1000
,  // measure 43
1000
0000
1000
0001
,  // measure 44
1000
0000
0100
0100
,  // measure 45
0100
0000
0010
0100
,  // measure 46
0010
0000
0100
0100
,  // measure 47
0100
0000
0100
0010
,  // measure 48
0100
0000
0000
0000
;

//---------------dance-single - ----------------
#NOTES:
     dance-single:
     :
     Beginner:
     1:
     0.098722,0.153095,0.000000,0.042526,0.000000,65.000000,65.000000,0.000000,4.000000,0.000000,0.000000,0.098722,0.153095,0.000000,0.042526,0.000000,65.000000,65.000000,0.000000,4.000000,0.000000,0.000000:
// measure 0
0000
0000
0000
0000
,  // measure 1
0000
0000
0000
0000
,  // measure 2
0000
0000
0000
0000
,  // measure 3
0000
0000
0000
0000
,  // measure 4
1000
0000
0000
0000
,  // measure 5
1000
0000
0000
0000
,  // measure 6
0001
0000
0000
0000
,  // measure 7
0001
0000
0000
0000
,  // measure 8
1000
0000
0000
0000
,  // measure 9
0001
0000
0000
0000
,  // measure 10
1000
0000
0000
0000
,  // measure 11
0001
0000
0000
0000
,  // measure 12
1000
0000
0000
0000
,  // measure 13
0001
0000
0000
0000
,  // measure 14
0100
0000
0000
0000
,  // measure 15
0010
0000
0000
0000
,  // measure 16
1000
0000
0000
0000
,  // measure 17
0100
0000
0000
0000
,  // measure 18
0010
0000
0000
0000
,  // measure 19
0001
0000
0000
0000
,  // measure 20
0100
0000
0000
0000
,  // measure 21
0010
0000
0000
0000
,  // measure 22
1000
0000
0000
0000
,  // measure 23
0001
0000
0000
0000
,  // measure 24
2000
0000
0000
3000
,  // measure 25
1000
0000
0000
0000
,  // measure 26
0002
0000
0000
0003
,  // measure 27
0001
0000
0000
0000
,  // measure 28
0020
0000
0000
0030
,  // measure 29
0010
0000
0000
0000
,  // measure 30
0200
0000
0000
0300
,  // measure 31
0100
0000
0000
0000
,  // measure 32
0100
0000
0100
0000
,  // measure 33
0100
0000
0010
0000
,  // measure 34
0010
0000
1000
0000
,  // measure 35
0001
0000
1000
0000
,  // measure 36
1000
0000
0001
0000
,  // measure 37
0010
0000
0001
0000
,  // measure 38
0100
0000
1000
0000
,  // measure 39
0100
0000
1000
0000
,  // measure 40
0010
0000
0001
0001
,  // measure 41
0001
0000
0001
0000
,  // measure 42
0001
0000
1000
1000
,  // measure 43
1000
0000
1000
0000
,  // measure 44
1000
0000
0100
0100
,  // measure 45
0100
0000
0100
0000
,  // measure 46
0100
0000
0010
0010
,  // measure 47
0010
0000
0010
0000
,  // measure 48
0010
0000
0000
0000
;
