#TITLE:AM-3P (BLUE TRANCE Mix);
#SUBTITLE:;
#ARTIST:TSUKASA;
#TITLETRANSLIT:;
#SUBTITLETRANSLIT:;
#ARTISTTRANSLIT:;
#GENRE:;
#CREDIT:Chewi☆;
#MENUCOLOR:#00FFFF;
#METERTYPE:DDR X;
#BANNER:AM-3P (BLUE TRANCE Mix).png;
#BACKGROUND:AM-3P (BLUE TRANCE Mix)-bg.png;
#LYRICSPATH:;
#CDTITLE:;
#MUSIC:AM-3P (BLUE TRANCE Mix).mp3;
#OFFSET:-0.525;
#SAMPLESTART:41.687;
#SAMPLELENGTH:15.000;
#SELECTABLE:YES;
#LISTSORT:;
#DISPLAYBPM:140.000;
#BPMS:0.000=140.000;
#STOPS:;
#BGCHANGES:;
#ATTACKS:;

//---------------dance-single - Chewi----------------
#NOTES:
     dance-single:
     Chewi:
     Hard:
     10:
     0.428,0.550,0.142,0.193,0.000:
0000
0000
0000
0000
,
0000
0000
0000
0000
,
0000
0000
0000
0000
,
0000
0000
0000
0000
,
1000
0100
0001
0000
0100
0000
0110
0000
,
0001
0010
1000
0000
0010
0000
0110
0000
,
1002
0000
0000
0203
0000
0000
2300
0000
,
0000
3020
0000
0000
0031
1000
0000
0000
,
0001
0100
0001
0000
1000
0000
0100
0000
,
1000
0100
1000
0000
0100
0000
0010
0000
,
0220
0000
0000
0000
,
0000
0000
0000
0300
,
0002
0000
0000
0000
,
0000
0000
0000
0030
,
0200
0000
0000
0000
,
0000
0000
0000
0003
,
2000
0000
0000
0000
,
0000
0000
0000
3300
,
0010
0000
0100
0000
0100
0010
0100
0000
,
0100
0000
0010
0000
0010
0100
0010
0000
,
0001
0010
0100
0000
1000
0000
0100
0000
,
1000
0100
0010
0000
0001
0000
0010
0000
,
0001
1000
0001
1000
0010
0100
0010
0100
,
0001
0100
0010
1000
0001
0010
0100
0000
,
0001
0101
1000
1100
,
0010
0010
0010
0000
0100
0100
0100
0000
,
1000
0001
0010
0000
0001
1000
0010
0000
,
1000
1000
1000
0000
0001
0001
0001
0000
,
1000
0100
0010
0001
1000
0100
0010
0000
,
0001
0101
1000
1100
,
0100
0010
0100
0000
0010
0001
0100
0000
,
0100
0010
0100
0000
0010
1000
0100
0000
,
0001
0010
0100
1000
0001
0010
0100
0000
,
0010
0001
0100
0000
0010
1000
0100
0000
,
0100
0100
0100
0000
0010
0010
0010
0000
,
1000
0010
1000
0000
0001
0100
0001
0000
,
1100
0010
0001
0100
0010
0100
0001
0010
,
0110
0010
0001
0100
1000
0100
0001
0010
,
0100
1000
0010
1000
0100
0001
0010
0001
,
0100
0010
0001
0100
0010
1000
0100
0010
,
0002
1000
0100
0100
,
2003
0000
0010
0000
0001
0001
0001
0000
,
3020
0001
0100
1000
,
0230
0000
0001
0000
0010
0010
0010
0000
,
0310
0000
1000
0000
0100
0001
0010
0000
,
0001
0000
0010
0000
0100
1000
1001
0000
,
1000
0000
0100
0000
0001
0010
1000
0000
,
0001
0000
1000
0000
0100
0010
0110
0000
,
0001
0010
0001
0010
0001
0100
0001
0100
,
0010
0100
0010
0100
0010
1000
0010
1000
,
0100
1000
0100
1000
0100
0001
0100
0001
,
0100
1000
0010
0001
0010
1000
0010
0100
,
0001
0100
0001
0100
0001
0010
0001
0010
,
0100
0010
0100
0010
0001
0010
0001
0010
,
0210
0000
0000
2300
0000
0000
3020
0000
,
0000
0032
0000
0000
1003
0001
1000
0001
,
2002
0000
0000
0000
,
3003
0000
0000
0000
;

//---------------dance-single - Chewi----------------
#NOTES:
     dance-single:
     Chewi:
     Beginner:
     2:
     0.131,0.145,0.000,0.071,0.000:
0000
0000
0000
0000
,
0000
0000
0000
0000
,
0000
0000
0000
0000
,
0000
0000
0000
0000
,
1000
0000
0010
0000
,
0001
0000
0010
0000
,
0020
0000
0000
0000
,
0000
0030
0010
0000
,
1000
0000
0000
0000
,
0100
0000
0000
0000
,
0020
0000
0000
0000
,
0000
0000
0000
0030
,
0010
0000
0000
0000
,
0100
0000
0000
0000
,
2000
0000
0000
0000
,
0000
0000
0000
3000
,
1000
0000
0000
0000
,
0001
0000
0000
0000
,
0020
0000
0000
0000
,
0000
0000
0000
0030
,
0010
0000
0100
0000
,
0001
0000
0001
0000
,
0010
0000
0010
0000
,
1000
0000
1000
0000
,
1000
0000
0100
0000
,
0001
0000
1000
0000
,
1000
0000
0010
0000
,
0001
0000
1000
0000
,
0001
0000
1000
0000
,
0010
0000
0010
0000
,
0100
0000
0010
0000
,
0001
0000
0001
0000
,
0001
0000
0010
0000
,
0100
0000
0100
0000
,
1000
0000
0100
0000
,
0010
0000
0010
0000
,
0001
0000
0001
0000
,
1000
0000
1000
0000
,
0020
0000
0000
0000
,
0000
0000
0000
0030
,
0010
0000
0100
0000
,
1000
0000
1000
0000
,
0001
0000
0001
0000
,
0001
0000
0001
0000
,
0001
0000
0010
0000
,
0100
0000
1000
0000
,
0001
0000
1000
0000
,
0010
0000
0100
0000
,
0010
0000
0010
0000
,
0010
0000
0100
0000
,
1000
0000
1000
0000
,
1000
0000
0001
0000
,
0010
0000
0010
0000
,
0010
0000
0100
0000
,
2000
0000
0000
0000
,
0000
3000
1000
0000
,
0002
0000
0000
0000
,
0003
0000
0000
0000
;

//---------------dance-single - Chewi----------------
#NOTES:
     dance-single:
     Chewi:
     Easy:
     5:
     0.206,0.261,0.020,0.203,0.000:
0000
0000
0000
0000
,
0000
0000
0000
0000
,
0000
0000
0000
0000
,
0000
0000
0000
0000
,
1000
0100
0010
0000
,
0001
0100
0010
0000
,
0010
0000
0000
0010
0000
0000
0010
0000
,
0000
0010
0000
0000
0010
0100
0000
0000
,
2000
0000
0000
0000
,
3200
0000
0000
0000
,
0320
0000
0000
0000
,
0000
0000
0000
0000
,
0032
0000
0000
0000
,
0203
0000
0000
0000
,
0320
0000
0000
0000
,
0000
0000
0000
0000
,
2030
0000
0000
0000
,
3002
0000
0000
0000
,
0023
0000
0000
0000
,
0000
0000
0000
0000
,
0130
0100
0100
0000
,
0001
1000
0001
0000
,
0010
0010
0010
0000
,
1000
0001
1000
0000
,
1000
0000
0100
0000
,
0001
0100
1000
0000
,
1000
0000
0010
0000
,
0001
0010
1000
0000
,
0001
0000
1000
0000
,
0010
0100
0010
0000
,
0100
0000
0010
0000
,
0001
1000
0001
0000
,
0001
0000
0010
0000
,
0100
1000
0100
0000
,
1000
0000
0100
0000
,
0010
0001
0010
0000
,
0001
0001
0001
0001
,
1000
1000
1000
1000
,
0020
0000
0000
0000
,
0200
0000
0000
0330
,
0110
0000
0100
0000
,
1000
0100
1000
0100
,
1001
0000
0001
0000
,
0001
0010
0001
0010
,
0002
0000
0023
0000
,
0230
0000
2300
0000
,
3002
0000
2003
0000
,
3020
0000
0230
0000
,
0310
0100
0010
0100
,
0010
0000
0100
0000
,
1000
0001
1000
0001
,
1000
0000
0001
0000
,
0010
0100
0010
0100
,
0010
0000
0100
0000
,
1000
0000
0000
1000
0000
0000
0001
0000
,
0000
0001
0000
0000
1000
0001
1000
0001
,
2000
0000
0000
0000
,
3000
0000
0000
0000
;

//---------------dance-single - Chewi----------------
#NOTES:
     dance-single:
     Chewi:
     Medium:
     8:
     0.305,0.492,0.142,0.152,0.000:
0000
0000
0000
0000
,
0000
0000
0000
0000
,
0000
0000
0000
0000
,
0000
0000
0000
0000
,
1000
0001
0010
0100
,
1000
0001
0100
0010
,
0110
0000
0000
0010
0000
0000
0100
0000
,
0000
0010
0000
0000
1000
0001
0000
0000
,
1000
0000
0000
0000
,
0100
0000
0000
0000
,
0010
0000
0000
0000
,
0001
0000
0000
0000
,
0100
0000
0000
0000
,
1000
0000
0000
0000
,
0010
0100
0010
0000
,
0110
0000
1001
0000
,
1000
0001
0100
0000
,
0101
0000
1100
0000
,
0001
0001
0001
0000
,
1000
0100
0010
0000
,
0001
0001
0001
0000
,
1000
0010
0100
0000
,
0001
0100
1000
0000
0100
0000
0001
0000
,
0001
0010
1000
0000
0010
0000
0001
0000
,
2100
0010
0001
0100
,
0001
0010
0001
3010
,
0102
0010
0100
1000
,
0010
1000
0100
1003
,
0010
0010
0010
0000
0100
0000
0001
0000
,
1000
0100
0010
0001
,
1000
0100
1000
0000
0001
0000
0010
0000
,
0100
1000
0001
0100
,
0010
0010
0010
0000
0100
0000
0001
0000
,
0010
1000
0100
0001
,
1000
0100
1000
0000
0001
0000
0010
0000
,
0100
1000
0001
1000
,
0110
0100
0001
0100
,
0110
1000
0010
0100
,
0002
0023
0230
2300
,
3200
0302
0203
2300
,
3002
0000
0000
0000
,
2003
0000
0000
0000
,
3010
0100
0010
0000
0100
0010
0100
0000
,
0010
0001
0100
1000
,
0020
0000
0000
0000
,
0230
0000
0000
0000
,
0310
1000
0010
0000
0100
1000
0100
0000
,
0010
0001
0100
1000
,
0001
0011
1000
1010
,
0001
1000
0001
0000
1000
0001
1000
0000
,
1000
1100
0001
0101
,
1000
0001
1000
0000
0001
1000
0001
0000
,
1000
0010
0001
0010
,
1000
0100
0001
0100
,
1100
0000
0000
0010
0000
0000
0100
0000
,
0000
0010
0000
0000
0001
0001
0001
0001
,
0002
0000
0000
0000
,
0003
0000
0000
0000
;

//---------------dance-double - Chewi----------------
#NOTES:
     dance-double:
     Chewi:
     Easy:
     4:
     0.179,0.261,0.020,0.132,0.000: // measure 1
00000000
00000000
00000000
00000000
,  // measure 2
00000000
00000000
00000000
00000000
,  // measure 3
00000000
00000000
00000000
00000000
,  // measure 4
00000000
00000000
00000000
00000000
,  // measure 5
10000000
02000000
00000000
03000000
,  // measure 6
00010000
00200000
00000000
00300000
,  // measure 7
00010000
00000000
00000000
00010000
00000000
00000000
00001000
00000000
,  // measure 8
00000000
00001000
00000000
00000000
00001000
00001000
00000000
00000000
,  // measure 9
00000020
00000000
00000000
00000000
,  // measure 10
00000000
00000000
00000000
00000000
,  // measure 11
00002030
00000000
00000000
00000000
,  // measure 12
00000000
00000000
00000000
00000000
,  // measure 13
00003002
00000000
00000000
00000000
,  // measure 14
00000000
00000000
00000000
00000000
,  // measure 15
00002003
00000000
00000000
00000000
,  // measure 16
00000000
00000000
00000000
00000000
,  // measure 17
00023000
00000000
00000000
00000000
,  // measure 18
00000000
00000000
00000000
00000000
,  // measure 19
02030000
00000000
00000000
00000000
,  // measure 20
00000000
00000000
00000000
00000000
,  // measure 21
13000000
10000000
10000000
00000000
,  // measure 22
00010000
10000000
10010000
00000000
,  // measure 23
00010000
00010000
00010000
00000000
,  // measure 24
00100000
01000000
01100000
00000000
,  // measure 25
10000000
00000000
01000000
00000000
,  // measure 26
00100000
00000000
00010000
00000000
,  // measure 27
00010000
00000000
00001000
00000000
,  // measure 28
00000010
00000000
00001000
00000000
,  // measure 29
00000010
00000000
00000100
00000000
,  // measure 30
00000001
00000000
00001000
00000000
,  // measure 31
00000001
00000000
00000010
00000000
,  // measure 32
00000100
00000000
00001000
00000000
,  // measure 33
00000010
00001000
00010000
00000000
,  // measure 34
00010000
00001000
00010000
00000000
,  // measure 35
00001000
00010000
01000000
00000000
,  // measure 36
10000000
01000000
10000000
00000000
,  // measure 37
01000000
00100000
00010000
00100000
,  // measure 38
00010000
01000000
00010000
01000000
,  // measure 39
01000000
00010000
00001000
00010000
,  // measure 40
00001000
00000100
00001000
00000010
,  // measure 41
00000200
00000000
00000000
00000000
,  // measure 42
00000320
00000000
00000000
00000000
,  // measure 43
00001030
00000000
00001000
00000000
,  // measure 44
00000001
00000000
00000001
00000000
,  // measure 45
00000002
00000000
00000000
00000000
,  // measure 46
00002003
00000000
00000000
00000000
,  // measure 47
00003100
00000000
00001000
00000000
,  // measure 48
00010000
00000000
00001000
00000000
,  // measure 49
00010000
00100000
10000000
00000000
,  // measure 50
00100000
00000000
01000000
00000000
,  // measure 51
10000000
01000000
00010000
00000000
,  // measure 52
01000000
00000000
00100000
00000000
,  // measure 53
00010000
00100000
00001000
00000000
,  // measure 54
00010000
00000000
00001000
00000000
,  // measure 55
00010000
00000000
00000000
00001000
00000000
00000000
00010000
00000000
,  // measure 56
00000000
00001000
00000000
00000000
00010000
00001000
00010000
00001000
,  // measure 57
00020000
00000000
00000000
00000000
,  // measure 58
00030000
00000000
00000000
00000000
;

//---------------dance-double - Chewi----------------
#NOTES:
     dance-double:
     Chewi:
     Medium:
     8:
     0.296,0.377,0.152,0.061,0.000: // measure 1
00000000
00000000
00000000
00000000
,  // measure 2
00000000
00000000
00000000
00000000
,  // measure 3
00000000
00000000
00000000
00000000
,  // measure 4
00000000
00000000
00000000
00000000
,  // measure 5
10000000
00100000
01000000
01010000
,  // measure 6
00010000
00100000
00001000
00010000
,  // measure 7
00011000
00000000
00000000
00001000
00000000
00000000
00001010
00000000
,  // measure 8
00000000
00000001
00000000
00000000
00000011
00000010
00000010
00000010
,  // measure 9
00000002
00000000
00000000
00000000
,  // measure 10
00000000
00000000
00000000
00000000
,  // measure 11
00000203
00000000
00000000
00000000
,  // measure 12
00000000
00000000
00000000
00000000
,  // measure 13
00002300
00000000
00000000
00000000
,  // measure 14
00000000
00000000
00000000
00000000
,  // measure 15
00023000
00000000
00000000
00000000
,  // measure 16
00000000
00000000
00000000
00000000
,  // measure 17
02030000
00000000
00000000
00000000
,  // measure 18
00000000
00000000
00000000
00000000
,  // measure 19
13000000
10000000
10000000
00000000
,  // measure 20
00100000
01100000
01000000
00000000
,  // measure 21
00010000
00010000
00010000
00000000
,  // measure 22
00100000
00110000
00100000
00000000
,  // measure 23
01000000
00100000
00010000
01000000
,  // measure 24
00100000
00010000
01000000
00010000
,  // measure 25
00100000
00000000
00001000
00000000
00010000
00001000
00010000
00000000
,  // measure 26
00001000
00000010
00000100
00000001
,  // measure 27
00000010
00000100
00000010
00000011
,  // measure 28
00000001
00000100
00000010
00001010
,  // measure 29
00001000
00000000
00000100
00000000
00010000
00001000
00010000
00000000
,  // measure 30
00001000
00010000
01000000
10000000
,  // measure 31
00100000
10000000
01000000
11000000
,  // measure 32
00100000
00010000
01000000
01010000
,  // measure 33
00100000
00010000
00100000
00000000
00001000
00000000
00010000
00000000
,  // measure 34
00001000
00010000
00001000
00000000
00000010
00000000
00001000
00000000
,  // measure 35
00000010
00001000
00000100
00000000
00000010
00000000
00000100
00000000
,  // measure 36
00000010
00000001
00000100
00000000
00000100
00000100
00000100
00000000
,  // measure 37
00000010
00001000
00000100
00010000
,  // measure 38
00001000
00010000
00100000
01000000
,  // measure 39
00010000
00100000
01000000
10000000
,  // measure 40
00100000
00100000
00100000
00000000
01000000
01000000
01000000
00000000
,  // measure 41
10010000
00100000
00000000
00100000
,  // measure 42
01000000
00100000
00000000
00010000
,  // measure 43
00010000
00001000
00000010
00000001
,  // measure 44
00000010
00001000
00000100
00000001
,  // measure 45
00001000
00000100
00001000
00000000
00000001
00000000
00000101
00000000
,  // measure 46
00000001
00000100
00000001
00000000
00001000
00000000
00001100
00000000
,  // measure 47
00001000
00000000
00010000
00000000
00001000
00010000
00001000
00000000
,  // measure 48
00010000
00000000
01000000
00000000
00100000
00010000
01000000
00000000
,  // measure 49
00100000
00000000
01000000
00000000
00100000
00100000
00100000
00000000
,  // measure 50
00010000
00100000
00001000
00010000
,  // measure 51
00000100
00000000
00001000
00000000
00000010
00000010
00000010
00000000
,  // measure 52
00001000
00000100
00000001
00000010
,  // measure 53
00001000
00000100
00001000
00000010
,  // measure 54
00001000
00000100
00010000
00001000
,  // measure 55
00011000
00000000
00000000
00010000
00000000
00000000
00011000
00000000
,  // measure 56
00000000
00001000
00000000
00000000
00001000
00010000
01000000
00010000
,  // measure 57
02000000
00000000
00000000
00000000
,  // measure 58
03000000
00000000
00000000
00000000
;

//---------------dance-double - Chewi----------------
#NOTES:
     dance-double:
     Chewi:
     Hard:
     10:
     0.383,0.492,0.305,0.102,0.000: // measure 1
00000000
00000000
00000000
00000000
,  // measure 2
00000000
00000000
00000000
00000000
,  // measure 3
00000000
00000000
00000000
00000000
,  // measure 4
00000000
00000000
00000000
00000000
,  // measure 5
10000000
01000000
00100000
00000000
00010000
00000000
01010000
00000000
,  // measure 6
00010000
00100000
00001000
00000000
00010000
00000000
00011000
00000000
,  // measure 7
00001010
00000000
00000000
00001001
00000000
00000000
00000101
00000000
,  // measure 8
00000000
00001001
00000000
00000000
00001000
00001000
00000001
00000001
,  // measure 9
00000200
00000000
00000000
00000000
,  // measure 10
00000000
00000000
00000000
00000000
,  // measure 11
00002300
00000000
00000000
00000000
,  // measure 12
00000000
00000000
00000000
00000000
,  // measure 13
00003020
00000000
00000000
00000000
,  // measure 14
00000000
00000000
00000000
00000000
,  // measure 15
00002030
00000000
00000000
00000000
,  // measure 16
00000000
00000000
00000000
00000000
,  // measure 17
00023000
00000000
00000000
00000000
,  // measure 18
00000000
00000000
00000000
00000000
,  // measure 19
01030000
10000000
01000000
00000000
,  // measure 20
11000000
00100000
00010000
00000000
01000000
00000000
00000000
00000000
,  // measure 21
01000000
00010000
00100000
00000000
,  // measure 22
00110000
00100000
00001000
00000000
00010000
00000000
00000000
00000000
,  // measure 23
00010000
00001000
00010000
00001000
00001000
00000010
00001000
00000010
,  // measure 24
00001000
00000001
00001000
00000001
00000100
00000001
00000100
00000001
,  // measure 25
00000100
00001010
00000100
00000011
,  // measure 26
00000100
00001000
00000100
00000000
00000100
00000001
00000100
00000000
,  // measure 27
00001000
00001100
00000100
00010100
,  // measure 28
00000100
00010000
00001000
00000000
00010000
00001000
00010000
00000000
,  // measure 29
00001000
00101000
00100000
00110000
,  // measure 30
00010000
01000000
10000000
00000000
10000000
00100000
00010000
00000000
,  // measure 31
10000000
00010000
01000000
00000000
00010000
10000000
00100000
00000000
,  // measure 32
01000000
01000000
01000000
00000000
00100000
00100000
00100000
00000000
,  // measure 33
10000000
11000000
00010000
01010000
,  // measure 34
10000000
00010000
01000000
00000000
00010000
10000000
00100000
00000000
,  // measure 35
10000000
10010000
00010000
00110000
,  // measure 36
00100000
00001000
00010000
00000000
00000100
00010000
00001000
00000000
,  // measure 37
00000010
00001000
00000100
00000000
00000010
00000001
00000100
00000000
,  // measure 38
00000010
00000010
00000100
00000000
00000100
00000100
00000010
00000000
,  // measure 39
00001000
00000010
00000100
00000001
00001000
00000010
00000100
00000001
,  // measure 40
00001000
00000100
00010000
00001000
00100000
00010000
01000000
10000000
,  // measure 41
00200000
10000000
01000000
10300000
,  // measure 42
20000000
00000000
01000000
00000000
00100000
00100000
30100000
00000000
,  // measure 43
00020000
00100000
01000000
10030000
,  // measure 44
20000000
00000000
00010000
00000000
01000000
01000000
31000000
00000000
,  // measure 45
00010000
00000000
01000000
00000000
00010000
00100000
00001000
00000000
,  // measure 46
00010000
00000000
00001000
00000000
00000010
00000001
00000010
00000000
,  // measure 47
00001000
00000000
00000100
00000000
00000001
00000100
00001000
00000000
,  // measure 48
00000010
00000000
00000100
00000000
00000010
00000100
00000001
00001000
,  // measure 49
00000100
00001100
00000100
00000101
,  // measure 50
00000001
00000100
00000010
00001000
00000100
00010000
00001000
00000000
,  // measure 51
00010000
00011000
00001000
01001000
,  // measure 52
00010000
01000000
00100000
00000000
01000000
00010000
00100000
01000000
,  // measure 53
10000000
11000000
00010000
01010000
,  // measure 54
00100000
00010000
01000000
00000000
01000000
00010000
00100000
00001000
,  // measure 55
00011000
00000000
00000000
00010100
00000000
00000000
00001100
00000000
,  // measure 56
00000000
00000101
00000000
00000000
00000011
00001010
00001000
00000010
,  // measure 57
00000002
00000000
00000000
00000000
,  // measure 58
00000003
00000000
00000000
00000000
;
