#VERSION:0.83;
#TITLE:ALL OVER U;
#SUBTITLE:;
#ARTIST:SNAKEHIPS;
#TITLETRANSLIT:;
#SUBTITLETRANSLIT:;
#ARTISTTRANSLIT:;
#GENRE:Dance/Electronic;
#ORIGIN:;
#TAGS:;
#CREDIT:chewi;
#BANNER:ALL OVER U.png;
#BACKGROUND:ALL OVER U-bg.png;
#PREVIEWVID:;
#JACKET:ALL OVER U-jacket.png;
#CDIMAGE:;
#DISCIMAGE:;
#LYRICSPATH:;
#CDTITLE:cdtitle.png;
#MUSIC:ALL OVER U.ogg;
#OFFSET:0.006000;
#SAMPLESTART:30.974001;
#SAMPLELENGTH:12.000000;
#SELECTABLE:YES;
#DISPLAYBPM:124.000000;
#BPMS:0.000000=123.975006;
#STOPS:60.000000=1.452000;
#DELAYS:;
#WARPS:;
#TIMESIGNATURES:0.000000=4=4;
#TICKCOUNTS:0.000000=4;
#COMBOS:0.000000=1;
#SPEEDS:0.000000=1.000000=0.000000=0;
#SCROLLS:0.000000=1.000000;
#FAKES:;
#LABELS:0.000000=Song Start;
#BGCHANGES:;
#KEYSOUNDS:;
#ATTACKS:
;

//---------------dance-single - ----------------
#NOTEDATA:;
#CHARTNAME:;
#CHARTHASH:1084101831:
#STEPSTYPE:dance-single;
#BANNER:;
#DESCRIPTION:;
#CHARTSTYLE:;
#DIFFICULTY:Beginner;
#METER:2;
#METERF:0.000000;
#RADARVALUES:0.099920,0.170815,0.073076,0.083515,0.000000,67.000000,60.000000,7.000000,8.000000,0.000000,0.000000,0.000000,0.000000,0.000000,0.099920,0.170815,0.073076,0.083515,0.000000,67.000000,60.000000,7.000000,8.000000,0.000000,0.000000,0.000000,0.000000,0.000000;
#CREDIT:;
#DISPLAYBPM:124.000000;
#NOTES:
// measure 0
0000
0000
0000
0000
,  // measure 1
0000
0000
0000
0000
,  // measure 2
0000
0000
0000
0000
,  // measure 3
0000
0000
0000
0000
,  // measure 4
1000
0000
0000
0000
,  // measure 5
0001
0000
0000
0000
,  // measure 6
0100
0000
0000
0000
,  // measure 7
0010
0000
0000
0000
,  // measure 8
2000
0000
0000
3000
,  // measure 9
1000
0000
0000
0000
,  // measure 10
0002
0000
0000
0003
,  // measure 11
0001
0000
0000
0000
,  // measure 12
0020
0000
0000
0030
,  // measure 13
0010
0000
0000
0000
,  // measure 14
0200
0000
0000
0300
,  // measure 15
0100
0100
0000
0100
,  // measure 16
0000
0010
0000
0010
,  // measure 17
0000
0001
0000
0001
,  // measure 18
0000
1000
0000
1000
,  // measure 19
0000
0010
0000
0010
,  // measure 20
0000
0100
0000
0100
,  // measure 21
0000
0001
0000
0001
,  // measure 22
0000
1000
0000
1000
,  // measure 23
0000
1001
0000
0000
,  // measure 24
0000
1000
0000
0000
,  // measure 25
0000
0001
0000
0000
,  // measure 26
0000
0010
0000
0000
,  // measure 27
0000
0100
0000
0000
,  // measure 28
0000
1000
0000
0000
,  // measure 29
0000
0010
0000
0000
,  // measure 30
0000
0100
0000
0000
,  // measure 31
0000
0200
0000
0000
,  // measure 32
0300
0100
0000
0100
,  // measure 33
0000
0020
0000
0000
,  // measure 34
0030
0010
0000
0010
,  // measure 35
0000
2000
0000
0000
,  // measure 36
3000
1000
0000
1000
,  // measure 37
0000
0002
0000
0000
,  // measure 38
0003
0001
0000
0001
,  // measure 39
0000
1001
0000
0000
,  // measure 40
0000
0110
0000
0000
,  // measure 41
0000
1001
0000
0000
,  // measure 42
0000
0001
0001
0001
,  // measure 43
0000
1001
0000
0000
,  // measure 44
0000
0110
0000
0000
,  // measure 45
0000
1001
0000
0000
,  // measure 46
0000
1000
1000
1000
;

//---------------dance-single - ----------------
#NOTEDATA:;
#CHARTNAME:;
#CHARTHASH:2147483647:
#STEPSTYPE:dance-single;
#BANNER:;
#DESCRIPTION:;
#CHARTSTYLE:;
#DIFFICULTY:Easy;
#METER:4;
#METERF:0.000000;
#RADARVALUES:0.186418,0.220793,0.010439,0.052197,0.000000,125.000000,124.000000,1.000000,5.000000,0.000000,0.000000,0.000000,0.000000,0.000000,0.186418,0.220793,0.010439,0.052197,0.000000,125.000000,124.000000,1.000000,5.000000,0.000000,0.000000,0.000000,0.000000,0.000000;
#CREDIT:;
#DISPLAYBPM:124.000000;
#NOTES:
// measure 0
0000
0000
0000
0000
,  // measure 1
0000
0000
0000
0000
,  // measure 2
0000
0000
0000
0000
,  // measure 3
0000
0000
0000
0000
,  // measure 4
2000
0000
0000
3000
,  // measure 5
0002
0000
0000
0003
,  // measure 6
0200
0000
0000
0300
,  // measure 7
0100
0100
0100
0000
,  // measure 8
0010
0000
1000
0000
,  // measure 9
0010
0000
0001
0000
,  // measure 10
0010
0000
1000
0000
,  // measure 11
0010
0000
0001
0000
,  // measure 12
1000
1000
1000
0000
,  // measure 13
0001
0001
0001
0000
,  // measure 14
0010
0010
0010
0000
,  // measure 15
0110
0200
0000
0000
,  // measure 16
0300
0100
0010
0100
,  // measure 17
0000
1000
0001
1000
,  // measure 18
0000
0001
0100
0001
,  // measure 19
0000
0002
0000
0000
,  // measure 20
0003
0001
0100
0001
,  // measure 21
0000
0100
0010
0100
,  // measure 22
0000
0010
1000
0010
,  // measure 23
0000
1000
0000
0000
,  // measure 24
1000
1000
0001
1000
,  // measure 25
0000
1000
0100
0010
,  // measure 26
0000
0100
0010
0001
,  // measure 27
0000
0001
1000
0001
,  // measure 28
0000
0100
0010
0100
,  // measure 29
0000
0100
0001
0100
,  // measure 30
0000
1000
0010
1000
,  // measure 31
0010
1000
1000
0100
,  // measure 32
0000
0001
0001
0100
,  // measure 33
0000
1000
1000
0010
,  // measure 34
0000
0001
0001
0010
,  // measure 35
0000
0001
0010
0100
,  // measure 36
0000
1000
0100
0010
,  // measure 37
0000
0001
1000
0010
,  // measure 38
0000
1000
0001
0010
,  // measure 39
0000
0001
0001
0001
,  // measure 40
0001
1000
1000
1000
,  // measure 41
1000
0001
0001
0001
,  // measure 42
0001
1000
0001
1000
,  // measure 43
0001
0100
0100
0100
,  // measure 44
0100
0010
0010
0010
,  // measure 45
0010
0100
0100
0100
,  // measure 46
0100
0010
0100
0010
,  // measure 47
0100
0000
0000
0000
;

//---------------dance-single - ----------------
#NOTEDATA:;
#CHARTNAME:;
#CHARTHASH:546385697:
#STEPSTYPE:dance-single;
#BANNER:;
#DESCRIPTION:;
#CHARTSTYLE:;
#DIFFICULTY:Medium;
#METER:8;
#METERF:0.000000;
#RADARVALUES:0.320639,0.466119,0.073076,0.219227,0.020879,215.000000,208.000000,7.000000,21.000000,0.000000,0.000000,0.000000,0.000000,0.000000,0.320639,0.466119,0.073076,0.219227,0.020879,215.000000,208.000000,7.000000,21.000000,0.000000,0.000000,0.000000,0.000000,0.000000;
#CREDIT:;
#DISPLAYBPM:124.000000;
#NOTES:
// measure 0
0000
0000
0000
0000
,  // measure 1
0000
0000
0000
0000
,  // measure 2
0000
0000
0000
0000
,  // measure 3
0000
0000
0000
0000
,  // measure 4
2000
0010
0000
3100
,  // measure 5
0002
0010
0000
0103
,  // measure 6
0200
1000
0000
0301
,  // measure 7
0020
1000
0000
0031
,  // measure 8
0010
0000
0001
0000
0010
0000
0001
0010
,  // measure 9
0001
0000
0100
0000
0001
0000
0100
0001
,  // measure 10
0100
0000
0010
0000
0100
0000
0010
0100
,  // measure 11
0020
2030
3002
0203
,  // measure 12
0302
0000
0000
0000
,  // measure 13
2003
0000
0000
0000
,  // measure 14
3200
0000
0000
0000
,  // measure 15
0300
0210
1000
0001
,  // measure 16
1300
1000
1000
0000
1001
0000
0001
0000
,  // measure 17
1001
0000
1000
0010
1000
0000
0001
0100
,  // measure 18
0001
0000
0100
0010
0100
0000
0010
0100
,  // measure 19
0010
0120
1000
0001
,  // measure 20
1030
1000
1000
0000
1001
0000
0001
0000
,  // measure 21
1001
0000
0001
0100
0001
0000
1000
0010
,  // measure 22
1000
0000
0010
0100
0010
0100
0001
1000
,  // measure 23
0001
0000
0000
1000
0000
0000
0100
0000
1000
0000
0100
0000
1000
0000
0001
0000
1000
0000
0001
0000
0000
0000
0000
0000
,  // measure 24
1000
0001
1001
0000
0001
0000
1000
0001
,  // measure 25
0100
0000
1000
0000
0100
0000
0001
0010
,  // measure 26
1000
0000
0001
0000
0010
0000
1000
0100
,  // measure 27
0001
0000
0010
1000
0100
0000
0100
0000
,  // measure 28
0010
0010
0010
0000
0001
0000
0010
0001
,  // measure 29
0100
0000
0001
0000
0100
0000
1000
0100
,  // measure 30
0001
0000
0001
1000
0001
1000
0100
0010
,  // measure 31
0100
1000
0010
0100
,  // measure 32
1000
0010
0001
0000
0100
0000
1000
0000
,  // measure 33
0010
0001
0100
0000
0010
0000
0001
0000
,  // measure 34
0100
0010
0001
0000
0100
0000
0010
0000
,  // measure 35
0100
0001
0001
0000
0100
0000
0010
0000
,  // measure 36
0001
0100
1000
0000
0010
0000
0001
0000
,  // measure 37
0100
1000
0010
0000
0100
0000
1000
0000
,  // measure 38
0010
0100
1000
0100
1000
0100
1000
0010
,  // measure 39
1000
2000
3010
0020
,  // measure 40
1030
0000
1000
0010
1000
0000
0001
0100
,  // measure 41
0001
0200
0301
0002
,  // measure 42
0103
0000
0100
0010
0100
0000
0010
0100
,  // measure 43
0010
2000
3001
0002
,  // measure 44
1003
0000
1000
0100
1000
0000
0100
1000
,  // measure 45
0100
0200
0310
0020
,  // measure 46
0130
0000
1000
0001
1000
0001
1000
0001
,  // measure 47
1000
0000
0000
0000
;

//---------------dance-single - ----------------
#NOTEDATA:;
#CHARTNAME:;
#CHARTHASH:2147483647:
#STEPSTYPE:dance-single;
#BANNER:;
#DESCRIPTION:;
#CHARTSTYLE:;
#DIFFICULTY:Hard;
#METER:11;
#METERF:0.000000;
#RADARVALUES:0.501091,0.515184,0.313182,0.000000,0.114833,336.000000,306.000000,30.000000,0.000000,0.000000,0.000000,0.000000,0.000000,0.000000,0.501091,0.515184,0.313182,0.000000,0.114833,336.000000,306.000000,30.000000,0.000000,0.000000,0.000000,0.000000,0.000000,0.000000;
#CREDIT:;
#DISPLAYBPM:124.000000;
#NOTES:
// measure 0
0000
0000
0000
0000
,  // measure 1
0000
0000
0000
0000
,  // measure 2
0000
0000
0000
0000
,  // measure 3
0000
0000
0000
0000
,  // measure 4
1000
0000
0000
0100
0000
0000
0000
0000
0000
0000
0000
0000
0000
0000
0000
0000
,  // measure 5
0010
0000
0010
0001
0000
0000
0000
0000
0000
0000
1000
0000
0010
0000
0100
0000
,  // measure 6
0001
0000
0001
0100
0000
0000
0000
0000
0000
0000
0000
0000
0010
0000
1000
0000
,  // measure 7
0001
0010
0100
1000
0001
1000
0001
0000
,  // measure 8
1000
0000
0000
0010
0000
0000
1000
0000
0000
0100
0000
0000
1000
0000
0000
0010
0000
0000
0100
0000
0001
0100
0000
0001
,  // measure 9
0100
0000
0000
0010
0000
0000
0100
0000
0000
0010
0000
0000
1000
0000
0000
0100
0000
0000
0010
0000
0001
0010
0000
0001
,  // measure 10
1000
0001
0010
0100
1000
0001
0010
0010
,  // measure 11
0100
1000
0010
0100
1000
0100
0010
1000
,  // measure 12
1100
0000
0000
1100
0000
0000
1100
0000
0000
0000
0100
0000
0000
0100
0000
0000
,  // measure 13
0110
0000
0000
0110
0000
0000
0110
0000
0000
0000
0010
0000
0000
0010
0000
0000
,  // measure 14
0011
0000
0000
0011
0000
0000
0011
0000
0000
0000
1000
0000
0010
0000
0001
0000
,  // measure 15
0100
0000
0110
1000
0100
0010
0001
0100
,  // measure 16
0010
0000
0100
0010
0000
0100
0010
0000
0000
0100
0000
0000
0101
0000
0000
0000
0000
0000
1000
0000
0000
0100
0000
0000
,  // measure 17
1100
0000
0100
1000
0001
0010
0010
0001
,  // measure 18
1000
0100
0100
1000
0010
0001
0100
1000
,  // measure 19
0010
0001
0110
0001
0010
0100
1000
0010
,  // measure 20
0100
0000
0010
0100
0000
0010
0100
0000
0000
0010
0000
0000
1010
0000
0000
0000
0000
0000
0001
0000
0000
0010
0000
0000
,  // measure 21
0011
0000
0010
0001
1000
0100
0100
1000
,  // measure 22
0001
0010
0011
0000
0101
0000
1100
0000
,  // measure 23
1010
0000
0000
0010
1000
0010
1000
0010
1000
0010
0000
0000
,  // measure 24
1000
0000
0100
1000
0000
0100
1000
0000
0000
0010
0000
0000
1010
0000
0000
0000
0000
0000
0001
0000
0000
0010
0000
0000
,  // measure 25
0011
0000
0010
0001
1000
0100
0100
1000
,  // measure 26
0001
0010
0010
0001
0100
1000
0010
0001
,  // measure 27
0100
1000
0110
1000
0100
0010
0001
0100
,  // measure 28
0010
0010
0010
0100
0101
0000
1000
0100
,  // measure 29
1100
0000
0100
1000
0001
0010
0010
0001
,  // measure 30
1000
0100
1100
0000
1010
0000
0011
0000
,  // measure 31
0101
0000
0001
0100
1000
0100
0001
1000
,  // measure 32
0100
0001
0100
1000
0010
0000
1000
0010
,  // measure 33
0001
0000
0010
0001
0100
0000
0001
0100
,  // measure 34
1000
0010
0001
0001
0010
0010
0100
0100
,  // measure 35
1000
1000
1000
0010
0001
0010
1000
0001
,  // measure 36
0010
1000
0010
0001
0100
0000
0001
0100
,  // measure 37
1000
0000
0100
1000
0010
0000
1000
0010
,  // measure 38
0001
0100
1000
1000
0100
0100
0010
0010
,  // measure 39
0001
0001
1001
1000
0100
0000
1000
0001
,  // measure 40
0100
0010
0100
0001
0010
0000
0001
0100
,  // measure 41
0010
1000
0100
0010
0100
0000
1000
0010
,  // measure 42
0100
0001
1000
0100
0010
0001
0010
0100
,  // measure 43
1000
0000
1001
0001
0010
0000
0001
1000
,  // measure 44
0010
0100
0010
1000
0100
0000
1000
0010
,  // measure 45
0100
0001
0010
0100
0010
0000
0001
0100
,  // measure 46
0010
1000
0001
0010
0100
1000
0001
1000
,  // measure 47
0001
0000
0000
0000
;
