#MENUCOLOR:;
#METERTYPE:DDR X;
#TITLE:ALL MY LOVE;
#SUBTITLE:;
#ARTIST:TOMOSUKE feat. Sabrina;
#TITLETRANSLIT:;
#SUBTITLETRANSLIT:;
#ARTISTTRANSLIT:;
#CREDIT:Chewi☆;
#BANNER:ALL MY LOVE.png;
#BACKGROUND:ALL MY LOVE-bg.png;
#LYRICSPATH:;
#CDTITLE:;
#MUSIC:ALL MY LOVE.mp3;
#OFFSET:-1.341;
#SAMPLESTART:74.970;
#SAMPLELENGTH:15.000;
#SELECTABLE:YES;
#DISPLAYBPM:132.000;
#BPMS:0.000=132.000,16.000=131.980;
#STOPS:;
#BGCHANGES:;

//---------------dance-single - Chewi----------------
#NOTES:
     dance-single:
     Chewi:
     Beginner:
     2:
     0.124,0.156,0.011,0.074,0.000:
0000
0000
0000
0000
,
0000
0000
0000
0000
,
0000
0000
0000
0000
,
0000
0000
0000
0000
,
1000
0000
0000
0000
,
0100
0000
0000
0000
,
0010
0000
0000
0000
,
0001
0000
0000
0000
,
0002
0000
0000
0000
,
0000
0000
0000
0003
,
0001
0000
0000
0000
,
0000
0000
0000
0000
,
2000
0000
0000
0000
,
0000
0000
0000
3000
,
1000
0000
0000
0000
,
0000
0000
0000
0000
,
0010
0000
1000
0000
,
0010
0000
1000
0000
,
0010
0000
0001
0000
,
0010
0000
0001
0000
,
0100
0000
0001
0000
,
0100
0000
0001
0000
,
0100
0000
1000
0000
,
0100
0000
1000
0000
,
2000
0000
0000
3000
,
1000
1000
1000
0000
,
0002
0000
0000
0003
,
0001
0001
0001
0000
,
0020
0000
0000
0030
,
0010
0010
0010
0000
,
0200
0000
0000
0300
,
0100
0100
0100
0000
,
0010
0000
0010
0000
,
0010
0000
0010
0000
,
0100
0000
0100
0000
,
0100
0000
0100
0000
,
1000
0000
1000
0000
,
1000
0000
1000
0000
,
0001
0000
0001
0000
,
0001
0000
0001
0000
,
0200
0000
0000
0300
,
0100
0000
0100
0100
,
0100
0000
0000
0000
,
0010
0000
0010
0010
,
0010
0000
0000
0000
,
1000
0000
1000
1000
,
1000
0000
0000
0000
,
0001
0000
0001
0001
,
0001
0000
0000
0000
,
1001
0000
0000
0000
;

//---------------dance-single - Chewi----------------
#NOTES:
     dance-single:
     Chewi:
     Easy:
     4:
     0.189,0.233,0.042,0.138,0.000:
0000
0000
0000
0000
,
0000
0000
0000
0000
,
0000
0000
0000
0000
,
0000
0000
0000
0000
,
2000
0000
0000
3000
,
1000
1000
1000
0000
,
0110
0000
1001
0000
,
0010
1000
0100
0001
,
0002
0000
0000
0000
,
0000
0003
0001
1000
,
0200
0000
0000
0300
,
0100
0100
0100
0000
,
2000
0000
0000
0000
,
0000
3000
1000
0001
,
0020
0000
0000
0030
,
0010
0010
0010
0000
,
0010
1000
0010
0000
,
0010
0001
0010
0000
,
0010
0100
0010
0000
,
0100
0010
0100
0000
,
0100
1000
0100
0000
,
0100
0001
0100
0000
,
0100
0010
0100
0000
,
0010
0100
0010
0000
,
0002
0000
1000
0000
,
2003
0000
0001
0000
,
3020
0000
0100
0000
,
0230
0000
0010
0000
,
0302
0000
0100
0000
,
2003
0000
0100
0000
,
3002
0000
0010
0000
,
2003
0000
0010
0000
,
3010
0010
0100
0000
,
0100
0000
0100
0000
,
0100
0100
0001
0000
,
0001
0000
0001
0000
,
0001
0010
1000
0000
,
0100
0000
1000
0000
,
1000
0100
0001
0000
,
0001
0000
0010
0000
,
1000
0000
0001
0000
,
1001
0000
0100
0100
,
0100
0000
0010
0100
,
0010
0000
1000
0000
,
0100
0000
0010
0000
,
1000
0001
1000
0001
,
1000
0000
0001
0000
,
0001
0000
0010
0000
,
0100
0001
0010
0000
,
0110
0000
0000
0000
;

//---------------dance-single - Chewi----------------
#NOTES:
     dance-single:
     Chewi:
     Medium:
     5:
     0.228,0.259,0.053,0.127,0.000:
0000
0000
0000
0000
,
0000
0000
0000
0000
,
0000
0000
0000
0000
,
0000
0000
0000
0000
,
0000
1000
0000
0001
0000
1000
0000
0001
,
0000
0100
0000
0010
0000
0100
0000
0010
,
0010
0000
1000
0000
,
0100
0001
0010
1000
,
2000
0000
0000
0000
,
0000
3000
0001
1000
,
0002
0000
0020
0000
,
0000
0033
0000
0000
,
0002
0000
0000
0000
,
0000
0003
1000
0010
,
0002
0000
0200
0303
,
0010
1000
0010
0000
1000
0000
0100
0000
,
0010
0000
0001
0000
,
0010
0000
0100
0000
,
1000
0000
0100
0000
,
0001
0000
0010
0000
,
0100
0000
0010
0000
,
1000
0000
0001
0000
,
0010
0000
0001
0000
,
0100
0000
0001
0000
,
0001
0001
0001
0000
1000
0000
0100
0000
,
0010
0001
0100
0010
,
0100
0100
0100
0000
0010
0000
1000
0000
,
1001
0000
0110
0000
,
0010
0010
0010
0000
0001
0000
0100
0000
,
1000
0010
0001
0010
,
0100
0100
0100
0000
0010
0000
0001
0000
,
0100
1000
0010
0100
,
0002
0000
1000
0000
,
0010
0000
1000
0100
,
2003
0000
0100
0000
,
0010
0001
0100
0001
,
3020
0000
0100
0000
,
1000
0000
0100
0001
,
0230
0000
0001
0000
,
0010
0010
0001
0301
,
2002
0000
0000
3003
,
0001
0000
0010
0000
0100
0000
1000
0100
,
0000
1000
0000
0000
1000
0000
0001
0000
,
0100
0010
1000
0001
,
1001
0000
0001
0010
,
0100
0000
1000
0000
0010
0000
0100
0010
,
0000
1000
0000
0000
0000
0000
0010
0000
,
1000
0100
0001
0010
,
0001
1000
0001
0000
1000
0000
0001
0000
,
1001
0000
0000
0000
;

//---------------dance-single - Chewi----------------
#NOTES:
     dance-single:
     Chewi:
     Hard:
     9:
     0.455,0.493,0.127,0.021,0.127:
0000
0000
0000
0000
,
0000
0000
0000
0000
,
0000
0000
0000
0000
,
0000
0000
0000
0000
,
0000
1000
0000
0100
0000
0001
0000
0010
,
0000
1000
0000
0010
0000
0001
0000
0100
,
0010
0000
0000
0100
0010
0000
0000
0000
,
0100
0010
1000
0100
0001
0010
0100
0010
,
0002
0100
1000
0010
,
0100
0000
0000
0000
0010
0003
0000
0000
0010
0000
0100
0000
1000
0000
0010
0000
,
0100
0000
0100
0001
0010
0000
0100
0000
,
0010
0010
0100
0100
0010
0001
0100
0010
,
2000
0001
0100
0001
,
0010
0000
0000
0000
0001
3000
0000
0000
0010
0000
0100
0000
0001
0000
0010
0000
,
0100
0000
0010
0100
0000
0010
0001
0000
,
0001
0001
1000
1000
0010
0100
0001
0100
,
0010
0000
0000
1000
0000
0000
0100
0000
0010
0000
0000
0001
0000
0000
0100
0000
,
0010
0000
0000
1010
0000
0000
0000
0000
0000
0000
0100
0000
1000
0000
0010
0000
,
0100
0001
0000
0000
0001
0010
0100
1000
,
0010
0101
0010
1100
,
0001
0000
0000
0010
0000
0000
0100
0000
1000
0000
0000
0010
0000
0000
0100
0000
,
0001
0000
0000
0100
0000
0000
0000
0000
0000
0000
0010
0000
1000
0000
0001
0010
,
0000
0100
0000
0000
0000
0000
0000
0000
0000
0000
0010
0000
0001
0000
1000
0000
,
0010
0010
0100
0100
0010
1000
0001
0010
,
0100
0000
0000
0100
1000
0000
0000
1000
0100
0000
0000
0100
1000
0000
0000
1000
,
0001
0100
0010
0100
0001
0010
0100
0010
,
0001
0000
0000
0001
0010
0000
0000
0010
0001
0000
0000
0001
0010
0000
0000
0000
,
0001
0100
0010
0000
0001
0100
0010
0000
,
0010
0000
0000
0010
1000
0000
0000
1000
0100
0000
0000
0100
1000
0000
1000
0000
,
0010
1000
0100
0000
0010
0001
0100
0000
,
0010
0000
0000
0010
0100
0000
0000
0100
0010
0000
0000
0010
0100
0000
0000
0100
,
0010
1000
0100
0010
0001
0100
0100
0001
,
0010
0000
0100
1000
0000
0010
0001
0100
,
0000
0010
0001
0100
0000
0010
1000
0001
,
0000
0010
0100
1000
0000
0100
0010
0001
,
0100
0010
0100
0000
0001
0010
1000
0100
,
0001
0010
0100
0000
0010
0001
0100
0010
,
0100
0001
0010
0000
0100
1000
0010
1000
,
0100
0100
0010
0010
0001
1000
1000
0001
,
0010
0010
0100
0000
0001
0001
0100
0000
,
0001
0100
0010
1000
0001
0000
0010
0000
0100
0000
1000
0000
0001
0000
1000
0000
,
1100
0000
0011
0000
0101
0000
0100
0010
,
1000
0001
0010
0000
0100
0100
0010
0010
,
0011
0000
0100
1000
0010
0001
0010
1000
,
0100
0010
0001
0100
0010
0010
0100
0100
,
0101
0000
0011
0000
1010
0000
1100
0100
,
1000
0010
0100
0000
0001
0100
0010
1000
,
0001
0010
0100
0000
0010
0100
0010
0001
,
0100
1000
0010
1000
0100
0001
0010
0100
,
0110
0000
0000
0000
;

//---------------dance-double - Chewi----------------
#NOTES:
     dance-double:
     Chewi:
     Hard:
     10:
     0.460,0.467,0.222,0.021,0.069: // measure 1
00000000
00000000
00000000
00000000
,  // measure 2
00000000
00000000
00000000
00000000
,  // measure 3
00000000
00000000
00000000
00000000
,  // measure 4
00000000
00000000
00000000
00000000
,  // measure 5
00000000
10000000
00000000
11000000
00000000
00010000
00000000
00110000
,  // measure 6
00000000
00001000
00000000
00011000
00000000
00001000
00000000
00001010
,  // measure 7
00000100
00000001
00000000
00000000
00000010
00000100
00000000
00000000
,  // measure 8
00001000
00000100
00000010
00000001
00000100
00000010
00001000
00000001
,  // measure 9
00002000
00000001
00000100
00000001
,  // measure 10
00000010
00000000
00003100
00000000
00000100
00001000
00000010
00001000
,  // measure 11
00000100
00010000
00001000
00100000
00010000
00000000
00110000
00000000
,  // measure 12
00010000
00010000
10000000
10000000
00100000
01000000
00010000
01000000
,  // measure 13
00200000
10000000
01000000
10000000
,  // measure 14
01000000
00000000
01300000
00000000
10000000
01000000
00100000
00010000
,  // measure 15
00100000
01000000
00100000
00000000
00010000
00000000
01010000
00000000
,  // measure 16
00010000
00010000
00100000
00001000
00010000
00000100
00001000
00000001
,  // measure 17
00000100
00000000
00000000
00000010
00000000
00000000
00001000
00000000
00000001
00000000
00000000
00000010
00000000
00000000
00000100
00000000
,  // measure 18
00001000
00000000
00000000
00000010
00000000
00000000
00000100
00000000
00000001
00000000
00000100
00000000
00000001
00000000
00000000
00000000
,  // measure 19
00000010
00000000
00000000
00001000
00000000
00000000
00000100
00000000
00010000
00000000
00000000
00001000
00000000
00000000
00100000
00000000
,  // measure 20
00010000
00100000
00010000
00100000
01000000
00100000
01000000
00100000
,  // measure 21
01000000
00000000
00000000
00100000
00000000
00000000
00010000
00000000
01000000
00000000
00000000
00100000
00000000
00000000
01000000
00000000
,  // measure 22
00010000
00000000
00000000
00100000
00000000
00000000
01000000
00000000
10000000
00000000
01000000
00000000
10000000
00000000
00000000
00000000
,  // measure 23
10000000
11000000
00010000
01010000
,  // measure 24
00100000
01000000
00010000
10000000
01000000
00100000
00010000
00000000
,  // measure 25
00100000
00010000
00001000
00000100
00000010
00000001
00000100
00000010
,  // measure 26
00001000
00000001
00000010
00000000
00000100
00000000
00000110
00000000
,  // measure 27
00000010
00000001
00000100
00000000
00000010
00001000
00000100
00000010
,  // measure 28
00000100
00001000
00000010
00000000
00001000
00001000
00000000
00000000
,  // measure 29
00000010
00001000
00010000
01000000
10000000
00100000
00010000
00100000
,  // measure 30
01000000
00100000
00010000
01000000
00100000
01000000
00010000
00000000
,  // measure 31
10000000
00010000
00100000
01000000
10000000
00100000
01000000
00010000
,  // measure 32
01000000
00100000
10000000
00000000
00010000
00100000
01000000
00000000
,  // measure 33
00110000
00000000
00000000
01010000
00000000
00000000
00000000
00110000
,  // measure 34
00000000
00000000
00000000
00101000
00000000
00000000
00000000
00011000
,  // measure 35
00000000
00000000
00000000
00001010
00000000
00000000
00000011
00000101
,  // measure 36
00000000
00000000
00000000
00000000
00000010
00001000
00000100
00001000
,  // measure 37
00000010
00000100
00000010
00000000
00001000
00000001
00000010
00000100
,  // measure 38
00001000
00000000
00000001
00000000
00001000
00000000
00000000
00000000
00000001
00000000
00000100
00000000
00000010
00001000
00000000
00000100
,  // measure 39
00000000
00010000
00000000
00001000
00000000
00000000
00100000
00000000
00010000
00000000
01000000
00000000
00100000
00000000
10000000
00000000
,  // measure 40
00010000
00010000
10000000
00000000
10000000
10000000
00010000
00000000
,  // measure 41
00010000
00100000
01000000
00000000
10000000
00000000
00100000
00000000
01000000
00000000
01000000
00000000
00100000
00000000
00100000
00000000
,  // measure 42
10100000
00000000
01010000
00000000
00110000
00000000
01000000
10000000
,  // measure 43
01000000
00010000
01000000
10000000
00100000
01000000
00010000
00100000
,  // measure 44
00001000
00010000
00000100
00001000
00000010
00000100
00000001
00000010
,  // measure 45
00000100
00000100
00000010
00000010
00000001
00001000
00000010
00000100
,  // measure 46
00000001
00000100
00000010
00001000
00000001
00000010
00000100
00001000
,  // measure 47
00000010
00000100
00000010
00000100
00000010
00001000
00000100
00001000
,  // measure 48
00000010
00001000
00000100
00010000
00001000
00100000
00010000
01000000
,  // measure 49
00100000
01000000
00010000
00100000
01000000
00100000
00010000
01000000
,  // measure 50
01010000
00000000
00000000
00000000
;

//---------------dance-double - Chewi----------------
#NOTES:
     dance-double:
     Chewi:
     Medium:
     5:
     0.266,0.285,0.127,0.021,0.000: // measure 1
00000000
00000000
00000000
00000000
,  // measure 2
00000000
00000000
00000000
00000000
,  // measure 3
00000000
00000000
00000000
00000000
,  // measure 4
00000000
00000000
00000000
00000000
,  // measure 5
00000000
10000000
00000000
00010000
00000000
01000000
00000000
00100000
,  // measure 6
00000000
10000000
00000000
00010000
00000000
00100000
00000000
00001000
,  // measure 7
00011000
00000000
00000000
00010000
00001000
00000000
00000000
00001000
,  // measure 8
00000010
00000100
00000001
00000000
00000010
00000000
00000100
00000000
,  // measure 9
00002000
00000000
00000000
00000000
,  // measure 10
00000000
00003000
00000001
00000010
,  // measure 11
00001000
00010000
01000000
10000000
,  // measure 12
00100000
00100000
00100000
00000000
01000000
00000000
00100000
00000000
,  // measure 13
20000000
00000000
00000000
00000000
,  // measure 14
00000000
30000000
01000000
00010000
,  // measure 15
00100000
00001000
00000010
00000001
,  // measure 16
00000100
00000100
00000100
00000000
00000010
00000010
00000010
00000000
,  // measure 17
00001000
00000000
00000001
00000000
,  // measure 18
00001001
00000000
00000000
00000001
,  // measure 19
00000100
00000000
00000000
00001000
,  // measure 20
00000100
00010000
00001000
00100000
,  // measure 21
00010000
00000000
10010000
00000000
,  // measure 22
01000000
00000000
00000000
00000000
,  // measure 23
00100000
10000000
01000000
00000000
,  // measure 24
00100000
00100000
00100000
00000000
01000000
00000000
00100000
00000000
,  // measure 25
00010000
01010000
00100000
00001000
,  // measure 26
00010000
00000100
00001000
00000001
,  // measure 27
00000100
00000101
00000100
00000110
,  // measure 28
00000010
00001000
00000001
00000010
,  // measure 29
00000100
00010100
00010000
00001000
,  // measure 30
00100000
01000000
10000000
00010000
,  // measure 31
01000000
10000000
00100000
00010000
,  // measure 32
00100000
00000000
01000000
00000000
10000000
00100000
01000000
00000000
,  // measure 33
00010000
00000000
00000000
10000000
00000000
00000000
00000000
00010000
,  // measure 34
00000000
00000000
00000000
00100000
00000000
00000000
00000000
00001000
,  // measure 35
00000000
00000000
00000000
00010000
00000000
00000000
00000000
00000010
,  // measure 36
00000000
00000001
00000100
00001000
,  // measure 37
00000010
00000000
00001000
00000000
00000100
00001000
00000100
00000000
,  // measure 38
00010000
00001000
00100000
10000000
,  // measure 39
01000000
00010000
00100000
01000000
,  // measure 40
10000000
00000000
10010000
00000000
,  // measure 41
00010000
10000000
00010000
00000000
00100000
00000000
01000000
00000000
,  // measure 42
11000000
00000000
00100000
00000000
00010000
00000000
01000000
01000000
,  // measure 43
00000000
01000000
00000000
00000000
01000000
00000000
00010000
00000000
,  // measure 44
00100000
00001000
00010000
00001000
,  // measure 45
00000010
00000000
00000001
00000000
00000100
00000010
00001000
00000000
,  // measure 46
00000001
00000000
00000010
00000000
00000100
00000000
00001000
00000001
,  // measure 47
00001000
00000010
00000100
00000001
,  // measure 48
00000100
00001010
00000100
00000011
,  // measure 49
00001000
00000001
00001000
00000000
00000100
00000000
00010000
00000000
,  // measure 50
00011000
00000000
00000000
00000000
;

//---------------dance-double - Chewi----------------
#NOTES:
     dance-double:
     Chewi:
     Easy:
     4:
     0.198,0.233,0.042,0.085,0.000: // measure 1
00000000
00000000
00000000
00000000
,  // measure 2
00000000
00000000
00000000
00000000
,  // measure 3
00000000
00000000
00000000
00000000
,  // measure 4
00000000
00000000
00000000
00000000
,  // measure 5
10000000
00000000
01000000
00000000
,  // measure 6
00010000
00000000
00100000
00000000
,  // measure 7
01100000
00000000
10010000
00000000
,  // measure 8
00010000
00001000
00000010
00000001
,  // measure 9
00000002
00000000
00000000
00000000
,  // measure 10
00000000
00000003
00000100
00000010
,  // measure 11
00001000
00000000
00001000
00000000
,  // measure 12
00000100
00000000
00000100
00010000
,  // measure 13
00002000
00000000
00000000
00000000
,  // measure 14
00000000
00003000
00010000
01000000
,  // measure 15
10000000
00000000
00100000
00000000
,  // measure 16
00010000
10000000
00010000
00000000
,  // measure 17
20000000
00000000
00100000
00000000
,  // measure 18
00200000
30300000
00000000
00100000
,  // measure 19
01000000
00000000
00000000
01000000
,  // measure 20
00010000
00100000
01000000
00100000
,  // measure 21
00020000
00000000
01000000
00000000
,  // measure 22
20000000
30030000
00000000
00100000
,  // measure 23
01000000
00000000
00000000
00100000
,  // measure 24
00010000
00001000
00000010
00000001
,  // measure 25
00000100
00000100
00000100
00000000
,  // measure 26
00000010
00000010
00000010
00000000
,  // measure 27
00001000
00001000
00001000
00000000
,  // measure 28
00000001
00001000
00001001
00000000
,  // measure 29
00000100
00000100
00000100
00000000
,  // measure 30
00001000
00001000
00001000
00000000
,  // measure 31
00100000
00100000
00100000
00000000
,  // measure 32
10000000
01000000
00010000
01000000
,  // measure 33
00100000
00000000
10000000
00000000
,  // measure 34
00010000
00000000
00100000
00000000
,  // measure 35
00001000
00000000
00010000
00000000
,  // measure 36
00000010
00000000
00001000
00000100
,  // measure 37
00000001
00000000
00000010
00000000
,  // measure 38
00001000
00000000
00000100
00000000
,  // measure 39
00000010
00000000
00001000
00000000
,  // measure 40
00010000
00000000
01000000
00000000
,  // measure 41
01000000
10000000
00010000
00100000
,  // measure 42
01000000
01000000
01000000
01000000
,  // measure 43
02000000
00000000
00000000
03000000
,  // measure 44
00100000
00100000
00100000
00100000
,  // measure 45
00200000
00000000
00000000
00300000
,  // measure 46
00010000
00100000
00010000
01000000
,  // measure 47
00010000
00100000
00001000
00000010
,  // measure 48
00000001
00000100
00000001
00000010
,  // measure 49
00000100
00001000
00010000
00001000
,  // measure 50
00011000
00000000
00000000
00000000
;
