#TITLE:ALL I NEED YOUR LOVE;
#SUBTITLE:;
#ARTIST:GUHROOVY fw. M-PROJECT;
#TITLETRANSLIT:;
#SUBTITLETRANSLIT:;
#ARTISTTRANSLIT:;
#GENRE:;
#CREDIT:Chewphoria~;
#MENUCOLOR:;
#METERTYPE:DDR;
#BANNER:ALL I NEED YOUR LOVE.PNG;
#BACKGROUND:ALL I NEED YOUR LOVE-bg.png;
#LYRICSPATH:;
#CDTITLE:;
#MUSIC:ALL I NEED YOUR LOVE.mp3;
#OFFSET:-4.544;
#SAMPLESTART:31.014;
#SAMPLELENGTH:15.000;
#SELECTABLE:YES;
#LISTSORT:;
#DISPLAYBPM:145.000;
#BPMS:0.000=145.010;
#STOPS:;
#BGCHANGES:-12.464=ALL I NEED YOUR LOVE.avi=1.000=1=0=0,
271.000=ALL I NEED YOUR LOVE-bg.png=1.000=1=0=1,
99999=-nosongbg-=1.000=0=0=0 // don't automatically add -songbackground-
;
#ATTACKS:;

//---------------dance-single - Chewphoria~----------------
#NOTES:
     dance-single:
     Chewphoria~:
     Easy:
     6:
     0.280,0.304,0.117,0.159,0.000: // measure 1
1000
0100
0100
0000
,  // measure 2
0001
0100
0100
0000
,  // measure 3
1000
0010
0010
0000
,  // measure 4
0001
0010
0010
0000
,  // measure 5
1000
0001
1000
0000
,  // measure 6
0010
0100
0010
0000
,  // measure 7
0100
0010
0100
0000
,  // measure 8
0001
1000
0001
0000
,  // measure 9
2002
0000
0000
0000
,  // measure 10
0000
0000
0000
3003
,  // measure 11
2000
0000
0000
3000
,  // measure 12
0001
1000
1001
0000
,  // measure 13
0100
0100
1000
1000
,  // measure 14
0010
0010
0001
0001
,  // measure 15
0100
0100
0001
0001
,  // measure 16
2000
0000
0000
3001
,  // measure 17
0010
0010
0100
0100
,  // measure 18
0010
0100
0010
0100
,  // measure 19
1000
1000
0001
0001
,  // measure 20
1000
0001
1000
0001
,  // measure 21
0100
0001
0100
0001
,  // measure 22
0100
0100
1000
1000
,  // measure 23
0100
1000
0100
1000
,  // measure 24
0010
0010
1000
1000
,  // measure 25
0010
0100
0001
0100
,  // measure 26
0010
0100
1000
0010
,  // measure 27
1000
0100
0010
1000
,  // measure 28
1000
0100
0001
0010
,  // measure 29
0010
0001
0100
0010
,  // measure 30
0010
0001
0100
0010
,  // measure 31
1000
0100
0010
1000
,  // measure 32
0100
0010
1001
0000
,  // measure 33
1000
1000
0001
0001
,  // measure 34
0110
0000
0110
0000
,  // measure 35
0010
0010
0100
0100
,  // measure 36
1001
0000
1001
1001
,  // measure 37
1000
1000
0100
0100
,  // measure 38
0011
0000
0100
0100
,  // measure 39
0010
1000
0100
0001
,  // measure 40
0010
1000
0100
0010
,  // measure 41
0022
0000
0000
0030
,  // measure 42
2000
0003
0000
0000
,  // measure 43
3200
0000
0000
0000
,  // measure 44
1300
1001
0001
1001
,  // measure 45
0200
0000
0000
0000
,  // measure 46
0320
0000
0000
0000
,  // measure 47
2030
0000
0000
0000
,  // measure 48
3001
1001
1000
0000
,  // measure 49
1000
0100
0010
0001
,  // measure 50
1000
0100
0010
0001
,  // measure 51
1000
0010
0100
0001
,  // measure 52
1000
0010
0100
0001
,  // measure 53
0001
0010
0100
1000
,  // measure 54
0001
0010
0100
1000
,  // measure 55
0001
0100
0010
1000
,  // measure 56
0001
0100
0010
1000
,  // measure 57
0002
1000
0010
2000
,  // measure 58
0000
0000
0000
3003
,  // measure 59
2000
0001
0010
0001
,  // measure 60
0002
0000
0000
3003
,  // measure 61
0002
0100
1000
0020
,  // measure 62
0000
0000
0000
0033
,  // measure 63
2000
0010
0100
0001
,  // measure 64
0020
0000
0000
3030
,  // measure 65
1010
0000
0000
0000
,  // measure 66
0000
0000
0000
0000
0100
0000
0000
0001
,  // measure 67
0001
0000
0000
0000
;

//---------------dance-single - Chewphoria~----------------
#NOTES:
     dance-single:
     Chewphoria~:
     Medium:
     9:
     0.404,0.427,0.318,0.142,0.050: // measure 1
1000
0100
0001
0100
,  // measure 2
1000
0001
0010
1000
,  // measure 3
0100
0001
0100
1000
,  // measure 4
0010
0000
0000
0000
0100
0000
0000
0000
0110
0000
0000
0010
0000
0000
0010
0000
,  // measure 5
0001
0010
1000
0010
,  // measure 6
0001
1000
0100
0001
,  // measure 7
0010
1000
0010
0001
,  // measure 8
0100
0001
1000
0000
0100
1000
0001
0000
,  // measure 9
2002
0000
0000
0000
,  // measure 10
0000
0000
0000
3003
,  // measure 11
0020
0000
0000
0030
,  // measure 12
0010
0000
0000
0010
0000
0000
0010
0000
0000
0000
0000
0000
0000
0000
0000
0000
,  // measure 13
0010
1000
0100
0000
1000
0000
1100
0000
,  // measure 14
0010
0001
0100
0000
0001
0000
0101
0000
,  // measure 15
1000
0100
1000
0000
0001
0100
0001
0000
,  // measure 16
0100
0200
0000
0000
0000
0000
0310
0000
,  // measure 17
0010
1000
0010
0000
1000
0000
1100
0000
,  // measure 18
0010
0001
0010
0000
0001
0000
0101
0000
,  // measure 19
0100
1000
0100
0000
1000
0000
1010
0000
,  // measure 20
0100
0001
0100
0000
0001
0000
0011
0000
,  // measure 21
1000
0100
1000
0000
0001
0000
0101
0000
,  // measure 22
0001
0100
0001
0000
1000
0000
1100
0000
,  // measure 23
1000
0001
1000
0000
0001
1000
0001
0000
,  // measure 24
0210
0001
0010
1300
,  // measure 25
1000
0100
0010
0000
0001
0000
0011
0000
,  // measure 26
0001
0100
0010
0000
1000
0000
1010
0000
,  // measure 27
1000
0001
0100
0000
0010
0000
0110
0000
,  // measure 28
1000
0001
0010
0000
0100
0000
0110
0000
,  // measure 29
0010
0001
1000
0000
0100
0000
1100
0000
,  // measure 30
0010
1000
0001
0000
0100
0000
0101
0000
,  // measure 31
1000
0001
1000
0000
0001
1000
0001
0000
,  // measure 32
0100
0000
0000
0100
0000
0000
0100
0000
0001
0000
0000
0000
0000
0000
0000
0000
,  // measure 33
2000
3100
0002
0013
,  // measure 34
1001
0000
0000
0000
,  // measure 35
2000
3010
0002
0013
,  // measure 36
1001
0000
0000
0000
,  // measure 37
2000
3100
0002
0103
,  // measure 38
1001
0000
0000
0000
,  // measure 39
0200
0310
0200
0310
,  // measure 40
0110
0000
0000
0000
,  // measure 41
0010
0000
0000
0000
1000
0000
0000
0000
0100
0000
0000
0100
0000
0000
0100
0000
,  // measure 42
0001
0000
0000
0000
0010
0000
0000
0000
0010
0000
0000
0010
0000
0000
0010
0000
,  // measure 43
0010
0000
0000
0000
1000
0000
0000
0000
0100
0000
0000
0100
0000
0000
0100
0000
,  // measure 44
1000
0000
0000
0001
0000
0000
1000
0000
1000
0000
0000
0001
0000
0000
1000
0000
,  // measure 45
1000
0000
0000
0000
0010
0000
0000
0000
0100
0000
0000
0100
0000
0000
0100
0000
,  // measure 46
0001
0000
0000
0000
0010
0000
0000
0000
1000
0000
0000
1000
0000
0000
1000
0000
,  // measure 47
1000
0001
1001
1000
,  // measure 48
1000
0000
0000
1000
0000
0000
1000
0000
0100
0000
0000
0100
0000
0000
0100
0000
,  // measure 49
1000
0010
0100
0000
0001
0000
0101
0000
,  // measure 50
0001
0010
0100
0000
0100
0000
1100
0000
,  // measure 51
1000
0100
1000
0000
0100
0000
0110
0000
,  // measure 52
0001
0100
0001
0000
0100
0000
0110
0000
,  // measure 53
0010
0100
1000
0000
1000
0100
0010
0000
,  // measure 54
0010
0100
0001
0000
0001
0100
0010
0000
,  // measure 55
1000
0100
0010
0000
0001
0100
0010
0000
,  // measure 56
1001
1001
0110
0110
,  // measure 57
1000
0010
0100
0000
0001
0000
1001
0000
,  // measure 58
1000
0100
0010
0000
0001
0000
0000
0000
,  // measure 59
0001
0010
0100
0000
1000
0000
0001
0000
,  // measure 60
0101
0010
1010
0100
,  // measure 61
0010
0001
0010
0000
0100
0000
1100
0000
,  // measure 62
1000
0100
1000
0000
0001
0000
1001
0000
,  // measure 63
1000
0010
1000
0000
0010
0000
0110
0000
,  // measure 64
0100
0001
0100
0000
0001
0000
0000
0000
,  // measure 65
0202
0000
0000
0000
,  // measure 66
0000
0000
0000
0303
1000
0000
0000
1000
,  // measure 67
2002
0000
0000
0000
,  // measure 68
0000
0000
0000
0000
,  // measure 69
3003
0000
0000
0000
;

//---------------dance-single - Chewphoria~----------------
#NOTES:
     dance-single:
     Chewphoria~:
     Hard:
     12:
     0.602,0.627,0.444,0.151,0.151: // measure 1
1000
0010
1000
0100
1000
0010
1000
0100
,  // measure 2
0001
0010
0001
0100
0001
0010
0001
0100
,  // measure 3
1000
0010
1000
0100
1000
0010
1000
0100
,  // measure 4
0001
0000
0010
0000
0001
0000
0100
0000
1001
0000
0000
1001
0000
0000
1001
0000
,  // measure 5
0001
0100
0001
0010
0001
0100
0001
0010
,  // measure 6
1000
0100
1000
0010
1000
0100
1000
0010
,  // measure 7
0001
0100
0001
0010
0001
0100
0001
0010
,  // measure 8
1000
0100
1000
0010
0001
0010
1000
0001
,  // measure 9
2002
0000
0000
0000
,  // measure 10
0000
0000
0000
0003
,  // measure 11
0200
0000
0000
3300
,  // measure 12
1000
0000
0000
0100
0000
0000
0001
0000
0010
0000
1000
0000
0010
0000
0000
0000
,  // measure 13
0100
1100
0100
0101
,  // measure 14
0010
1010
0010
0011
,  // measure 15
0100
1100
0100
0101
,  // measure 16
0001
2000
0000
0000
0000
0001
3001
0000
,  // measure 17
0001
0010
0001
0100
0001
0010
0001
0100
,  // measure 18
0001
0010
0001
0100
0010
0100
0010
0100
,  // measure 19
0010
1000
0100
1000
0010
1000
0100
1000
,  // measure 20
0010
1000
0100
0010
0100
0010
0100
0010
,  // measure 21
0100
1000
0010
1000
0100
1000
0010
1000
,  // measure 22
0100
1000
0010
0100
0010
0100
0010
0100
,  // measure 23
0010
0001
0100
0010
0001
0100
0010
1000
,  // measure 24
1001
0000
0000
1001
0000
0000
1001
0000
0000
0000
0101
0000
1010
0000
0000
0000
,  // measure 25
1000
0010
1000
0100
1000
0001
1000
0001
,  // measure 26
0001
0010
0001
0100
0001
1000
0001
1000
,  // measure 27
0010
1000
0100
1000
0001
1000
0001
1000
,  // measure 28
0010
1000
0001
1000
0100
1000
0100
1000
,  // measure 29
0001
1000
0001
1000
0001
0100
0001
0100
,  // measure 30
0001
0010
0001
0010
0001
1000
0001
1000
,  // measure 31
1000
0100
1000
0100
1000
0001
1000
0001
,  // measure 32
1001
0000
0000
2000
0000
0000
0000
0000
3001
0000
0000
0000
0000
0000
0000
0000
,  // measure 33
2000
0010
3100
0000
0002
0100
0013
0000
,  // measure 34
1001
1001
0000
0000
0100
0100
0100
0000
,  // measure 35
0020
1000
0130
0000
0020
0001
0130
0000
,  // measure 36
1000
0100
1000
0000
0100
0000
0101
0000
,  // measure 37
0020
1000
0130
0000
0020
0001
0130
0000
,  // measure 38
1000
0001
1000
0000
0001
1000
0001
0000
,  // measure 39
0020
1000
0130
0000
0020
0001
0130
0000
,  // measure 40
1000
0001
1000
0001
0010
0100
0010
0100
,  // measure 41
0010
0000
0001
0000
0100
0000
1000
0000
0010
0000
0000
0010
0000
0000
0010
0000
,  // measure 42
0010
0000
1000
0000
0100
0000
0001
0000
0010
0000
0000
0010
0000
0000
0010
0000
,  // measure 43
0010
0000
1000
0000
0100
0000
0001
0000
0010
0000
0000
0010
0000
0000
0010
0000
,  // measure 44
1010
0000
0000
1010
0000
0000
1010
0000
0101
0000
0000
0101
0000
0000
0101
0000
,  // measure 45
0001
0000
0100
0000
0010
0000
1000
0000
0010
0000
1000
0010
0000
1000
0010
0000
,  // measure 46
1000
0000
0100
0000
0010
0000
0001
0000
0010
0000
0001
0010
0000
0001
0010
0000
,  // measure 47
1000
0000
0001
0000
0100
0000
0010
0000
1000
0000
0001
1000
0000
0001
1000
0000
,  // measure 48
0101
0000
0000
0101
0000
0000
0101
0000
1010
0000
0000
1010
0000
0000
1010
0000
,  // measure 49
1000
0000
0010
0000
0100
0000
0001
0000
0100
0000
0010
1000
0000
1000
0010
0000
,  // measure 50
0001
0000
0010
0000
0100
0000
1000
0000
0100
0000
0010
0001
0000
0001
0010
0000
,  // measure 51
0001
0000
0010
0000
0100
0000
1000
0000
0001
0000
0100
0001
0000
0001
0100
0000
,  // measure 52
1000
0000
0010
0000
1000
0000
0001
0000
1001
0000
0000
1001
0000
0000
1001
0000
,  // measure 53
1000
0000
0010
0000
0100
0000
0001
0000
0010
0000
0100
1000
0000
0100
1000
0000
,  // measure 54
0100
0000
1000
0000
0010
0000
0100
0000
0001
0000
0001
0100
0000
0001
0100
0000
,  // measure 55
0010
0000
1000
0000
0001
0000
0010
0000
0100
0000
1000
0100
0000
1000
0100
0000
,  // measure 56
1001
0000
0000
1001
0000
0000
1001
0000
0110
0000
0000
0110
0000
0000
0110
0000
,  // measure 57
1000
0010
0100
0001
0100
0010
2000
0000
,  // measure 58
0000
0001
0000
3001
0000
0000
0000
0000
,  // measure 59
0001
0010
0100
1000
0010
0100
0001
0100
,  // measure 60
0101
0000
0000
0101
0000
0000
0101
0000
1010
0000
0000
1010
0000
0000
1010
0000
,  // measure 61
1000
0010
0100
0001
0100
0010
2000
0000
,  // measure 62
0000
0001
0000
3001
0000
0000
0000
0000
,  // measure 63
0001
0010
0100
1000
0010
0100
0001
0100
,  // measure 64
1010
0000
0000
1010
0000
0000
1010
0000
1001
0000
0000
1001
0000
0000
1001
0000
,  // measure 65
0200
0000
0000
0000
,  // measure 66
0000
0000
0000
0000
0310
0000
0000
1000
,  // measure 67
2002
0000
0000
0000
,  // measure 68
0000
0000
0000
0000
,  // measure 69
3003
0000
0000
0000
;

//---------------dance-single - Chewphoria~----------------
#NOTES:
     dance-single:
     Chewphoria~:
     Beginner:
     3:
     0.189,0.221,0.101,0.059,0.000: // measure 1
1000
1000
1000
0000
,  // measure 2
1000
1000
1000
0000
,  // measure 3
1000
1000
1000
0000
,  // measure 4
1000
1000
1001
0000
,  // measure 5
0001
0001
0001
0000
,  // measure 6
0001
0001
0001
0000
,  // measure 7
0001
0001
0001
0000
,  // measure 8
0001
0000
1000
0000
,  // measure 9
2002
0000
0000
0000
,  // measure 10
0000
0000
0000
3003
,  // measure 11
0200
0000
0000
0000
,  // measure 12
0000
0000
0000
0300
,  // measure 13
0000
0010
0000
0100
,  // measure 14
0000
1000
0000
0001
,  // measure 15
0000
0010
0000
0100
,  // measure 16
0100
0000
0000
0000
,  // measure 17
1000
1000
1000
0000
,  // measure 18
0001
0001
0001
0000
,  // measure 19
0100
0100
0100
0000
,  // measure 20
0010
0010
0010
0000
,  // measure 21
1000
1000
1000
0000
,  // measure 22
0001
0001
0001
0000
,  // measure 23
0010
0010
0010
0000
,  // measure 24
0100
0100
0100
0000
,  // measure 25
1000
1000
1000
0000
,  // measure 26
0001
0001
0001
0000
,  // measure 27
1000
1000
1000
0000
,  // measure 28
0001
0001
0001
0000
,  // measure 29
0100
0100
0100
0000
,  // measure 30
0010
0010
0010
0000
,  // measure 31
1000
1000
1000
0000
,  // measure 32
1001
0000
0000
0000
,  // measure 33
1000
0000
0001
0000
,  // measure 34
0001
0000
0000
0000
,  // measure 35
0001
0000
1000
0000
,  // measure 36
1000
0000
0000
0000
,  // measure 37
0010
0000
0100
0000
,  // measure 38
0100
0000
0000
0000
,  // measure 39
0100
0000
0010
0000
,  // measure 40
0010
0000
0000
0000
,  // measure 41
2000
0000
0000
3000
,  // measure 42
0001
0000
0000
0000
,  // measure 43
0002
0000
0000
0003
,  // measure 44
1000
0000
1001
0000
,  // measure 45
0200
0000
0000
0300
,  // measure 46
0010
0000
0000
0000
,  // measure 47
0020
0000
0000
0030
,  // measure 48
0110
0000
0110
0000
,  // measure 49
1000
1000
1000
0000
,  // measure 50
1000
0000
1001
0000
,  // measure 51
0001
0001
0001
0000
,  // measure 52
0001
0000
1001
0000
,  // measure 53
0100
0100
0100
0000
,  // measure 54
0100
0000
0110
0000
,  // measure 55
0010
0010
0010
0000
,  // measure 56
0010
0000
0110
0000
,  // measure 57
1000
1000
0001
0001
,  // measure 58
0000
0000
0000
0000
,  // measure 59
0001
0001
1000
1000
,  // measure 60
0000
0000
0000
0000
,  // measure 61
1000
1000
0001
0001
,  // measure 62
0000
0000
0000
0000
,  // measure 63
0001
0001
1000
1000
,  // measure 64
0000
0000
0000
0000
,  // measure 65
0110
0000
0000
0000
,  // measure 66
0000
0000
1001
0000
,  // measure 67
1000
0000
0000
0000
;
