#TITLE:ALL I ASK OF YOU;
#SUBTITLE:;
#ARTIST:SKRILLEX feat.PENNY;
#TITLETRANSLIT:;
#SUBTITLETRANSLIT:;
#ARTISTTRANSLIT:;
#CREDIT:Chewi☆;
#BANNER:ALL I ASK OF YOU.png;
#BACKGROUND:ALL I ASK OF YOU-bg.png;
#LYRICSPATH:;
#CDTITLE:;
#MUSIC:ALL I ASK OF YOU.mp3;
#OFFSET:-0.525;
#SAMPLESTART:76.115;
#SAMPLELENGTH:15.000;
#SELECTABLE:YES;
#DISPLAYBPM:127.000;
#BPMS:0.000=127.000;
#STOPS:;
#BGCHANGES:;

//---------------dance-single - Chewi----------------
#NOTES:
     dance-single:
     Chewi:
     Hard:
     9:
     0.312,0.354,0.081,0.099,0.000: // measure 1
0000
0000
0000
0000
,  // measure 2
0000
0000
0000
0000
,  // measure 3
0000
0000
0000
0000
,  // measure 4
0000
0000
0000
0000
,  // measure 5
1000
0100
0010
0001
,  // measure 6
1000
0010
0100
0001
,  // measure 7
1000
0000
1001
0000
0000
0001
1000
0001
,  // measure 8
0000
1000
0000
0010
0100
0001
0100
0010
,  // measure 9
1000
0100
0001
0010
,  // measure 10
0001
0100
1000
0010
,  // measure 11
0100
0010
0100
0000
0010
0000
1001
0000
,  // measure 12
1000
0001
1000
0000
0001
0000
0101
0000
,  // measure 13
1000
0100
0010
1000
,  // measure 14
0100
0001
0010
0100
,  // measure 15
0001
0010
0100
0000
1000
0010
0100
0000
,  // measure 16
0001
0001
1100
1100
,  // measure 17
1000
0100
0010
0001
,  // measure 18
0001
0100
0010
1000
,  // measure 19
0001
1000
0010
0000
0100
0000
0010
0000
,  // measure 20
1000
0001
0100
0000
1000
0000
0100
0000
,  // measure 21
0010
0000
0010
0000
0001
0010
0100
0000
,  // measure 22
0100
0000
0100
0000
1000
0010
0100
0000
,  // measure 23
0001
0001
1100
1100
,  // measure 24
1000
0010
0001
0000
0001
0100
1000
0000
,  // measure 25
2002
0000
0000
3000
,  // measure 26
0200
0000
0000
0003
,  // measure 27
0020
0000
0000
0300
,  // measure 28
2000
0000
0000
0030
,  // measure 29
0002
0000
0000
3000
,  // measure 30
0020
0000
0000
0003
,  // measure 31
0200
0000
0000
0030
,  // measure 32
2000
0000
0000
3300
,  // measure 33
0010
0000
0010
0000
0100
0010
0100
0000
,  // measure 34
0100
0000
0100
0000
0010
0100
0010
0000
,  // measure 35
1000
0100
0010
0001
,  // measure 36
1000
0100
0010
0001
,  // measure 37
1000
0000
0001
0000
1000
0001
0100
0000
,  // measure 38
0001
0000
1000
0000
0001
1000
0010
0000
,  // measure 39
0100
0010
1000
0100
,  // measure 40
0001
0010
0100
0001
,  // measure 41
1000
0001
0000
0000
0000
0001
1000
0010
,  // measure 42
0000
0100
0000
0001
0010
0100
1000
0010
,  // measure 43
1000
0100
0000
0000
0000
0010
0100
0010
,  // measure 44
0000
0001
0000
0100
0010
1000
0001
0100
,  // measure 45
0010
0100
0000
0000
0000
0001
1000
0001
,  // measure 46
0000
1000
0000
0100
0000
0010
0001
0010
,  // measure 47
0100
1000
0000
0000
0000
1000
0010
0100
,  // measure 48
0000
0001
0100
0100
0010
1000
0001
0000
,  // measure 49
1000
0100
0000
0000
0000
1000
0100
0010
,  // measure 50
0000
0001
0000
0100
1000
0010
1000
0100
,  // measure 51
0010
0001
0000
0000
0000
0100
0010
0100
,  // measure 52
0000
0010
0000
0010
1000
0010
1000
0100
,  // measure 53
0010
0001
0000
0000
0000
0001
0010
0100
,  // measure 54
0000
1000
0000
0010
0000
0100
0010
1000
,  // measure 55
2002
0000
0000
3003
,  // measure 56
0001
0001
1000
1000
0001
0001
1000
1000
,  // measure 57
0001
0000
0000
0000
;

//---------------dance-single - Chewi----------------
#NOTES:
     dance-single:
     Chewi:
     Medium:
     6:
     0.250,0.303,0.018,0.063,0.000: // measure 1
0000
0000
0000
0000
,  // measure 2
0000
0000
0000
0000
,  // measure 3
0000
0000
0000
0000
,  // measure 4
0000
0000
0000
0000
,  // measure 5
1000
1000
1000
1000
,  // measure 6
0001
0001
0001
0001
,  // measure 7
2002
0000
3003
0000
0000
1000
1000
1000
,  // measure 8
0000
0001
0000
0001
0000
0001
1000
0000
,  // measure 9
0010
0001
0010
0001
,  // measure 10
0010
1000
0010
1000
,  // measure 11
0100
1000
0100
1000
,  // measure 12
0100
0001
0100
0001
,  // measure 13
0010
1000
0100
0001
,  // measure 14
0010
1000
0100
0001
,  // measure 15
0010
0010
0100
0100
,  // measure 16
0010
0100
0001
1000
,  // measure 17
0100
1000
0100
1000
,  // measure 18
0100
0001
0100
0001
,  // measure 19
0100
1000
0010
0001
,  // measure 20
0100
1000
0010
0001
,  // measure 21
0100
0100
0100
0100
,  // measure 22
0010
0010
0010
0010
,  // measure 23
0001
0010
0100
1000
,  // measure 24
0001
0010
0100
1000
,  // measure 25
2002
0000
0000
0000
,  // measure 26
0000
0000
0000
0003
,  // measure 27
0020
0000
0000
0000
,  // measure 28
0000
0000
0000
3000
,  // measure 29
0200
0000
0000
0000
,  // measure 30
0000
0000
0000
0030
,  // measure 31
0002
0000
0000
0000
,  // measure 32
0000
0000
0000
0303
,  // measure 33
0001
0001
0001
0001
,  // measure 34
1000
1000
1000
1000
,  // measure 35
0100
0100
0100
0100
,  // measure 36
0010
0010
0010
0010
,  // measure 37
1000
0100
0001
0010
,  // measure 38
1000
0100
0001
0010
,  // measure 39
1000
0010
0001
0100
,  // measure 40
1000
0010
0001
0100
,  // measure 41
0010
0100
0000
0000
0000
0010
0000
1000
,  // measure 42
0000
0001
0000
0010
0000
0100
0000
1000
,  // measure 43
0010
1000
0000
0000
0000
0100
0000
0010
,  // measure 44
0000
0001
0000
1000
0000
0010
0000
0100
,  // measure 45
0001
0100
0000
0000
0000
0010
0000
1000
,  // measure 46
0000
0001
0000
0010
0000
0100
1000
0100
,  // measure 47
1000
0100
0000
0000
0000
0010
0000
0100
,  // measure 48
0000
0001
0000
1000
0000
0001
0000
1000
,  // measure 49
0010
0100
0000
0000
0000
0001
0000
1000
,  // measure 50
0000
0100
0000
0010
0000
0001
0000
0010
,  // measure 51
0100
1000
0000
0000
0000
1000
0000
0010
,  // measure 52
0000
0100
0000
0001
0000
0100
0000
0010
,  // measure 53
1000
0001
0010
0000
0000
0100
0000
0001
,  // measure 54
0000
1000
0000
0010
0000
0100
0000
0001
,  // measure 55
0100
1000
0100
0000
0001
0010
0001
0000
,  // measure 56
0010
0100
1000
0010
,  // measure 57
0100
0000
0000
0000
;

//---------------dance-single - Chewi----------------
#NOTES:
     dance-single:
     Chewi:
     Easy:
     4:
     0.166,0.202,0.054,0.117,0.000: // measure 1
0000
0000
0000
0000
,  // measure 2
0000
0000
0000
0000
,  // measure 3
0000
0000
0000
0000
,  // measure 4
0000
0000
0000
0000
,  // measure 5
0002
0000
0000
0003
,  // measure 6
2000
0000
0000
3000
,  // measure 7
1001
0000
0000
0100
,  // measure 8
0100
0100
0100
0000
,  // measure 9
1000
0000
0100
0000
,  // measure 10
0010
0000
0001
0000
,  // measure 11
1000
0000
0100
0000
,  // measure 12
0010
0000
0001
0000
,  // measure 13
1000
0000
0010
0000
,  // measure 14
0100
0000
0001
0000
,  // measure 15
1000
0000
0010
0000
,  // measure 16
0100
0000
0001
0000
,  // measure 17
1000
0000
0100
0000
,  // measure 18
0010
0000
1000
0000
,  // measure 19
0100
0000
0001
0000
,  // measure 20
0010
0000
0100
0000
,  // measure 21
0001
0000
1000
0000
,  // measure 22
0100
0000
0010
0000
,  // measure 23
0100
0000
1000
0000
,  // measure 24
0010
0000
0100
0000
,  // measure 25
0002
0000
0000
0003
,  // measure 26
0200
0000
0000
0300
,  // measure 27
2000
0000
0000
3000
,  // measure 28
0010
0010
0010
0000
,  // measure 29
0020
0000
0000
0030
,  // measure 30
2000
0000
0000
3000
,  // measure 31
0200
0000
0000
0300
,  // measure 32
0001
0001
0001
0000
,  // measure 33
0001
1000
0001
0000
,  // measure 34
1000
0001
1000
0000
,  // measure 35
0100
0010
0100
0000
,  // measure 36
0010
0100
0010
0000
,  // measure 37
0001
1000
0010
0000
,  // measure 38
1000
0001
0010
0000
,  // measure 39
0100
0100
0100
0000
,  // measure 40
0010
0010
0010
0000
,  // measure 41
1001
0000
0000
0000
,  // measure 42
1000
0100
0010
0001
,  // measure 43
1001
0000
0000
0000
,  // measure 44
0001
0100
0010
1000
,  // measure 45
0110
0000
0000
0000
,  // measure 46
1000
0100
0010
0001
,  // measure 47
0110
0000
0000
0000
,  // measure 48
0100
0100
0100
0000
,  // measure 49
0020
0000
0000
0030
,  // measure 50
0001
0100
0010
0001
,  // measure 51
0200
0000
0000
0300
,  // measure 52
0100
1000
0010
0100
,  // measure 53
2000
0000
0000
3000
,  // measure 54
1000
0001
1000
0001
,  // measure 55
2002
0000
0000
0000
,  // measure 56
0000
0000
0000
0000
,  // measure 57
3003
0000
0000
0000
;

//---------------dance-single - Chewi----------------
#NOTES:
     dance-single:
     Chewi:
     Beginner:
     2:
     0.092,0.177,0.054,0.099,0.000: // measure 1
0000
0000
0000
0000
,  // measure 2
0000
0000
0000
0000
,  // measure 3
0000
0000
0000
0000
,  // measure 4
0000
0000
0000
0000
,  // measure 5
0002
0000
0000
0003
,  // measure 6
2000
0000
0000
3000
,  // measure 7
1001
0000
0000
0100
,  // measure 8
0100
0100
0100
0000
,  // measure 9
1000
0000
0000
0000
,  // measure 10
0010
0000
0000
0000
,  // measure 11
1000
0000
0000
0000
,  // measure 12
0010
0000
0000
0000
,  // measure 13
1000
0000
0000
0000
,  // measure 14
0100
0000
0000
0000
,  // measure 15
1000
0000
0000
0000
,  // measure 16
0100
0000
0000
0000
,  // measure 17
1000
0000
0000
0000
,  // measure 18
0010
0000
0000
0000
,  // measure 19
0100
0000
0000
0000
,  // measure 20
0010
0000
0000
0000
,  // measure 21
0001
0000
0000
0000
,  // measure 22
0100
0000
0000
0000
,  // measure 23
0100
0000
0000
0000
,  // measure 24
0010
0000
0000
0000
,  // measure 25
0002
0000
0000
0003
,  // measure 26
0001
0000
0000
0000
,  // measure 27
2000
0000
0000
3000
,  // measure 28
1000
0000
0000
0000
,  // measure 29
0020
0000
0000
0030
,  // measure 30
0010
0000
0000
0000
,  // measure 31
0200
0000
0000
0300
,  // measure 32
0100
0000
0000
0000
,  // measure 33
0001
0000
0000
0000
,  // measure 34
1000
0000
0000
0000
,  // measure 35
0100
0000
0000
0000
,  // measure 36
0010
0000
0000
0000
,  // measure 37
0001
0000
0000
0000
,  // measure 38
1000
0000
0000
0000
,  // measure 39
0100
0000
0000
0000
,  // measure 40
0010
0000
0000
0000
,  // measure 41
1001
0000
0000
0000
,  // measure 42
1000
0000
0000
0000
,  // measure 43
1001
0000
0000
0000
,  // measure 44
0001
0000
0000
0000
,  // measure 45
0110
0000
0000
0000
,  // measure 46
1000
0000
0000
0000
,  // measure 47
0110
0000
0000
0000
,  // measure 48
0100
0000
0000
0000
,  // measure 49
0020
0000
0000
0030
,  // measure 50
0010
0000
0000
0000
,  // measure 51
0200
0000
0000
0300
,  // measure 52
0100
0000
0000
0000
,  // measure 53
2000
0000
0000
3000
,  // measure 54
1000
0000
0000
0000
,  // measure 55
2002
0000
0000
0000
,  // measure 56
0000
0000
0000
0000
,  // measure 57
3003
0000
0000
0000
;

//---------------dance-single - Chewi----------------
#NOTES:
     dance-single:
     Chewi:
     Challenge:
     10:
     0.496,0.455,0.153,0.009,0.000: // measure 1
0000
0000
0000
0000
,  // measure 2
0000
0000
0000
0000
,  // measure 3
0000
0000
0000
0000
,  // measure 4
0000
0000
0000
0000
,  // measure 5
1000
0100
1000
0100
1000
0100
1000
0100
,  // measure 6
0010
0001
0010
0001
0010
0001
0010
0001
,  // measure 7
0100
0010
1001
0000
0000
1000
1000
1000
,  // measure 8
0000
0010
0000
0100
0001
0010
0100
1000
,  // measure 9
0010
1000
0100
0000
0010
0001
0100
0000
,  // measure 10
0010
0100
0001
1000
0100
0010
0001
0000
,  // measure 11
1000
0100
0010
0000
0001
0100
0010
0000
,  // measure 12
1000
0010
0001
0010
1000
0010
0001
0000
,  // measure 13
1000
0100
0010
0000
0001
0010
0100
0000
,  // measure 14
1000
0100
0011
0000
0001
0100
1010
0000
,  // measure 15
0001
1000
0010
0100
0001
0001
0001
0000
,  // measure 16
1000
0001
0010
0100
1000
1000
1000
0000
,  // measure 17
0001
0100
0001
0100
0010
1000
0010
1000
,  // measure 18
0001
1000
0100
0000
1000
0001
0010
0000
,  // measure 19
0100
0100
0010
0010
0100
0010
0100
1000
,  // measure 20
0010
0010
0100
0100
0001
0100
0010
0100
,  // measure 21
0001
0010
0011
0000
1000
0100
1100
0000
,  // measure 22
0001
0100
1000
0000
1000
0010
0001
0000
,  // measure 23
0001
0010
0100
1000
0010
0010
0100
0000
,  // measure 24
0100
0010
1000
0001
0010
0010
0100
0000
,  // measure 25
0010
0001
0010
0001
0010
0001
0010
0001
,  // measure 26
0010
1000
0010
1000
0010
1000
0010
1000
,  // measure 27
0010
0001
0010
1000
0010
0001
0010
1000
,  // measure 28
0100
0001
0010
1000
0100
0001
0010
1000
,  // measure 29
0100
1000
0010
1000
0100
1000
0010
1000
,  // measure 30
0100
0001
0010
0001
0100
0001
0010
0001
,  // measure 31
0100
1000
0010
0001
0100
1000
0010
0001
,  // measure 32
0100
0010
0100
0010
1000
0001
1000
0001
,  // measure 33
1000
1000
1000
1000
1000
1000
1000
1000
,  // measure 34
0100
0100
0100
0100
0100
0100
0100
0100
,  // measure 35
0010
0001
0010
0001
0010
0001
0010
0001
,  // measure 36
0100
0001
0100
0001
0100
0001
0100
0001
,  // measure 37
0100
0100
0100
0100
0100
0100
0100
0100
,  // measure 38
0010
0010
0010
0010
0010
0010
0010
0010
,  // measure 39
1000
0010
1000
0100
1000
0010
1000
0100
,  // measure 40
0010
0001
0100
0010
1000
0001
0010
0100
,  // measure 41
1100
0010
0000
0000
0000
1000
0100
0010
,  // measure 42
0000
0011
0000
0100
0100
0010
0010
1000
,  // measure 43
0001
0101
0000
0000
0000
0010
1000
1001
,  // measure 44
0000
0011
0000
0001
0010
0100
1000
0010
,  // measure 45
1000
1100
0000
0000
0000
0100
0010
0011
,  // measure 46
0000
0101
0000
1001
0000
1010
1000
0100
,  // measure 47
0010
0100
1000
0010
0100
0001
0100
0101
,  // measure 48
0000
1001
1000
0010
1000
0100
0010
0001
,  // measure 49
0010
0100
1000
0010
1000
0100
1000
0010
,  // measure 50
1000
0100
0010
0001
1000
0100
0010
0001
,  // measure 51
0100
0001
0010
0001
0100
0001
0010
0001
,  // measure 52
0010
0100
1000
0001
0010
0100
1000
0010
,  // measure 53
0100
0001
0100
0010
0100
0001
0100
0010
,  // measure 54
1000
0001
0010
0100
1000
0001
1000
0010
,  // measure 55
1000
1000
0010
0010
0100
0001
0010
0200
,  // measure 56
0000
0000
0000
0000
,  // measure 57
0300
0000
0000
0000
;
