#TITLE:ALFARSHEAR ~双神威に廻る夢~;
#SUBTITLE:;
#ARTIST:TЁЯRA;
#TITLETRANSLIT:ALFARSHEAR ~FUTATSU KAMUI NI MEWARU YUME~;
#SUBTITLETRANSLIT:;
#ARTISTTRANSLIT:TERRA;
#CREDIT:Chewi☆;
#BANNER:ALFARSHEAR ~SOUSHINI NI MEGURU YUME~.png;
#BACKGROUND:ALFARSHEAR ~SOUSHINI NI MEGURU YUME~-bg.png;
#LYRICSPATH:;
#CDTITLE:cdtitle.png;
#MUSIC:ALFARSHEAR ~SOUSHINI NI MEGURU YUME~.mp3;
#OFFSET:-0.440;
#SAMPLESTART:39.969;
#SAMPLELENGTH:15.000;
#SELECTABLE:YES;
#DISPLAYBPM:85.000:170.000;
#BPMS:0.000=170.000,227.000=85.000,243.000=170.000;
#STOPS:;
#BGCHANGES:;

//---------------dance-single - Chewi----------------
#NOTES:
     dance-single:
     Chewi:
     Beginner:
     3:
     0.170,0.191,0.061,0.000,0.000: // measure 1
0000
0000
0000
0000
,  // measure 2
0000
0000
0000
0000
,  // measure 3
0000
0000
0000
0000
,  // measure 4
0000
0000
0000
0000
,  // measure 5
1000
0000
1000
0000
,  // measure 6
0001
0000
0001
0000
,  // measure 7
0010
0000
0010
0000
,  // measure 8
0001
0000
0001
0000
,  // measure 9
0001
0000
0100
0000
,  // measure 10
0001
0000
1000
0000
,  // measure 11
1000
0000
0010
0000
,  // measure 12
0010
0000
0100
0000
,  // measure 13
0110
0000
0010
0000
,  // measure 14
0100
0000
0100
0000
,  // measure 15
0001
0000
0001
0000
,  // measure 16
1000
0000
1000
0000
,  // measure 17
0100
0000
0100
0000
,  // measure 18
0010
0000
0010
0000
,  // measure 19
0100
0000
1000
0000
,  // measure 20
0100
0000
0100
0000
,  // measure 21
0100
0000
1000
0000
,  // measure 22
0100
0000
0001
0000
,  // measure 23
0100
0000
0001
0000
,  // measure 24
0100
0000
0010
0000
,  // measure 25
0100
0000
1000
0000
,  // measure 26
1000
0000
0001
0000
,  // measure 27
0100
0000
0001
0000
,  // measure 28
1001
0000
0000
0000
,  // measure 29
1000
0000
0100
0000
,  // measure 30
0100
0000
0010
0000
,  // measure 31
0001
0000
0100
0000
,  // measure 32
0001
0000
1000
0000
,  // measure 33
0010
0000
0010
0000
,  // measure 34
1000
0000
0010
0000
,  // measure 35
1000
0000
0001
0000
,  // measure 36
1001
0000
0000
0000
,  // measure 37
0001
0000
0010
0000
,  // measure 38
0010
0000
0100
0000
,  // measure 39
1000
0000
0010
0000
,  // measure 40
1000
0000
0001
0000
,  // measure 41
0010
0000
0001
0000
,  // measure 42
0001
0000
0001
0000
,  // measure 43
1000
0000
1000
0000
,  // measure 44
0110
0000
0000
0000
,  // measure 45
0100
0000
0100
0000
,  // measure 46
1000
0000
0001
0000
,  // measure 47
0010
0000
0010
0000
,  // measure 48
0001
0000
1000
0000
,  // measure 49
0001
0000
0001
0000
,  // measure 50
0100
0000
0100
0000
,  // measure 51
1000
0000
1000
0000
,  // measure 52
0001
0000
0001
0000
,  // measure 53
0100
0000
0100
0000
,  // measure 54
1000
0000
1000
0000
,  // measure 55
1000
0000
0010
0000
,  // measure 56
1000
0000
0010
0000
,  // measure 57
1001
0000
0000
1000
,  // measure 58
0000
0100
0000
0001
,  // measure 59
0000
1000
0000
0010
,  // measure 60
0000
0100
0000
0001
,  // measure 61
0000
1000
0000
0001
,  // measure 62
0000
0010
0000
0010
,  // measure 63
0000
0100
0000
1000
,  // measure 64
0000
0010
0000
1000
,  // measure 65
0000
0001
0000
0100
,  // measure 66
0000
0100
0000
0001
,  // measure 67
0000
0100
0000
0001
,  // measure 68
0000
1000
0000
1001
,  // measure 69
0000
0000
0000
0000
,  // measure 70
0000
0000
0000
0000
,  // measure 71
1000
0000
0100
0000
,  // measure 72
0001
0000
0010
0000
,  // measure 73
0000
0000
0000
0000
,  // measure 74
0000
1001
0000
0000
;

//---------------dance-single - Chewi----------------
#NOTES:
     dance-single:
     Chewi:
     Easy:
     6:
     0.333,0.321,0.061,0.234,0.022: // measure 1
0000
0000
0000
0000
,  // measure 2
0000
0000
0000
0000
,  // measure 3
0000
0000
0000
0000
,  // measure 4
0000
0000
0000
0000
,  // measure 5
1000
0100
1000
0100
,  // measure 6
0001
0100
0001
0100
,  // measure 7
0010
0100
0010
0100
,  // measure 8
0001
1000
0001
1000
,  // measure 9
0001
0010
0100
1000
,  // measure 10
0001
0100
1000
0100
,  // measure 11
1000
0100
0010
0001
,  // measure 12
0020
0030
0200
0300
,  // measure 13
0110
0001
0010
0001
,  // measure 14
0100
1000
0100
1000
,  // measure 15
0001
1000
0001
1000
,  // measure 16
1000
0001
1000
0001
,  // measure 17
0100
0001
0100
0001
,  // measure 18
0010
1000
0010
1000
,  // measure 19
0100
0010
1000
1000
,  // measure 20
0100
0001
0100
0001
,  // measure 21
0100
0010
1000
0001
,  // measure 22
0100
0010
0001
1000
,  // measure 23
0100
1000
0001
0010
,  // measure 24
0100
0001
0010
1000
,  // measure 25
0100
0001
1000
0010
,  // measure 26
1000
0100
0001
0010
,  // measure 27
0100
0010
0001
1000
,  // measure 28
2002
0000
0000
3003
,  // measure 29
1000
0010
0100
0001
,  // measure 30
0200
0000
0320
0000
,  // measure 31
0031
0010
0100
1000
,  // measure 32
0002
0000
2003
0000
,  // measure 33
3010
0100
0010
0100
,  // measure 34
1000
0100
0010
0100
,  // measure 35
1000
1000
0001
0001
,  // measure 36
2002
0000
0000
3003
,  // measure 37
0001
0100
0010
1000
,  // measure 38
0020
0000
0230
0000
,  // measure 39
1300
0100
0010
0001
,  // measure 40
2000
0000
3002
0000
,  // measure 41
0013
0010
0001
0100
,  // measure 42
0001
0010
0001
0100
,  // measure 43
1000
0010
1000
0100
,  // measure 44
0220
0000
0000
0330
,  // measure 45
0100
0100
0100
0100
,  // measure 46
1000
0100
0001
0100
,  // measure 47
0010
0010
0010
0010
,  // measure 48
0001
0010
1000
0010
,  // measure 49
0001
0001
0001
0001
,  // measure 50
0100
1000
0100
1000
,  // measure 51
1000
1000
1000
1000
,  // measure 52
0001
0001
0001
0001
,  // measure 53
0100
0010
0100
0010
,  // measure 54
1000
0001
1000
0001
,  // measure 55
1000
0100
0010
0001
,  // measure 56
1000
0100
0010
0001
,  // measure 57
2002
0000
3003
1000
,  // measure 58
0000
0100
0010
0001
,  // measure 59
0000
1000
0001
0010
,  // measure 60
0000
0100
0000
0001
,  // measure 61
0000
1000
0000
0001
,  // measure 62
0100
0010
1000
0020
,  // measure 63
0000
0230
0000
1300
,  // measure 64
0100
0010
0001
2000
,  // measure 65
0000
3002
0000
0103
,  // measure 66
0010
0100
0010
0001
,  // measure 67
0010
0100
0010
0001
,  // measure 68
0001
1000
1000
2002
,  // measure 69
0000
0000
0000
0000
,  // measure 70
0000
0000
3003
0000
,  // measure 71
1000
0000
1000
0000
0000
0000
0100
0000
0100
0000
0000
0000
,  // measure 72
0001
0000
0000
0000
0000
0000
0000
0000
0001
0000
0000
0000
0000
0000
0000
0000
0000
0000
0000
0000
0000
0000
0000
0000
0010
0000
0000
0000
0000
0000
0000
0000
0010
0000
0000
0000
0000
0000
0000
0020
0000
0000
0000
0000
0000
0000
0000
0000
,  // measure 73
0000
0000
0000
0000
,  // measure 74
0030
2002
0000
0000
,  // measure 75
3003
0000
0000
0000
;

//---------------dance-single - Chewi----------------
#NOTES:
     dance-single:
     Chewi:
     Medium:
     8:
     0.434,0.482,0.208,0.269,0.061: // measure 1
0000
0000
0000
0000
,  // measure 2
0000
0000
0000
0000
,  // measure 3
0000
0000
0000
0000
,  // measure 4
0000
0000
0000
0000
,  // measure 5
1000
0100
0010
0001
,  // measure 6
1000
0100
0001
0100
,  // measure 7
0001
0100
0010
1000
,  // measure 8
0010
0001
0010
1000
,  // measure 9
0010
0100
0010
0000
0100
0000
0001
0000
,  // measure 10
0010
0100
0010
0000
0100
0000
1000
0000
,  // measure 11
0001
1100
1000
0101
,  // measure 12
0020
0000
0000
0000
0100
0100
0130
0000
,  // measure 13
0010
0000
1000
0000
0100
0001
0100
0000
,  // measure 14
1000
0000
0010
0000
0100
0001
0100
0000
,  // measure 15
0010
1000
0001
0010
,  // measure 16
0100
0100
0010
0010
,  // measure 17
0001
1000
0010
0100
,  // measure 18
0001
1000
0100
0010
,  // measure 19
0001
0000
1000
0000
0100
1000
0100
0000
,  // measure 20
1000
0000
0100
0000
0010
0001
0010
0000
,  // measure 21
0100
1000
0010
0001
,  // measure 22
0100
1000
0010
0001
,  // measure 23
0100
0001
0010
1000
,  // measure 24
0100
0001
0010
1000
,  // measure 25
0100
0000
0010
0000
0001
0100
0010
0000
,  // measure 26
0100
0000
0010
0000
1000
0100
0010
0000
,  // measure 27
0001
0000
1000
0000
0100
1000
0001
0000
,  // measure 28
2002
0000
0000
3003
,  // measure 29
0001
1001
0010
0110
,  // measure 30
0010
0000
0000
0010
0100
0000
0000
0000
,  // measure 31
1000
0101
0010
1001
,  // measure 32
0010
0000
0000
0001
0010
0000
0000
0000
,  // measure 33
0002
2003
3200
1300
,  // measure 34
2000
3002
0023
0031
,  // measure 35
1000
0010
0001
0100
,  // measure 36
0110
0000
0001
0010
,  // measure 37
0100
1001
0010
0110
,  // measure 38
0001
0000
0000
0100
0001
0000
0000
0000
,  // measure 39
1000
0110
0010
1001
,  // measure 40
1000
0000
0000
0001
1000
0000
0000
0000
,  // measure 41
0020
0230
0302
1003
,  // measure 42
0200
0320
0032
1003
,  // measure 43
0100
0001
0010
1000
,  // measure 44
1000
0010
0001
0100
,  // measure 45
1000
1000
1000
0000
0001
0000
0100
0000
,  // measure 46
0010
0010
0010
0000
0100
0000
0001
0000
,  // measure 47
1000
0100
0010
0000
0010
0000
0001
0010
,  // measure 48
0100
0010
0100
1000
,  // measure 49
0001
0001
0001
0000
1000
0000
0001
0000
,  // measure 50
0100
0100
0200
0000
0320
0000
0230
0000
,  // measure 51
0301
0000
0011
0000
0100
1000
0100
0000
,  // measure 52
1000
0000
1100
0000
0010
0001
0010
0000
,  // measure 53
1000
0000
1001
0000
0001
1000
0100
0000
,  // measure 54
0001
0000
1001
0000
1000
0001
0100
0000
,  // measure 55
0010
0100
0001
1000
,  // measure 56
0100
0010
0001
0010
,  // measure 57
0220
0000
0000
0000
0330
0000
0010
1000
,  // measure 58
0100
0000
0010
0000
0001
0000
0000
0001
1000
0000
0000
0000
0001
0000
0010
0000
,  // measure 59
0100
0000
1000
0000
0010
0000
0000
0010
0100
0000
0000
0000
0010
0000
0100
0000
,  // measure 60
0010
0000
0000
0000
1000
0000
0000
0000
0100
0000
0000
0000
0010
0000
0001
0010
,  // measure 61
0001
0000
0000
0000
0001
0000
0010
0000
0100
1000
0100
0000
1000
0000
0000
0000
,  // measure 62
1001
0100
0110
0100
,  // measure 63
0000
0100
0010
0000
0000
0000
0001
0000
,  // measure 64
1010
0100
1001
0100
,  // measure 65
0000
1000
0100
0000
0000
0000
2000
0000
,  // measure 66
3002
0023
0031
0002
,  // measure 67
2003
3200
1300
0001
,  // measure 68
0100
1000
0010
0110
,  // measure 69
0000
1000
0100
0220
,  // measure 70
0000
0000
0000
0000
0000
0000
0330
0000
0000
1000
0001
1000
,  // measure 71
0001
1000
0000
0000
0000
0000
0100
0010
0100
0000
0000
0000
,  // measure 72
0001
0000
0000
0000
0010
0000
0000
0000
0100
0000
0000
0000
0000
0000
0000
0000
0000
0000
0000
0000
0000
0000
0000
0000
0010
0000
0000
0000
0001
0000
0000
0000
0010
0000
0000
0000
0000
0000
0000
2002
0000
0000
0000
0000
0000
0000
0000
0000
,  // measure 73
0000
0000
0000
3003
,  // measure 74
0000
0010
0200
0000
0000
0000
0000
0000
,  // measure 75
0300
0000
0000
0000
;

//---------------dance-single - Chewi----------------
#NOTES:
     dance-single:
     Chewi:
     Hard:
     12:
     0.553,0.642,0.200,0.364,0.095: // measure 1
0000
0000
0000
0000
,  // measure 2
0000
0000
0000
0000
,  // measure 3
0000
0000
0000
0000
,  // measure 4
0000
0000
0000
0000
,  // measure 5
1000
0100
1000
0000
0010
0000
0100
0000
,  // measure 6
0001
0010
0001
0000
0010
0000
0100
0000
,  // measure 7
1000
0100
0001
0000
0010
0000
0100
0000
,  // measure 8
0001
0011
1000
1010
,  // measure 9
0001
1000
0100
0000
0010
0000
0100
0000
,  // measure 10
1000
0001
0010
0000
0001
0000
0100
0000
,  // measure 11
0010
0100
0010
0000
1000
0010
1000
0000
,  // measure 12
0001
1000
0001
1000
0010
0100
0010
0100
,  // measure 13
0010
0100
0001
0000
0010
0000
0110
0000
,  // measure 14
0001
0010
0100
1000
0010
0000
0100
0000
,  // measure 15
1000
0010
0100
0000
0010
0000
1010
0000
,  // measure 16
0001
0010
0100
1000
0001
0010
0100
0000
,  // measure 17
0010
0000
0001
0000
0100
1000
0010
0000
,  // measure 18
1000
0000
0010
0000
1000
0100
0001
0000
,  // measure 19
0010
0000
0100
0000
0010
0001
1000
0000
,  // measure 20
0010
0100
0010
0100
0001
1000
0001
1000
,  // measure 21
0001
0010
0100
1000
0010
0000
0100
0000
,  // measure 22
0010
1001
0100
1001
,  // measure 23
1000
0010
0100
0001
1000
0000
0100
0000
,  // measure 24
1000
1100
0001
0011
,  // measure 25
0010
0100
1000
0000
0010
0001
0100
0000
,  // measure 26
0100
1000
0010
0000
0010
0100
0001
0000
,  // measure 27
1000
0100
0010
0100
1000
0000
0100
0000
,  // measure 28
1000
0001
0010
0100
1000
0000
0000
0000
,  // measure 29
0002
2003
3200
0301
,  // measure 30
0210
0000
0000
0010
0020
0000
0330
0000
,  // measure 31
0020
2030
3200
0310
,  // measure 32
0012
0000
0000
1000
2000
0000
3003
0000
,  // measure 33
0010
0100
0001
0000
0010
0000
0100
0000
,  // measure 34
1000
0010
0001
0000
0100
0000
1000
0000
,  // measure 35
0100
0010
0100
0000
1000
0000
1100
0000
,  // measure 36
0001
1000
0001
1000
0010
0100
0010
0100
,  // measure 37
0020
0230
0302
0013
,  // measure 38
0012
0000
0000
0010
0020
0000
0033
0000
,  // measure 39
0002
0023
0230
1300
,  // measure 40
0102
0000
0000
0100
0200
0000
0303
0000
,  // measure 41
0010
0100
0001
0000
0010
0000
1000
0000
,  // measure 42
0100
0001
0010
0000
0100
0000
0010
0000
,  // measure 43
0001
1000
0010
0000
0100
0000
0001
0000
,  // measure 44
0100
0001
0100
0001
0010
0001
0010
0001
,  // measure 45
0010
1100
0010
0101
,  // measure 46
1000
0001
0100
0001
1000
0100
1000
0000
,  // measure 47
0001
0011
1000
1010
,  // measure 48
1000
0001
0010
0001
1000
0010
1000
0000
,  // measure 49
0010
0100
0001
0010
0100
1000
0010
0000
,  // measure 50
0100
0010
1000
0100
0010
0001
0010
0000
,  // measure 51
1000
0100
0010
0001
0010
0001
0001
0100
,  // measure 52
0010
1000
0001
0100
0010
1000
0010
1000
,  // measure 53
0010
0001
0100
1000
0100
0001
0100
1000
,  // measure 54
0100
1000
0010
0001
0100
0001
0010
0100
,  // measure 55
1000
0010
0100
0001
0100
0010
1000
0001
,  // measure 56
0010
0100
1000
0001
1000
0100
0010
0001
,  // measure 57
2002
0000
0000
0000
3003
0000
1000
0010
,  // measure 58
0100
0000
0001
0000
0020
0000
0000
0100
0130
0000
0000
0000
0010
0000
0001
0000
,  // measure 59
0100
0000
1000
0000
0020
0000
0000
1000
1030
0000
0000
0000
1000
0100
0010
0002
,  // measure 60
0000
0000
0003
0000
0001
0010
0100
2000
0000
0000
3000
0000
0001
0100
1000
0200
,  // measure 61
0000
0000
1300
0000
0100
0000
0001
0000
0010
0100
1000
0100
2000
0000
0000
0000
,  // measure 62
3002
0023
1030
0120
,  // measure 63
0000
0100
0200
0000
0330
0000
0200
0000
,  // measure 64
0302
0023
0130
2100
,  // measure 65
0000
0001
0002
0000
3003
0000
0100
0010
,  // measure 66
1000
0000
0100
0000
0010
0000
0001
0100
,  // measure 67
1000
0000
0010
0000
0001
0000
0010
0100
,  // measure 68
0010
0000
0001
0000
0011
0000
1000
0001
,  // measure 69
1000
0001
0100
0010
0100
0010
0220
0000
,  // measure 70
0000
0000
0000
0000
0000
0000
0330
0000
0000
1000
0100
0010
,  // measure 71
0001
1000
0001
0000
0000
0000
0100
0010
1000
0000
0000
0000
,  // measure 72
0001
0000
0000
0000
0010
0000
0000
0000
0100
0000
0000
0000
0000
0000
0000
0000
0000
0000
0000
0000
0000
0000
0000
0000
0010
0000
0000
0000
0001
0000
0000
0000
0010
0000
0000
0000
0000
0000
0000
0022
0000
0000
0000
0000
0000
0000
0000
0000
,  // measure 73
0000
0000
0000
0000
,  // measure 74
0033
0000
0001
1000
0002
0000
0000
0000
0000
0000
0000
0000
0000
0000
0000
0000
,  // measure 75
0003
0000
0000
0000
;
