#TITLE:愛と誠;
#SUBTITLE:;
#ARTIST:ALI PROJECT;
#TITLETRANSLIT:AI TO MAKOTO;
#SUBTITLETRANSLIT:;
#ARTISTTRANSLIT:;
#GENRE:;
#CREDIT:Chewi☆;
#MENUCOLOR:#FFFFFF;
#METERTYPE:DDR X;
#BANNER:AI TO MAKOTO.png;
#BACKGROUND:AI TO MAKOTO-bg.png;
#LYRICSPATH:;
#CDTITLE:./CDTITLES/DanceDanceRevolution skyMIX3 -breeze-.png;
#MUSIC:AI TO MAKOTO.mp3;
#OFFSET:-0.394;
#SAMPLESTART:65.531;
#SAMPLELENGTH:15.000;
#SELECTABLE:YES;
#LISTSORT:;
#DISPLAYBPM:140.000;
#BPMS:0.000=140.000;
#STOPS:;
#BGCHANGES:;
#ATTACKS:;

//---------------dance-single - Chewi----------------
#NOTES:
     dance-single:
     Chewi:
     Beginner:
     2:
     0.135,0.126,0.017,0.000,0.000: // measure 1
0000
0000
0000
0000
,  // measure 2
0000
0000
0000
0000
,  // measure 3
0000
0000
0000
0000
,  // measure 4
0000
0000
0000
0000
,  // measure 5
1000
0000
0000
0000
,  // measure 6
0001
0000
0000
0000
,  // measure 7
0100
0000
0100
0000
,  // measure 8
0010
0000
0010
0000
,  // measure 9
1000
0000
1000
0000
,  // measure 10
0001
0000
0001
0000
,  // measure 11
0010
0000
0100
0000
,  // measure 12
0010
0000
0100
0000
,  // measure 13
0010
0000
0010
0000
,  // measure 14
0001
0000
0001
0000
,  // measure 15
0001
0000
1000
0000
,  // measure 16
1000
0000
1000
0000
,  // measure 17
1000
0000
0001
0000
,  // measure 18
0001
0000
0001
0000
,  // measure 19
0100
0000
0010
0000
,  // measure 20
0010
0000
0010
0000
,  // measure 21
0010
0000
0100
0000
,  // measure 22
0100
0000
0100
0000
,  // measure 23
1000
0000
0010
0000
,  // measure 24
1000
0000
1000
0000
,  // measure 25
0001
0000
0010
0000
,  // measure 26
0001
0000
0001
0000
,  // measure 27
0001
0000
0010
0000
,  // measure 28
0001
0000
0100
0000
,  // measure 29
0001
0000
0100
0000
,  // measure 30
0100
0000
0100
0000
,  // measure 31
1000
0000
1000
0000
,  // measure 32
0100
0000
0100
0000
,  // measure 33
1000
0000
1000
0000
,  // measure 34
0100
0000
0100
0000
,  // measure 35
0010
0000
0010
0000
,  // measure 36
1000
0000
1000
0000
,  // measure 37
1000
0000
0100
0000
,  // measure 38
0001
0000
0010
0000
,  // measure 39
0010
0000
0100
0000
,  // measure 40
1000
0000
0001
0000
,  // measure 41
0001
0000
0100
0000
,  // measure 42
0010
0000
0010
0000
,  // measure 43
1000
0000
0100
0000
,  // measure 44
0001
0000
0100
0000
,  // measure 45
1000
0000
0010
0000
,  // measure 46
0001
0000
0010
0000
,  // measure 47
0100
0000
0100
0000
,  // measure 48
0010
0000
0001
0000
,  // measure 49
0010
0000
1000
0000
,  // measure 50
0010
0000
0100
0000
,  // measure 51
0010
0000
0001
0000
,  // measure 52
0010
0000
1000
0000
,  // measure 53
0010
0000
0010
0000
,  // measure 54
1000
0000
1000
0000
,  // measure 55
1000
0000
0100
0000
,  // measure 56
0001
0000
0001
0000
,  // measure 57
0100
0000
0010
0000
,  // measure 58
0100
0000
0010
0000
,  // measure 59
0100
0000
0100
0000
,  // measure 60
0110
0000
0000
0000
,  // measure 61
0001
0000
1000
0000
,  // measure 62
0110
0000
0000
0000
;

//---------------dance-single - Chewi----------------
#NOTES:
     dance-single:
     Chewi:
     Easy:
     5:
     0.254,0.254,0.025,0.075,0.004: // measure 1
0000
0000
0000
0000
,  // measure 2
0000
0000
0000
0000
,  // measure 3
0000
0000
0000
0000
,  // measure 4
0000
0000
0000
0000
,  // measure 5
2000
0000
0000
3000
,  // measure 6
0002
0000
0000
0003
,  // measure 7
0100
0100
0100
0100
,  // measure 8
0010
0010
0010
0010
,  // measure 9
1000
1000
1000
1000
,  // measure 10
0001
0001
0001
0001
,  // measure 11
0010
1000
0100
0001
,  // measure 12
0010
0001
0100
1000
,  // measure 13
0010
0100
0010
0100
,  // measure 14
0001
1000
0001
1000
,  // measure 15
0001
0100
1000
0000
,  // measure 16
1000
0001
1000
0000
,  // measure 17
1000
0100
0001
0000
,  // measure 18
0001
1000
0001
0000
,  // measure 19
0100
0010
0010
0000
,  // measure 20
0010
0100
0010
0000
,  // measure 21
0010
0010
0100
0000
,  // measure 22
0100
0010
0100
0000
,  // measure 23
1000
0100
0010
0100
,  // measure 24
1000
1000
1000
0000
,  // measure 25
0001
0100
0010
0100
,  // measure 26
0001
0001
0001
0000
,  // measure 27
0001
1000
0010
0100
,  // measure 28
0001
1000
0100
0010
,  // measure 29
0001
0010
0100
1000
,  // measure 30
0100
0100
0100
0000
,  // measure 31
1000
0001
1000
0001
,  // measure 32
0100
0010
0100
0010
,  // measure 33
1000
0010
1000
0010
,  // measure 34
0100
0001
0100
0001
,  // measure 35
0010
0001
0010
0001
,  // measure 36
1000
0100
1000
0100
,  // measure 37
1000
0001
0100
0100
,  // measure 38
0001
1000
0010
0010
,  // measure 39
0010
1000
0100
0010
,  // measure 40
1000
0100
0001
0100
,  // measure 41
0001
0010
0100
0001
,  // measure 42
0010
1000
0010
0001
,  // measure 43
1000
0001
0100
0100
,  // measure 44
0001
1000
0100
0100
,  // measure 45
1000
0001
0010
0010
,  // measure 46
0001
1000
0010
0010
,  // measure 47
0100
0010
0200
0000
,  // measure 48
0310
1000
0002
0000
,  // measure 49
0013
0100
1000
0100
,  // measure 50
0010
0010
0100
0100
,  // measure 51
0010
0000
0001
0100
,  // measure 52
0010
1000
1000
0100
,  // measure 53
0010
0001
0010
0001
,  // measure 54
1000
0100
1000
0100
,  // measure 55
2000
0000
3100
0000
,  // measure 56
0001
1000
0001
1001
,  // measure 57
0200
0000
0310
1000
,  // measure 58
0200
0000
0310
0000
,  // measure 59
0100
0010
0100
0010
,  // measure 60
0110
0000
1001
0000
,  // measure 61
0001
0010
0100
1000
,  // measure 62
0200
0000
0000
0000
,  // measure 63
0000
0000
0000
0000
,  // measure 64
0000
0000
0000
0000
,  // measure 65
0000
0000
0000
0000
,  // measure 66
0000
0020
0000
0000
0000
0000
0000
0000
0000
0000
0000
0000
,  // measure 67
0000
0000
0000
0000
,  // measure 68
0000
0000
0000
0000
,  // measure 69
0000
0000
0000
0000
0000
0000
0000
0000
0000
0000
0000
0000
0000
0000
0000
0000
0000
0000
0000
0000
0000
0000
0000
0000
0000
0000
0000
0000
0000
0000
0000
0000
0000
0000
0000
0000
0000
0000
0000
0000
0000
0000
0000
0000
0000
0000
0000
0000
0000
0330
0000
0000
0000
0000
0000
0000
0000
0000
0000
0000
0000
0000
0000
0000
0000
0000
0000
0000
0000
0000
0000
0000
0000
0000
0000
0000
0000
0000
0000
0000
0000
0000
0000
0000
0000
0000
0000
0000
0000
0000
0000
0000
0000
0000
0000
0000
0000
0000
0000
0000
0000
0000
0000
0000
0000
0000
0000
0000
0000
0000
0000
0000
0000
0000
0000
0000
0000
0000
0000
0000
0000
0000
0000
0000
0000
0000
0000
0000
0000
0000
0000
0000
0000
0000
0000
0000
0000
0000
0000
0000
0000
0000
0000
0000
0000
0000
0000
0000
0000
0000
0000
0000
0000
0000
0000
0000
0000
0000
0000
0000
0000
0000
0000
0000
0000
0000
0000
0000
0000
0000
0000
0000
0000
0000
0000
0000
0000
0000
0000
0000
0000
0000
0000
0000
0000
0000
0000
0000
0000
0000
0000
0000
;

//---------------dance-single - Chewi----------------
#NOTES:
     dance-single:
     Chewi:
     Medium:
     8:
     0.350,0.424,0.190,0.132,0.012: // measure 1
0000
0000
0000
0000
,  // measure 2
0000
0000
0000
0000
,  // measure 3
0000
0000
0000
0000
,  // measure 4
0000
0000
0000
0000
,  // measure 5
1000
0100
0000
0100
1000
0000
0010
0100
,  // measure 6
0000
0100
0010
0000
1001
0000
0110
0000
,  // measure 7
0002
0013
2000
3100
,  // measure 8
0001
1000
0010
0100
,  // measure 9
0200
0310
0020
0130
,  // measure 10
1000
0100
0001
0010
,  // measure 11
0002
0103
2000
3010
,  // measure 12
0010
0100
0001
1000
,  // measure 13
0200
0301
0020
1030
,  // measure 14
0100
0010
0001
1000
,  // measure 15
1001
0100
0010
1000
,  // measure 16
0001
1000
0100
0000
0001
0000
0100
0000
,  // measure 17
1000
0010
0100
0001
,  // measure 18
0110
1000
1001
0000
,  // measure 19
0001
0000
0010
0100
1000
0000
0001
0000
,  // measure 20
1000
0010
0001
0100
,  // measure 21
0010
0110
0001
1001
,  // measure 22
1000
0100
0001
0010
,  // measure 23
0100
0000
0010
0000
0001
0100
1000
0000
,  // measure 24
0010
1000
0100
0110
,  // measure 25
0001
1000
0100
0110
,  // measure 26
0100
1000
0001
0101
,  // measure 27
0100
0000
0010
0000
1000
0001
0010
0000
,  // measure 28
0100
0000
0001
1000
,  // measure 29
0010
0100
0001
0100
,  // measure 30
0010
1000
0001
0010
0100
0000
0000
0000
,  // measure 31
0011
0100
1010
0100
,  // measure 32
1000
1001
0001
1001
,  // measure 33
1000
0000
0100
1000
0100
1000
0100
0000
,  // measure 34
0001
0000
0100
0001
0100
0001
0100
0000
,  // measure 35
0010
0000
0100
0000
0010
0100
0010
0000
,  // measure 36
1000
0000
0001
0000
1000
0001
1000
0000
,  // measure 37
0001
0010
0100
1000
,  // measure 38
0001
0010
1000
0100
,  // measure 39
0001
1100
1000
0101
,  // measure 40
0100
0010
0100
0000
0010
0000
0100
0000
,  // measure 41
0010
0100
0010
0000
1000
0000
0100
0000
,  // measure 42
0001
0100
1000
0001
,  // measure 43
0100
0000
0010
0000
0100
0001
0100
0000
,  // measure 44
0010
0000
1000
0000
0100
1000
0100
0000
,  // measure 45
1000
0000
0100
0000
0010
0001
0010
0000
,  // measure 46
0001
0000
0010
0000
0100
1000
0100
0000
,  // measure 47
1000
0001
0100
0000
0202
0000
0303
0000
,  // measure 48
0001
1000
0010
0000
2020
0000
3030
0000
,  // measure 49
0010
0100
0001
1000
,  // measure 50
1100
0011
1010
0101
,  // measure 51
0100
0100
0000
0000
0010
0000
0010
0000
,  // measure 52
1000
1000
0001
0001
,  // measure 53
0011
0000
0100
0100
0100
0000
1000
1000
,  // measure 54
1000
0000
0001
0001
0001
0000
1000
0000
,  // measure 55
0100
0010
1000
0100
,  // measure 56
1000
0010
0100
0001
0100
0010
1000
0000
,  // measure 57
0001
0001
1000
1000
,  // measure 58
0100
0001
0010
1000
,  // measure 59
0100
1000
0010
0001
,  // measure 60
0100
0100
0010
0010
,  // measure 61
0001
0000
1000
0000
0010
0100
0010
0100
,  // measure 62
0002
0000
0000
0000
,  // measure 63
0000
0000
0000
0000
0000
0000
0000
2003
0000
0000
0000
0000
,  // measure 64
0000
3002
0000
0000
0000
0000
0000
0000
0000
0000
0000
0000
,  // measure 65
0000
0000
0000
0000
,  // measure 66
0000
2000
0000
0000
0000
0000
0000
0000
0000
0000
0000
0000
,  // measure 67
0000
0000
0000
0000
,  // measure 68
0000
0000
0000
0000
,  // measure 69
0000
3003
0000
0000
;

//---------------dance-single - Chewi----------------
#NOTES:
     dance-single:
     Chewi:
     Hard:
     11:
     0.459,0.537,0.124,0.050,0.182: // measure 1
0000
0000
0000
0000
,  // measure 2
0000
0000
0000
0000
,  // measure 3
0000
0000
0000
0000
,  // measure 4
0000
0000
0000
0000
,  // measure 5
1000
0010
0100
0001
0100
0000
0010
1000
,  // measure 6
0000
1000
0010
0001
0100
1000
0010
0000
,  // measure 7
1000
0010
0001
0010
1000
0010
0001
0010
,  // measure 8
1000
0100
0001
0100
1000
0100
0001
0100
,  // measure 9
1000
0010
0100
1000
0010
0100
1000
0010
,  // measure 10
0100
0001
0010
0100
0001
0010
0100
0010
,  // measure 11
0001
0010
0100
1000
0001
0010
0100
1000
,  // measure 12
0001
0100
0010
1000
0001
0100
0010
1000
,  // measure 13
0001
1000
0010
0100
0001
1000
0100
0010
,  // measure 14
0001
0100
0010
0100
0010
0001
0010
0000
,  // measure 15
0100
0000
1000
0010
0001
0000
0010
0000
,  // measure 16
1000
0000
0100
0001
0010
1000
0100
0000
,  // measure 17
0010
0000
0001
0010
0100
0000
1000
0001
,  // measure 18
1000
0010
0110
0000
,  // measure 19
0010
0000
1000
0001
0010
0100
1000
0000
,  // measure 20
0100
0000
0001
0100
1000
0010
0100
0000
,  // measure 21
0001
0000
0100
0010
1000
0000
0001
0010
,  // measure 22
0100
0000
1000
0100
0001
0000
0000
0000
,  // measure 23
0100
0000
0010
0001
1000
0010
0100
0001
,  // measure 24
0100
0000
0010
1000
0001
0000
0010
0000
,  // measure 25
0100
0000
0010
0001
0100
0000
1000
0010
,  // measure 26
0100
0001
0100
0000
,  // measure 27
0010
0000
1000
0001
0010
0100
1000
0000
,  // measure 28
0010
0000
0100
0010
1000
0001
0100
0000
,  // measure 29
0010
0000
1000
0100
0001
0000
0010
0001
,  // measure 30
0010
0000
1001
0000
,  // measure 31
0001
0000
0000
0001
0010
0000
0000
0010
0001
0000
0000
0001
0100
0000
0000
0100
,  // measure 32
0010
0000
0000
0010
1000
0000
0000
1000
0100
0000
0000
0100
1000
0000
0000
1000
,  // measure 33
0010
0000
0000
0000
0100
0000
0000
0001
0010
0000
0000
0000
1100
0000
0000
0000
,  // measure 34
0001
0000
0000
0000
1000
0000
0000
0001
0100
0000
0000
0000
0110
0000
0000
0000
,  // measure 35
0010
0000
0000
0000
1000
0000
0000
0001
0010
0000
0000
0000
0011
0000
0000
0000
,  // measure 36
0001
0000
0000
0000
0010
0000
0000
0100
1000
0000
0000
0000
1010
0000
0000
0000
,  // measure 37
1000
0010
0001
0010
1000
0100
0001
0100
,  // measure 38
1000
0001
1000
0001
0100
0010
0100
0010
,  // measure 39
1010
0000
0000
0000
0101
0000
0000
0000
0010
0000
0000
0001
0010
0000
0000
0000
,  // measure 40
0100
0000
0000
1000
0001
0000
0000
0000
0100
0000
0000
0000
0010
0000
0000
0000
,  // measure 41
1000
0000
0000
0001
0010
0000
0000
0000
0100
0000
0000
1000
0100
0000
0000
0000
,  // measure 42
0011
0101
1100
1010
,  // measure 43
0100
0000
0000
0010
0100
0000
0000
0000
0001
0000
0000
0000
1000
0000
0000
0000
,  // measure 44
0001
0000
0000
0010
0001
0000
0000
0000
0010
0000
0000
0000
0100
0000
0000
0000
,  // measure 45
1000
0000
0000
0001
1000
0000
0000
0000
0010
0000
0000
0000
0100
0000
0000
0000
,  // measure 46
0001
0000
0000
0100
0010
0000
0000
1000
0001
0000
0000
0000
0010
0000
0000
0000
,  // measure 47
0100
0000
0000
0010
0001
0000
0000
0001
0020
0000
0000
0000
0031
0000
0000
0000
,  // measure 48
0001
0000
0000
0001
1000
0000
0000
1000
0002
0000
0000
0000
0103
0000
0000
0000
,  // measure 49
0100
0000
0000
0010
1000
0000
0000
0001
0010
0000
0000
0100
1000
0000
0000
0010
,  // measure 50
1000
1100
0101
1100
,  // measure 51
0001
1000
0000
0010
0100
0010
0100
0010
,  // measure 52
1000
0010
1000
0010
1000
0100
1000
0100
,  // measure 53
1000
0000
0000
0100
0000
0000
0010
0000
0001
0000
1000
0000
0010
0000
0000
0000
0000
0000
0100
0000
1000
0000
0001
0000
,  // measure 54
0010
0000
0000
1000
0100
0010
0001
0000
0000
0000
0000
0000
,  // measure 55
0001
0010
0100
1000
0001
0100
0010
0100
,  // measure 56
0010
0100
0010
0100
0010
1000
0001
1000
0001
1000
0000
0000
,  // measure 57
0010
1000
0100
0001
0010
0100
0001
0010
,  // measure 58
0100
1000
0001
0010
0100
1000
0001
1000
,  // measure 59
0010
0100
0001
0010
0100
1000
0010
0100
,  // measure 60
0001
1000
0010
0100
0001
1000
0100
0010
,  // measure 61
0001
0010
0100
1000
0001
0010
0100
1000
,  // measure 62
0002
0000
0000
0000
,  // measure 63
0000
0000
0000
0000
0000
0000
0000
2003
0000
0000
0000
0000
,  // measure 64
0000
3020
0000
0000
0000
0000
0000
0000
0000
0000
0000
0000
,  // measure 65
0000
0000
0000
0000
,  // measure 66
0000
0230
0000
0000
0000
0000
0000
0000
0000
0000
0000
0000
,  // measure 67
0000
0000
0000
0000
,  // measure 68
0000
0000
0000
0000
,  // measure 69
0000
0300
0000
0000
;
