#TITLE:ACID VISION -Allotropy Artcore Mix-;
#SUBTITLE:;
#ARTIST:remixed by TOMOSUKE;
#TITLETRANSLIT:;
#SUBTITLETRANSLIT:;
#ARTISTTRANSLIT:;
#GENRE:;
#CREDIT:TaroNuke & Chewi☆;
#MENUCOLOR:#FFFFFF;
#METERTYPE:DDR X;
#BANNER:ACID VISION -Allotropy Artcore Mix-.png;
#BACKGROUND:ACID VISION -Allotropy Artcore Mix--bg.png;
#LYRICSPATH:;
#CDTITLE:;
#MUSIC:ACID VISION -Allotropy Artcore Mix-.ogg;
#OFFSET:-4.038;
#SAMPLESTART:56.749;
#SAMPLELENGTH:15.000;
#SELECTABLE:YES;
#LISTSORT:;
#DISPLAYBPM:91.000:182.000;
#BPMS:0.000=182.000,132.000=364.000,132.500=182.000,140.000=364.000,140.500=182.000,148.000=364.000,148.500=182.000,156.000=364.000,156.500=182.000,224.000=91.000,240.000=182.000,282.000=364.000,283.000=182.000,347.000=91.000;
#STOPS:132.000=0.027
,132.167=0.027
,132.333=0.028
,140.000=0.027
,140.167=0.027
,140.333=0.028
,148.000=0.027
,148.167=0.027
,148.333=0.028
,156.000=0.027
,156.167=0.027
,156.333=0.028
,240.000=0.165
,240.500=0.165
,241.000=0.165
,241.500=0.165
,242.000=0.165
,242.500=0.165
,243.000=0.165
,243.500=0.082
,243.750=0.082
,244.000=0.165
,244.500=0.165
,245.000=0.165
,245.500=0.165
,246.000=0.165
,246.500=0.165
,247.000=0.082
,247.250=0.082
,247.500=0.082
,247.750=0.082
,248.000=0.165
,248.500=0.165
,249.000=0.165
,249.500=0.165
,250.000=0.165
,250.500=0.165
,251.000=0.165
,251.500=0.082
,251.750=0.082
,252.000=0.165
,252.500=0.165
,253.000=0.165
,253.500=0.165
,254.000=0.165
,254.500=0.165
,255.000=0.082
,255.250=0.082
,255.500=0.082
,255.750=0.082
,262.500=0.329
,267.000=0.165
,267.500=0.165
,268.750=0.329
,275.500=0.329
,280.000=0.165
,280.500=0.165
,282.000=0.082
,282.500=0.082
;
#BGCHANGES:;
#ATTACKS:;

//---------------dance-single - Ama-tan----------------
#NOTES:
     dance-single:
     Ama-tan:
     Hard:
     18:
     0.908,1.000,0.685,0.294,0.587:
1001
0000
0000
0000
0100
0000
1001
0000
0000
0000
0010
0000
1000
0100
0010
0001
,
0100
0010
0001
1000
0100
0001
0010
0100
,
0011
0000
0100
0000
0000
0000
0011
0000
0000
0000
0100
0000
1000
0100
0010
0001
,
1000
0100
0010
1000
0010
0100
1000
0001
,
1100
0000
0010
0000
0000
0000
1100
0000
0000
0000
0010
0000
1000
0100
0010
0001
,
1000
0010
0100
1000
0100
0010
1000
0100
,
0011
0000
1000
0000
0000
0000
0011
0000
0000
0000
1000
0000
0010
0100
0010
0100
,
0001
0000
0100
0010
0100
0010
1000
0000
0100
0010
0100
0010
0001
1000
0001
0000
,
1001
0000
0000
0000
0100
0000
1001
0000
0000
0000
1000
0000
0001
0100
0010
1000
,
0100
0010
1000
0001
0100
1000
0010
0100
,
1010
0000
0100
0000
0000
0000
1010
0000
0000
0000
1000
0000
0001
0100
0010
1000
,
0001
0100
0010
0001
0010
0100
0001
1000
,
0101
0000
0010
0000
0000
0000
0101
0000
0000
0000
1000
0000
0001
0100
0010
1000
,
0001
0010
0100
0001
0100
0010
0001
0100
,
1010
0000
0001
0000
0000
0000
1010
0000
0000
0000
0001
0000
0010
0100
0010
0100
,
1000
0000
0100
0010
0100
0010
0001
0000
0100
0010
0100
0010
1000
0001
1000
0000
,
1001
0000
0000
0011
0000
0000
0101
0000
,
0000
0011
0110
1100
0000
0110
0000
0000
,
1001
0000
0000
1010
0000
0000
1100
0000
,
0000
1010
0110
0101
0000
0110
0000
0000
,
1001
0000
0000
0011
0000
0000
0101
0000
,
0000
0011
0110
1100
0000
0110
0000
0000
,
1001
0000
0000
1010
0000
0000
1100
0000
,
1000
0000
0000
0010
0000
0000
1000
0000
0000
0010
0000
0000
1000
0000
0000
0000
0000
0000
0010
0000
0000
0000
0000
0000
0100
0000
0000
0001
0000
0000
0100
0000
0000
0001
0000
0000
0100
0000
0001
0000
0100
0000
0001
0000
0000
0000
0000
0000
,
1000
0010
0100
0001
0100
0010
1000
0010
0100
0001
0100
0010
1000
0100
0010
0001
,
0010
0100
1000
0100
0010
0001
0100
0010
0000
0000
1001
0000
0000
0000
0000
0000
,
1000
0000
0100
0000
0001
0000
1000
0000
0010
0000
0001
0000
1000
0010
1000
0010
,
1000
0000
0001
0000
0100
0000
0010
0000
1000
0001
2000
0000
0000
0000
3001
0000
,
1000
0000
0010
0000
1000
0100
0010
0001
0100
0010
0100
0001
1000
0001
0100
0010
,
1000
0001
0010
0001
1000
0010
0100
0010
1000
0100
1000
0100
0010
0001
0010
0001
,
1000
0010
0100
0010
1000
0001
0010
0001
1000
0010
1000
0010
0100
0001
0100
0002
,
2000
0000
0000
0000
0000
0000
0000
3003
,
1001
0000
0000
0000
0010
0000
1001
0000
0000
0000
1000
0000
0001
0100
0001
0100
,
0001
0000
0100
0000
0001
0000
0100
0000
0000
0000
0000
0000
0000
0000
0000
0000
0000
0000
1100
0000
0000
0000
0000
0000
0000
0000
0000
0000
0000
0000
0001
0000
0000
0000
0000
0000
0100
0000
0000
0010
0000
0000
0100
0000
0000
0010
0000
0000
,
1000
0000
0000
0000
0010
0000
1001
0000
0000
0000
0001
0000
1000
0100
1000
0100
,
1000
0100
1000
0100
0000
0000
0000
0000
0000
0101
0000
0000
0000
0000
0000
0010
0000
0000
0020
0000
0000
1030
0000
0000
,
1001
0000
0010
0000
0100
0000
1001
0000
0010
0000
0100
0000
1000
0001
1000
0001
,
1000
0000
0001
0000
1000
0000
0001
0000
0000
0000
0000
0000
1000
0000
0000
0000
0000
0000
0110
0000
0000
0000
0000
0000
0001
0000
0000
0000
0000
0000
1000
0000
0000
0000
0000
0000
0100
0000
0000
0010
0000
0000
0001
0000
0000
1000
0000
0000
,
0110
0000
0001
0000
1000
0000
0110
0000
0001
0000
1000
0000
0010
0100
0010
0100
,
0010
0000
0100
0000
0010
0100
0010
0000
0000
0000
0000
0000
0001
0000
0000
0000
0000
0000
0110
0000
0000
0000
0000
0000
1000
0000
0000
0000
0000
0000
0001
0000
0000
0000
0000
0000
0010
0000
0000
0100
0000
0000
1000
0000
0000
0001
0000
0000
,
1000
0000
0000
0000
0001
0000
1100
0000
0000
0000
1000
0000
0101
0000
0001
1000
,
0001
0000
0000
0000
1010
0000
0001
0010
0001
0000
1000
0010
1000
0001
1000
0000
,
1001
0000
0010
0000
0100
0000
1001
0000
0010
0000
0100
0000
1000
0000
0001
0100
,
0001
0000
1000
0100
1000
0000
0001
0100
0001
0000
1000
0100
1000
0010
1000
0000
,
0001
0000
0000
0000
1000
0000
0101
0000
0000
0000
0001
0000
1100
0000
1000
0001
,
1000
0000
0000
0000
0011
0000
1000
0010
1000
0000
0001
0010
0001
1000
0001
0000
,
1001
0000
0010
0000
0100
0000
1001
0000
0010
0000
0100
0000
0001
0000
1000
0100
,
1000
0000
0001
0100
0001
0000
1000
0100
1000
0000
0001
0100
0001
0010
0001
0000
,
1000
0100
0010
1000
0010
0001
1000
0010
,
0001
1000
0100
0001
1000
0010
0100
0001
,
0010
0100
0001
1000
0010
0001
1000
0010
,
0001
0000
1000
0000
0100
0000
0001
0000
2000
0000
3000
0000
0001
1000
0001
0000
,
1000
0010
0100
1000
0100
0001
1000
0100
,
0001
1000
0010
0001
1000
0100
0010
0001
,
0100
0010
0001
1000
0100
0001
1000
0100
,
0001
1000
0010
0001
0200
0000
0302
0000
,
1003
0000
0000
0000
0010
0000
0000
0000
2002
0000
3003
0000
0010
0100
0000
0000
,
0110
0000
0000
0000
0010
0000
0000
0000
0100
0000
0010
0000
0000
0000
0000
0000
2002
3003
0000
0000
2002
3003
0000
0000
0010
0000
0200
0000
0000
0000
0300
0000
,
1001
0000
0001
0000
0100
0010
0000
0000
2002
0000
3003
0000
1000
0010
0000
0000
,
1001
0000
0000
0000
0002
0003
0100
0010
0100
0000
0002
0003
0000
0000
1000
0100
2000
3000
0000
0000
0002
0003
0000
0000
2000
0000
0000
3000
0002
0000
0000
0003
,
1100
0000
0101
0000
1100
0000
0101
0000
0011
0000
1010
0000
0011
0000
1000
0001
,
1001
0000
0110
0000
1001
0000
0110
0000
0011
0000
0110
0000
1000
0001
0100
0001
,
1001
0000
0011
0000
1001
0000
1010
0000
1001
0000
0011
0000
1001
0000
0010
0100
,
0110
0000
1100
0000
0110
0000
0101
0000
0110
0000
1100
0000
0001
1000
0100
1000
,
0001
0000
0100
0000
0010
0000
1000
0001
0100
0000
0010
0000
1000
0001
0100
0001
,
1000
0000
0010
0000
0100
0000
0001
0100
0010
1000
0001
0000
1000
0000
0100
0000
,
0010
0000
0001
0010
0001
0100
0001
0000
1000
0100
1000
0010
1000
0000
0011
0000
,
1000
0000
0001
0100
0001
0000
0010
0000
0100
0000
1000
0000
0001
0000
0100
0000
,
0010
0100
0010
1000
0001
0000
1000
0010
0100
0000
0001
1000
0010
1000
0100
0000
,
1000
0000
0100
0000
0001
0000
1000
0010
0001
0000
1000
0000
0001
1000
0010
0100
,
0001
0000
1010
0000
0001
0000
1000
0100
0020
0030
0020
0030
0001
0000
1000
0000
,
0010
0100
0010
1000
0001
0010
0100
1000
,
0001
0000
0100
0010
1000
0001
0100
0010
2000
0000
0000
0000
3001
0000
0010
0000
,
0100
0000
1000
0000
0010
0000
0100
0000
0001
1000
0010
0100
0001
0000
0200
0000
,
1300
0200
0301
0010
0200
0000
1300
0001
,
0100
0010
1000
0001
0010
0100
1000
0001
,
0100
0000
0010
1000
0001
0010
0001
1000
0200
0000
0000
0000
0310
0000
0001
0000
,
1000
0000
0010
0100
0001
0000
1000
0000
0001
0010
0100
1000
0001
0000
0020
0000
,
1030
0020
0031
0100
0020
0000
1030
0001
,
0010
0100
0010
0001
1000
0010
0100
0001
,
1000
0000
0100
0010
0001
1000
0100
0010
0002
0000
0000
0000
1003
0000
0010
0000
,
0100
0000
0001
0000
0010
0000
0100
0000
1000
0001
0010
0100
1000
0000
0200
0000
,
0301
0200
1300
0010
0200
0000
0301
1000
,
0100
0010
0001
1000
0010
0100
0001
1000
,
0100
0000
0010
0001
1000
0010
1000
0001
0200
0000
0000
0000
0310
0000
1000
0000
,
0001
0000
0010
0100
1000
0000
0001
0000
1000
0010
0100
0001
1000
0000
0020
0000
,
0031
0020
1030
0100
0020
0030
2002
0000
,
0000
0000
0000
0000
,
0000
0000
0000
0000
,
0000
0000
0000
0000
,
0000
0000
0000
3003
;

//---------------dance-single - TaroNuke----------------
#NOTES:
     dance-single:
     TaroNuke:
     Medium:
     14:
     0.550,0.634,0.405,0.231,0.080:
1001
0000
0000
1001
0000
0000
0000
0000
,
1000
0001
0000
0100
0000
0000
0000
0000
,
0001
0100
0000
0110
0000
0000
0000
0000
,
1000
0100
0000
0001
0000
0000
0000
0000
,
1000
0010
0000
1100
0000
0000
0000
0000
,
0001
0010
0000
1000
0000
0000
0000
0000
,
0001
0100
0000
0110
0000
0000
0000
0000
,
1000
0001
0000
0010
0000
0100
1000
0000
,
1001
0000
0000
1001
0000
0000
0000
0000
,
1000
0001
0000
0100
0000
0000
0000
0000
,
0001
0100
0000
0110
0000
0000
0000
0000
,
1000
0010
0000
0001
0000
0000
0000
0000
,
1000
0100
0000
0101
0000
0000
0000
0000
,
0001
0010
0000
1000
0000
0000
0000
0000
,
0001
0100
0000
0110
0000
0000
0000
0000
,
1000
0001
0000
0010
0000
0100
1000
0000
,
0001
0100
0001
0010
0100
1000
0010
1000
,
0000
0001
0010
0100
0000
0011
0000
0000
,
1000
0100
1000
0010
0100
0001
0010
0100
,
0000
0001
0100
1000
0000
0110
0000
0000
,
0001
0010
0100
1000
0010
0100
0001
1000
,
0000
0001
0010
0100
0000
1001
0000
0000
,
1000
0010
0100
0001
0010
0100
1000
0001
,
0100
0000
0010
0100
0010
0000
1000
0000
0001
0000
0100
0010
0100
0000
0001
0000
,
1000
0100
0001
0100
1000
0010
0001
0010
,
1000
0100
0001
0100
0000
1001
0000
0000
,
1000
0100
0010
1000
0100
0010
1000
0000
,
0001
0100
0010
0001
0100
0010
0001
0000
,
1000
0100
1100
0000
0101
0000
0011
0000
,
1010
0000
1100
0000
0000
1000
0001
0000
,
0011
1001
1010
0110
,
1000
0001
0100
0001
0020
0000
0130
0000
,
1001
0000
0000
0000
0001
0000
0100
0000
0000
0000
0010
0000
1000
0100
1000
0100
,
2000
3000
0000
1001
0000
0100
0010
0000
,
1001
0000
0000
0000
1000
0000
0100
0000
0000
0000
0010
0000
0001
0100
0001
0100
,
0002
0003
0000
1001
0000
0010
0100
0000
,
1001
0000
0000
0000
0100
0000
1001
0000
0000
0000
0001
0000
0010
0100
0010
0100
,
2000
3000
0000
0110
0000
0001
1000
0000
,
1001
0000
0000
0000
0010
0000
1001
0000
0000
0000
1000
0000
0010
0100
0010
0100
,
0002
0003
0000
0110
0000
1000
0001
0000
,
1000
0100
0010
0001
0010
0100
1000
0100
,
0010
0001
0010
0100
1000
0001
1000
0000
,
0001
0100
0010
1000
0010
0100
0001
0100
,
0010
1000
0100
0010
0001
0010
0100
0000
,
1000
0010
0100
0001
0100
0010
1000
0010
,
0100
0001
0100
0010
1000
0001
1000
0000
,
0001
0010
0100
1000
0100
0010
0001
0010
,
0100
1000
0010
0100
0001
0100
0010
0000
,
1000
0010
1000
0010
0100
0010
0100
0010
,
0100
0001
0100
0001
0010
0000
0100
0000
,
1000
0100
1000
0100
0010
0100
0010
0001
,
0010
0001
1000
0010
0200
0000
0301
0000
,
1000
0100
0010
0100
0010
0001
1000
0100
,
0010
0100
0010
0001
1000
0010
0100
0001
,
1000
0010
0100
0010
0100
0001
1000
0010
,
0100
0001
0010
0100
2000
0000
3000
0000
,
1001
0000
0110
0000
,
1001
0000
0000
0000
0110
0110
0000
0000
,
1100
0000
0011
0000
,
1010
0000
0000
0000
0101
0101
1001
1001
,
1000
0000
0100
0000
0010
0000
0001
0000
1000
0000
0010
0000
0100
0000
0001
1000
,
0001
0000
0010
0000
0100
0000
1000
0000
0001
0000
0100
0000
0010
1000
0100
1000
,
0001
0000
0100
0000
0010
0000
1000
0000
0001
0000
0010
0000
0100
0000
1000
0001
,
1000
0000
0010
0000
0100
0000
0001
0000
1000
0000
0010
0000
0100
0001
0010
0001
,
1000
0100
0010
0100
1000
0010
0100
0010
,
1000
0000
0000
0000
0000
0000
0000
0000
0100
0000
0000
0000
0000
0000
0000
0000
0010
0000
0000
0000
0000
0000
0000
0000
0100
0000
0000
0000
0000
0000
0000
0000
1000
0000
0000
0000
0000
0000
0000
0001
0000
0000
0000
0000
0000
0000
0000
0000
0100
0000
0000
0000
0000
0000
0000
0000
0001
0000
0000
0000
0000
0000
0000
0000
,
0010
0000
0000
0000
0000
0000
0000
0000
0001
0000
0000
0000
0000
0000
0000
0000
0100
0000
0000
0000
0000
0000
0000
0000
0010
0000
0000
0000
0000
0000
0000
0000
0001
0000
0000
0000
0000
0000
0000
0000
0010
0000
0000
0000
0000
0000
0000
0100
0000
0000
0000
0000
0000
0000
0000
0001
0000
0000
0000
0000
0000
0000
0000
0000
,
1000
0000
0000
0000
0000
0000
0000
0001
0000
0000
0000
0000
0000
0000
0000
0000
1000
0000
0000
0000
0000
0000
0000
0000
0100
0000
0000
0000
0000
0000
0000
0000
0001
0000
0000
0000
0000
0000
0000
0000
0100
0000
0000
0000
0000
0000
0000
0000
1000
0000
0000
0000
0000
0000
0000
0000
0010
0000
0000
0000
0000
0000
0000
0000
,
0100
0000
0000
0000
0000
0000
0000
0000
0010
0000
0000
0000
0000
0000
0000
0000
1000
0000
0000
0000
0000
0000
0000
0000
0100
0000
0000
0000
0000
0000
0000
0000
0001
0000
0000
0000
0000
0000
0000
0000
0100
0000
0000
0000
0000
0000
0000
0000
1000
0000
0000
0000
0000
0000
0000
0001
0000
0000
0000
0000
0000
0000
0000
0000
,
1000
0000
0000
0000
0000
0000
0000
0000
0010
0000
0000
0000
0000
0000
0000
0000
0001
0000
0000
0000
0000
0000
0000
0000
0010
0000
0000
0000
0000
0000
0000
0000
1000
0000
0000
0000
0000
0000
0000
0000
0100
0000
0000
0000
0000
0000
0000
0000
0010
0000
0000
0000
0000
0000
0000
0000
0100
0000
0000
0000
0000
0000
0000
1000
,
0000
0000
0000
0000
0000
0000
0000
0001
0000
0000
0000
0000
0000
0000
0000
0000
1000
0000
0000
0000
0000
0000
0000
0000
0010
0000
0000
0000
0000
0000
0000
0000
0100
0000
0000
0000
0000
0000
0000
0000
0100
0000
0000
0000
0000
0000
0000
0000
0002
0000
0000
0000
0000
0000
0000
0000
0000
0000
0000
0000
0000
0000
0000
0000
,
0000
0023
0000
0000
0230
0000
2300
0000
,
0000
3020
0000
0000
0230
0000
0301
0000
,
0000
0000
0011
1100
,
0000
1001
0000
2000
,
0000
3020
0000
0000
0230
0000
0302
0000
,
0000
0023
0000
0000
0230
0000
1300
0000
,
0000
0000
1010
0101
,
0000
1001
0000
0002
,
0000
0203
0000
0000
0320
0000
2030
0000
,
0000
3200
0000
0000
0320
0000
0031
0000
,
0000
0000
0011
1100
,
0000
1001
0000
2000
,
0000
3200
0000
0000
0320
0000
0032
0000
,
0000
0203
0000
0000
0320
0000
1030
0000
,
0000
0000
1010
0101
,
0000
1001
0000
0220
,
0000
0000
0000
0000
,
0000
0000
0000
0000
,
0000
0000
0000
0000
,
0000
0000
0000
0330
;

//---------------dance-single - Chewi----------------
#NOTES:
     dance-single:
     Chewi:
     Easy:
     7:
     0.328,0.512,0.315,0.000,0.000: // measure 1
1001
0100
0000
1000
,  // measure 2
0100
0001
0100
0010
,  // measure 3
0011
0000
0000
1000
,  // measure 4
1000
0010
0010
1000
,  // measure 5
1100
0000
0000
1000
,  // measure 6
1000
0100
0100
1000
,  // measure 7
0011
0000
0000
0010
,  // measure 8
0001
0100
0100
0001
,  // measure 9
1001
0100
0000
0001
,  // measure 10
0100
1000
0100
0010
,  // measure 11
1010
0000
0000
0001
,  // measure 12
0001
0010
0010
0001
,  // measure 13
0101
0000
0000
0001
,  // measure 14
0001
0100
0100
0001
,  // measure 15
1010
0000
0000
0010
,  // measure 16
1000
0100
0100
1000
,  // measure 17
1001
0000
0000
0101
,  // measure 18
0000
0110
0000
0000
,  // measure 19
1001
0000
0000
1100
,  // measure 20
0000
0110
0000
0000
,  // measure 21
1001
0000
0000
0101
,  // measure 22
0000
0110
0000
0000
,  // measure 23
1001
0000
0000
1100
,  // measure 24
1000
1000
0100
0100
,  // measure 25
1000
0100
0100
1000
,  // measure 26
0010
0010
0000
0000
,  // measure 27
1000
0001
0010
1000
,  // measure 28
1000
0100
1000
0000
,  // measure 29
1000
1000
0100
1000
,  // measure 30
1000
1000
1000
0010
,  // measure 31
1000
1000
1000
0100
,  // measure 32
0000
0000
0000
0000
,  // measure 33
1001
0010
0000
0001
,  // measure 34
0001
0000
0000
0100
,  // measure 35
1000
0010
0000
1000
,  // measure 36
1000
0000
0000
0000
,  // measure 37
1001
0100
0010
1000
,  // measure 38
1000
1000
0001
0100
,  // measure 39
0110
1000
0001
0010
,  // measure 40
0010
0001
1000
0010
,  // measure 41
1000
0001
0000
0101
,  // measure 42
0001
1010
0001
1000
,  // measure 43
1001
0100
0010
1000
,  // measure 44
0001
1000
0001
1000
,  // measure 45
0001
1000
0000
1100
,  // measure 46
1000
0011
1000
0001
,  // measure 47
1001
0100
0010
0001
,  // measure 48
1000
0001
1000
0001
,  // measure 49
1000
0010
0010
1000
,  // measure 50
0001
0100
1000
0100
,  // measure 51
0010
0001
0010
1000
,  // measure 52
0001
0100
0000
0001
,  // measure 53
1000
0100
0100
1000
,  // measure 54
0001
0010
1000
0010
,  // measure 55
0100
0001
0100
1000
,  // measure 56
0001
0010
0000
0000
,  // measure 57
1000
0010
0000
0010
,  // measure 58
0110
0100
0000
0010
,  // measure 59
1001
0100
0000
1000
,  // measure 60
1001
0100
0000
0000
,  // measure 61
1100
1100
0011
0011
,  // measure 62
1001
1001
0011
1000
,  // measure 63
1001
1001
1001
1001
,  // measure 64
0110
0110
0110
0001
,  // measure 65
0001
0010
0100
1000
,  // measure 66
1000
0100
0010
1000
,  // measure 67
0010
0001
1000
1000
,  // measure 68
1000
0001
0100
0001
,  // measure 69
0010
0001
0100
0010
,  // measure 70
1000
0001
0001
0001
,  // measure 71
0001
0001
0000
0001
,  // measure 72
0010
0010
0001
0100
,  // measure 73
0001
1000
0000
0001
,  // measure 74
0100
0010
0001
0001
,  // measure 75
1000
0001
0000
1000
,  // measure 76
0100
1000
0010
1000
,  // measure 77
0100
0001
0000
0010
,  // measure 78
1000
0001
0001
0001
,  // measure 79
1000
0001
0000
1000
,  // measure 80
0010
0010
1000
0100
,  // measure 81
1000
0001
0000
1000
,  // measure 82
0100
0010
1000
1000
,  // measure 83
0001
1000
0000
0001
,  // measure 84
0100
0001
0010
0001
,  // measure 85
0100
1000
0000
0010
,  // measure 86
0001
1000
1000
1000
,  // measure 87
0001
1000
0000
0000
;

//---------------dance-single - Chewi----------------
#NOTES:
     dance-single:
     Chewi:
     Beginner:
     4:
     0.119,0.270,0.189,0.000,0.000:
1001
0000
0000
0000
,
0100
0000
0000
0000
,
0011
0000
0000
0000
,
1000
0000
0000
0000
,
1100
0000
0000
0000
,
1000
0000
0000
0000
,
0011
0000
0000
0000
,
0001
0000
0000
0000
,
1001
0000
0000
0000
,
0100
0000
0000
0000
,
1010
0000
0000
0000
,
0001
0000
0000
0000
,
0101
0000
0000
0000
,
0001
0000
0000
0000
,
1010
0000
0000
0000
,
1000
0000
0000
0000
,
1001
0000
0000
0000
,
0100
0000
0000
0000
,
1001
0000
0000
0000
,
0100
0000
0000
0000
,
1001
0000
0000
0000
,
0100
0000
0000
0000
,
1001
0000
0000
0000
,
1000
0000
0000
0000
,
1000
0000
0000
0000
,
0010
0000
0000
0000
,
1000
0000
0000
0000
,
1000
0000
0000
0000
,
1000
0000
0000
0000
,
1000
0000
0000
0000
,
1000
0000
0000
0000
,
0001
0000
0000
0000
,
1001
0000
0000
0000
,
0001
0000
0000
0000
,
1000
0000
0000
0000
,
1000
0000
0000
0000
,
1001
0000
0000
0000
,
1000
0000
0000
0000
,
0110
0000
0000
0000
,
0010
0000
0000
0000
,
1000
0000
0000
0000
,
0001
0000
0000
0000
,
1001
0000
0000
0000
,
1001
0000
0000
0000
,
0001
0000
0000
0000
,
1000
0000
0000
0000
,
1001
0000
0000
0000
,
1000
0000
0000
0000
,
1000
0000
0000
0000
,
0001
0000
0000
0000
,
0010
0000
0000
0000
,
0001
0000
0000
0000
,
1000
0000
0000
0000
,
0001
0000
0000
0000
,
0100
0000
0000
0000
,
0001
0000
0000
0000
,
1000
0000
0000
0000
,
0010
0000
0000
0000
,
1001
0000
0000
0000
,
1001
0000
0000
0000
,
1100
0000
0011
0000
,
1001
0000
0000
1000
,
1001
0000
1001
0000
,
0110
0000
0110
0000
,
0001
0000
0000
0000
,
1000
0000
0000
1000
,
0000
0000
0000
1000
,
0000
0001
0000
0000
,
0000
0000
0100
0000
,
1000
0000
0000
0000
,
0001
0000
0000
0001
,
0000
0000
0000
0000
,
0001
0000
0000
0000
,
0100
0000
0000
0000
,
1000
0000
0000
0000
,
0100
0000
0000
0000
,
0100
0000
0000
0000
,
1000
0000
0000
0000
,
1000
0000
0000
0000
,
0010
0000
0000
0000
,
1000
0000
0000
0000
,
0100
0000
0000
0000
,
0001
0000
0000
0000
,
0100
0000
0000
0000
,
0100
0000
0000
0000
,
0001
0000
0000
0000
,
0001
0000
0000
0000
;
