#TITLE:ABSOLUTE (hammer MIX);
#SUBTITLE:;
#ARTIST:dj TAKA;
#TITLETRANSLIT:;
#SUBTITLETRANSLIT:;
#ARTISTTRANSLIT:;
#GENRE:;
#CREDIT:Chewphoria~;
#MENUCOLOR:;
#METERTYPE:DDR;
#BANNER:ABSOLUTE (hammer MIX).png;
#BACKGROUND:ABSOLUTE (hammer MIX)-bg.png;
#LYRICSPATH:;
#CDTITLE:;
#MUSIC:ABSOLUTE (hammer MIX).mp3;
#OFFSET:-8.990;
#SAMPLESTART:13.326;
#SAMPLELENGTH:15.000;
#SELECTABLE:YES;
#LISTSORT:;
#DISPLAYBPM:110.000;
#BPMS:0.000=109.970;
#STOPS:;
#BGCHANGES:;
#ATTACKS:;

//---------------dance-single - Chewphoria~----------------
#NOTES:
     dance-single:
     Chewphoria~:
     Beginner:
     1:
     0.086,0.100,0.022,0.055,0.000: // measure 1
0000
0000
0000
0000
,  // measure 2
0000
0000
0000
0000
,  // measure 3
2000
0000
0000
0000
,  // measure 4
3000
0000
0000
0000
,  // measure 5
0002
0000
0000
0000
,  // measure 6
0003
0000
0000
0000
,  // measure 7
0002
0000
0000
0000
,  // measure 8
0003
0000
0000
0000
,  // measure 9
2000
0000
0000
0000
,  // measure 10
3000
0000
0000
0000
,  // measure 11
1001
0000
0000
0000
,  // measure 12
1000
0000
0001
0000
,  // measure 13
0001
0000
0001
0000
,  // measure 14
0001
0000
1000
0000
,  // measure 15
1000
0000
1000
0000
,  // measure 16
0010
0000
0100
0000
,  // measure 17
0100
0000
0010
0000
,  // measure 18
0110
0000
0000
0000
,  // measure 19
0000
0000
1000
1000
,  // measure 20
1000
0000
0000
0000
,  // measure 21
0001
0000
0010
0000
,  // measure 22
0100
0000
0100
0000
,  // measure 23
1000
0000
0010
0000
,  // measure 24
0100
0000
0100
0000
,  // measure 25
0001
0000
1000
0000
,  // measure 26
0001
0000
0000
0010
,  // measure 27
0010
0000
0000
0000
,  // measure 28
0010
0000
0100
0000
,  // measure 29
1000
0000
0010
0000
,  // measure 30
0001
0000
0100
0000
,  // measure 31
1000
0000
0010
0000
,  // measure 32
0100
0000
0000
0000
,  // measure 33
0100
0000
0000
0000
,  // measure 34
0010
0000
0000
0000
,  // measure 35
1000
0000
0000
0000
,  // measure 36
0002
0000
0000
0000
,  // measure 37
0003
0000
0000
0000
;

//---------------dance-single - Chewphoria~----------------
#NOTES:
     dance-single:
     Chewphoria~:
     Easy:
     3:
     0.150,0.185,0.011,0.078,0.000: // measure 1
0000
0000
0000
0000
,  // measure 2
0000
0000
0000
0000
,  // measure 3
1000
0000
0001
1000
,  // measure 4
0000
0000
0000
0000
,  // measure 5
0001
0000
1000
0001
,  // measure 6
0000
0000
0000
0000
,  // measure 7
0100
0000
0010
0100
,  // measure 8
0000
0000
0000
0000
,  // measure 9
0010
0000
0100
0010
,  // measure 10
0000
0000
0000
0000
,  // measure 11
1000
0001
1000
0001
,  // measure 12
2000
0000
0000
0000
,  // measure 13
3001
0001
0001
0001
,  // measure 14
0002
0000
0000
0000
,  // measure 15
0103
0100
0100
0100
,  // measure 16
0200
0000
0000
0000
,  // measure 17
0320
0000
0000
0000
,  // measure 18
2030
0000
0000
0000
,  // measure 19
0000
0000
3001
0001
,  // measure 20
1001
0000
0000
0001
,  // measure 21
1000
0001
0010
0100
,  // measure 22
0000
0100
0100
1000
,  // measure 23
1000
0010
0100
0001
,  // measure 24
0100
0000
0000
0010
,  // measure 25
1000
0100
1000
0010
,  // measure 26
0100
0000
0000
0100
,  // measure 27
0001
0010
0100
1000
,  // measure 28
0001
0000
0000
0001
,  // measure 29
1000
0010
0100
0001
,  // measure 30
0000
0001
0100
0010
,  // measure 31
1000
0001
0010
1000
,  // measure 32
0100
0000
0000
1000
,  // measure 33
0100
0010
0001
0100
,  // measure 34
0010
0000
0000
1000
,  // measure 35
0001
1000
0100
0010
,  // measure 36
0002
1000
0000
1000
,  // measure 37
2003
0001
0000
0001
,  // measure 38
3000
0000
0000
0000
;

//---------------dance-single - Chewphoria~----------------
#NOTES:
     dance-single:
     Chewphoria~:
     Medium:
     6:
     0.239,0.246,0.155,0.078,0.000: // measure 1
0000
0000
0000
0000
,  // measure 2
0000
0000
0000
0000
,  // measure 3
1000
0001
1000
0000
0001
1000
0001
2000
,  // measure 4
0000
0000
0000
3000
,  // measure 5
0001
1000
0001
0000
1000
0001
1000
0002
,  // measure 6
0000
0000
0000
0003
,  // measure 7
1000
0001
1000
0000
0001
1000
0001
2000
,  // measure 8
0000
0000
0000
3000
,  // measure 9
0001
1000
0001
0000
1000
0001
1000
0002
,  // measure 10
0000
0000
0000
0003
,  // measure 11
0100
0110
0010
0110
,  // measure 12
1000
0100
0010
0001
,  // measure 13
1000
0010
0100
0001
,  // measure 14
0001
0010
0100
1000
,  // measure 15
1000
0010
0100
0001
,  // measure 16
1000
0001
0010
0010
,  // measure 17
0001
1000
0100
0100
,  // measure 18
1000
0010
0100
1000
,  // measure 19
1000
0010
0001
0100
,  // measure 20
0020
0000
0000
1030
,  // measure 21
1010
0001
0101
1000
,  // measure 22
0000
0001
1001
0010
,  // measure 23
0110
0100
1100
1000
,  // measure 24
1001
0010
0100
0001
,  // measure 25
0100
0010
1010
0001
,  // measure 26
1001
0000
0000
0000
0000
0000
1000
0001
,  // measure 27
0100
0000
0001
0100
,  // measure 28
1000
0010
0100
0001
,  // measure 29
0101
0010
0100
1000
,  // measure 30
1000
0001
0010
0001
,  // measure 31
1000
0010
1000
0100
,  // measure 32
0001
0010
0100
1000
,  // measure 33
1000
0100
0010
0001
,  // measure 34
1001
0100
0010
0100
,  // measure 35
0101
0010
0100
1000
,  // measure 36
1002
0000
1000
0000
0000
0000
1000
1000
,  // measure 37
2003
0001
0000
0001
,  // measure 38
3000
0000
0000
0000
;

//---------------dance-single - Chewphoria~----------------
#NOTES:
     dance-single:
     Chewphoria~:
     Hard:
     9:
     0.283,0.328,0.155,0.288,0.044: // measure 1
0000
0000
0000
0000
,  // measure 2
0000
0000
0000
0000
,  // measure 3
0010
0000
1000
0100
0000
0000
0000
0000
0010
0000
0001
0100
0000
0000
0200
0000
,  // measure 4
0000
0000
0000
0300
,  // measure 5
0100
0000
1000
0010
0000
0000
0000
0000
0100
0000
0001
0010
0000
0000
0020
0000
,  // measure 6
0000
0000
0000
0030
,  // measure 7
0010
0000
1000
0100
0000
0000
0000
0000
0010
0000
0001
0100
0000
0000
0200
0000
,  // measure 8
0000
0000
0000
0300
,  // measure 9
0100
0000
1000
0010
0000
0000
0000
0000
0100
0000
0001
0010
0000
0000
0020
0000
,  // measure 10
0000
0000
0000
0030
,  // measure 11
0010
0010
0010
0000
0100
0100
0100
0001
,  // measure 12
0200
0000
0010
0000
0001
0010
0001
0000
,  // measure 13
0320
0000
1000
0000
0100
1000
0100
0000
,  // measure 14
2030
0000
0001
0000
0100
0010
0100
0000
,  // measure 15
3002
0000
0100
0000
0010
1000
0010
0000
,  // measure 16
2003
0000
3001
1000
0001
0000
1001
0000
,  // measure 17
0002
0000
1003
0001
1000
0000
0001
0100
,  // measure 18
2020
0000
0000
0000
,  // measure 19
0000
0000
0000
3030
1000
0010
0100
0001
,  // measure 20
0020
0000
0030
0010
,  // measure 21
0011
0101
1100
2020
,  // measure 22
3030
0000
1000
0100
0010
0000
0100
0010
,  // measure 23
0001
0000
0001
0100
0010
1000
0001
0010
,  // measure 24
0200
0000
0000
0000
,  // measure 25
0300
0000
0010
0000
0001
0000
0100
0010
,  // measure 26
2000
0000
0000
0000
3000
0000
1000
0001
,  // measure 27
2000
0000
0000
0000
3001
0010
0100
1000
,  // measure 28
0020
0000
0000
1030
,  // measure 29
1010
0101
1100
0022
,  // measure 30
0033
0000
1000
0100
0001
0000
0010
0100
,  // measure 31
0010
0000
0001
0001
0100
0010
1000
0001
,  // measure 32
0010
0100
1000
0001
,  // measure 33
0100
1010
0011
1100
,  // measure 34
0202
0000
0000
0000
,  // measure 35
0000
0000
0000
0303
,  // measure 36
2000
0000
0010
0000
0001
0000
0010
0010
,  // measure 37
3020
0000
0100
0000
1000
1000
2000
0000
,  // measure 38
0000
3030
0000
0000
0000
0000
0000
0000
0000
0000
0000
0000
0000
0000
0000
0000
0000
0000
0000
0000
0000
0000
0000
0000
0000
0000
0000
0000
0000
0000
0000
0000
0000
0000
0000
0000
0000
0000
0000
0000
0000
0000
0000
0000
0000
0000
0000
0000
0000
0000
0000
0000
0000
0000
0000
0000
0000
0000
0000
0000
0000
0000
0000
0000
0000
0000
0000
0000
0000
0000
0000
0000
0000
0000
0000
0000
0000
0000
0000
0000
0000
0000
0000
0000
0000
0000
0000
0000
0000
0000
0000
0000
0000
0000
0000
0000
0000
0000
0000
0000
0000
0000
0000
0000
0000
0000
0000
0000
0000
0000
0000
0000
0000
0000
0000
0000
0000
0000
0000
0000
0000
0000
0000
0000
0000
0000
0000
0000
0000
0000
0000
0000
0000
0000
0000
0000
0000
0000
0000
0000
0000
0000
0000
0000
0000
0000
0000
0000
0000
0000
0000
0000
0000
0000
0000
0000
0000
0000
0000
0000
0000
0000
0000
0000
0000
0000
0000
0000
0000
0000
0000
0000
0000
0000
0000
0000
0000
0000
0000
0000
0000
0000
0000
0000
0000
0000
0000
0000
0000
0000
0000
0000
;
