#TITLE:ABSOLUTE (EZ 2 GO! GO! Mix);
#SUBTITLE:;
#ARTIST:remixed by KC-roomin';
#TITLETRANSLIT:;
#SUBTITLETRANSLIT:;
#ARTISTTRANSLIT:;
#GENRE:;
#CREDIT:Chewi☆;
#MENUCOLOR:#FFFFFF;
#METERTYPE:DDR X;
#BANNER:ABSOLUTE (EZ 2 GO! GO! Mix).png;
#BACKGROUND:ABSOLUTE (EZ 2 GO! GO! Mix)-bg.png;
#LYRICSPATH:;
#CDTITLE:./CDTITLES/DanceDanceRevolution skyMIX2 -FREEDOM-.png;
#MUSIC:ABSOLUTE (EZ 2 GO! GO! Mix).mp3;
#OFFSET:-0.269;
#SAMPLESTART:62.496;
#SAMPLELENGTH:15.000;
#SELECTABLE:YES;
#LISTSORT:;
#DISPLAYBPM:135.000;
#BPMS:0.000=135.000;
#STOPS:;
#BGCHANGES:-12.000=X2_Zero.avi=1.000=0=0=1,
99999=-nosongbg-=1.000=0=0=0 // don't automatically add -songbackground-
;
#ATTACKS:;

//---------------dance-single - Chewi----------------
#NOTES:
     dance-single:
     Chewi:
     Beginner:
     2:
     0.154,0.193,0.044,0.089,0.000: // measure 1
0000
0000
0000
0000
,  // measure 2
0000
0000
0000
0000
,  // measure 3
0000
0000
0000
0000
,  // measure 4
0000
0000
0000
0000
,  // measure 5
0002
0000
0000
0003
,  // measure 6
0001
0000
0000
0000
,  // measure 7
0200
0000
0000
0300
,  // measure 8
0100
0100
0100
0000
,  // measure 9
1001
0000
0000
0000
,  // measure 10
0001
0000
0000
0000
,  // measure 11
1000
0000
0000
0000
,  // measure 12
0010
0000
0001
0000
,  // measure 13
0010
0000
0001
0000
,  // measure 14
0010
0000
1000
0000
,  // measure 15
0010
0000
1000
0000
,  // measure 16
0001
0000
1000
0000
,  // measure 17
0001
0000
1000
0000
,  // measure 18
0010
0000
0100
0000
,  // measure 19
0010
0000
0100
0000
,  // measure 20
0020
0000
0000
0030
,  // measure 21
0010
0000
0100
0000
,  // measure 22
0100
0000
1000
0000
,  // measure 23
0001
0000
0010
0000
,  // measure 24
0200
0000
0000
0300
,  // measure 25
0100
0000
0010
0000
,  // measure 26
0001
0000
1000
0000
,  // measure 27
0001
0000
0100
0000
,  // measure 28
0020
0000
0000
0030
,  // measure 29
0010
0010
0010
0000
,  // measure 30
0002
0000
0000
0003
,  // measure 31
0001
0001
0001
0000
,  // measure 32
2000
0000
0000
3000
,  // measure 33
1000
1000
1000
0000
,  // measure 34
0200
0000
0000
0300
,  // measure 35
0100
0100
0100
0000
,  // measure 36
0010
0000
1000
0000
,  // measure 37
1001
0000
0000
0000
,  // measure 38
1000
0000
0001
0000
,  // measure 39
0010
0000
0000
0000
,  // measure 40
0010
0000
0100
0000
,  // measure 41
0110
0000
0000
0000
,  // measure 42
0001
0000
1000
0000
,  // measure 43
1000
1000
1000
0000
,  // measure 44
0100
0000
0010
0000
,  // measure 45
0001
0000
1000
0000
,  // measure 46
0001
0001
0001
0000
,  // measure 47
1000
0000
0010
0000
,  // measure 48
0100
0000
0001
0000
,  // measure 49
0010
0010
0010
0000
,  // measure 50
1000
0000
0010
0000
,  // measure 51
0001
0001
0001
0000
,  // measure 52
0200
0000
0000
0300
,  // measure 53
0100
0000
0000
0000
,  // measure 54
0020
0000
0000
0030
,  // measure 55
0010
0010
0010
0000
,  // measure 56
1000
0000
0001
0000
,  // measure 57
1000
0000
0001
0000
,  // measure 58
0010
0000
0100
0000
,  // measure 59
0010
0000
0100
0000
,  // measure 60
0110
0000
0000
0000
,  // measure 61
0001
0000
0000
0000
,  // measure 62
1000
0000
0000
0000
,  // measure 63
1001
0000
0000
0000
;

//---------------dance-single - Chewphoria~----------------
#NOTES:
     dance-single:
     Chewphoria~:
     Easy:
     4:
     0.226,0.252,0.053,0.267,0.000: // measure 1
0000
0000
0000
0000
,  // measure 2
0000
0000
0000
0000
,  // measure 3
0000
0000
0000
0000
,  // measure 4
0000
0000
0000
0000
,  // measure 5
2000
0000
0000
0001
,  // measure 6
3002
0000
0000
0003
,  // measure 7
0002
0000
0000
1000
,  // measure 8
2000
0000
0000
3003
,  // measure 9
0010
1000
0010
0000
,  // measure 10
0010
0001
0010
0000
,  // measure 11
0020
0000
0000
0030
,  // measure 12
0010
0010
0010
0010
,  // measure 13
0100
0100
0100
0100
,  // measure 14
1000
1000
1000
1000
,  // measure 15
0001
0001
0001
0001
,  // measure 16
0001
0100
0001
0100
,  // measure 17
1000
0100
1000
0100
,  // measure 18
0001
0100
1000
0100
,  // measure 19
0001
0010
1000
0010
,  // measure 20
0020
0000
0000
0030
,  // measure 21
0010
0100
0010
0100
,  // measure 22
0200
0000
0000
0300
,  // measure 23
0100
0010
0100
0010
,  // measure 24
2000
0000
0000
3000
,  // measure 25
1000
0001
1000
0001
,  // measure 26
0002
0000
0000
0003
,  // measure 27
0001
1000
0001
1000
,  // measure 28
0001
0000
0100
0000
,  // measure 29
2002
0000
0000
3003
,  // measure 30
1000
0000
0010
0000
,  // measure 31
2002
0000
0000
3003
,  // measure 32
0001
0000
0010
0000
,  // measure 33
2002
0000
0000
3003
,  // measure 34
1000
0000
0100
0000
,  // measure 35
2002
0000
0000
3003
,  // measure 36
0001
0001
0001
0001
,  // measure 37
2000
0000
0000
3000
,  // measure 38
1000
1000
1000
1000
,  // measure 39
0002
0000
0000
0003
,  // measure 40
0010
0010
0010
0010
,  // measure 41
0200
0000
0000
0300
,  // measure 42
0100
0100
0100
0100
,  // measure 43
0010
1000
0010
0001
,  // measure 44
0020
0000
0000
0030
,  // measure 45
0010
0100
0010
0100
,  // measure 46
0200
0000
0000
0300
,  // measure 47
0100
0001
0010
0100
,  // measure 48
2000
0000
0000
3000
,  // measure 49
0100
1000
0001
1000
,  // measure 50
0002
0000
0000
0003
,  // measure 51
0001
0001
1000
1000
,  // measure 52
0010
1000
0100
0001
,  // measure 53
0100
0000
0000
0000
,  // measure 54
0001
0100
1000
0010
,  // measure 55
2000
0000
0000
3000
,  // measure 56
1000
0100
0010
1000
,  // measure 57
0100
0000
0000
0000
,  // measure 58
0001
0010
0100
0001
,  // measure 59
0020
0000
0000
0030
,  // measure 60
2002
0000
0000
0000
,  // measure 61
0000
0000
0000
0000
,  // measure 62
3003
0220
0000
0000
,  // measure 63
0000
0000
0000
0000
,  // measure 64
0330
0000
0000
0000
;

//---------------dance-single - Chewphoria~----------------
#NOTES:
     dance-single:
     Chewphoria~:
     Medium:
     6:
     0.297,0.336,0.116,0.187,0.000: // measure 1
0000
0000
0000
0000
,  // measure 2
0000
0000
0000
0000
,  // measure 3
0000
0000
0000
0000
,  // measure 4
0000
0000
0000
0000
,  // measure 5
1000
0100
0001
0100
,  // measure 6
2000
0000
0000
3000
,  // measure 7
1000
0010
0001
0010
,  // measure 8
2000
0000
0000
3000
,  // measure 9
0001
0000
1000
0000
0001
1000
0001
0000
,  // measure 10
0100
0000
0010
0000
0100
0010
0100
0000
,  // measure 11
0220
0000
0000
0330
,  // measure 12
0010
1000
0100
0001
,  // measure 13
0010
0001
0100
1000
,  // measure 14
0010
0100
0010
0100
,  // measure 15
0001
1000
0001
1000
,  // measure 16
0100
1000
0100
0010
,  // measure 17
0100
0010
0100
0001
,  // measure 18
1000
0100
0001
0100
,  // measure 19
1000
1000
0001
0001
,  // measure 20
2200
0000
0000
3300
,  // measure 21
0100
0010
0001
0010
,  // measure 22
0100
1000
0010
0001
,  // measure 23
0100
0010
0001
0100
,  // measure 24
0202
0000
0000
0303
,  // measure 25
0100
1000
0010
0100
,  // measure 26
1000
0001
0100
0010
,  // measure 27
1000
0001
1001
0000
,  // measure 28
0001
0100
0001
0100
,  // measure 29
0220
0000
0000
0330
,  // measure 30
1000
0010
1000
0010
,  // measure 31
2002
0000
0000
3003
,  // measure 32
1000
0100
0010
0001
,  // measure 33
0220
0000
0000
0330
,  // measure 34
0001
0010
0100
1000
,  // measure 35
0000
0001
1000
0001
1000
0000
0000
0000
,  // measure 36
0001
0100
1000
0010
,  // measure 37
0001
0100
0001
0100
,  // measure 38
0001
0010
1000
0100
,  // measure 39
2200
0000
0000
3300
,  // measure 40
0100
1000
0010
0001
,  // measure 41
0202
0000
0000
0303
,  // measure 42
0010
1000
0000
0000
1000
0010
1000
0000
,  // measure 43
0010
0100
0001
1000
,  // measure 44
1001
0001
1000
0001
,  // measure 45
0001
0010
0001
0010
,  // measure 46
1000
0100
0001
0100
,  // measure 47
2000
0000
0000
3000
,  // measure 48
1000
0001
0100
1000
,  // measure 49
0001
0100
1000
0010
,  // measure 50
0100
0100
0100
0100
,  // measure 51
0100
0110
0010
0110
,  // measure 52
0010
0000
0010
0000
0010
0000
0010
0010
,  // measure 53
0020
0000
0000
0030
,  // measure 54
0001
0001
1000
1000
,  // measure 55
0001
0000
0000
1000
0000
0000
0001
0000
,  // measure 56
1000
0000
1000
0000
1000
0000
1000
0001
,  // measure 57
2000
0000
0000
3000
,  // measure 58
0010
0100
0010
0100
,  // measure 59
0010
0010
0110
0000
,  // measure 60
1000
0010
0010
0010
,  // measure 61
0001
0100
0100
0100
,  // measure 62
1000
0010
0010
0010
,  // measure 63
1000
0100
0100
0100
,  // measure 64
0100
0000
0000
0000
;

//---------------dance-single - Chewphoria~----------------
#NOTES:
     dance-single:
     Chewphoria~:
     Hard:
     10:
     0.487,0.645,0.098,0.107,0.182: // measure 1
0000
0000
0000
0000
,  // measure 2
0000
0000
0000
0000
,  // measure 3
0000
0000
0000
0000
,  // measure 4
0000
0000
0000
0000
,  // measure 5
1000
0100
1000
0100
0010
0100
0010
0001
,  // measure 6
0020
0000
0000
0030
,  // measure 7
0001
0010
0001
0010
0100
0010
0100
1000
,  // measure 8
0001
1000
0010
0100
0001
0100
0010
0000
0000
0000
0000
0000
,  // measure 9
0010
1000
0100
0000
0010
0010
0010
0000
,  // measure 10
0010
0001
0100
0000
0100
0100
0100
0000
,  // measure 11
0220
0000
0000
0330
,  // measure 12
0010
0000
1000
0000
0100
0001
0010
0000
,  // measure 13
0010
0000
0001
0000
0100
1000
0010
0000
,  // measure 14
0100
0000
0010
0000
1000
0001
1000
0000
,  // measure 15
0100
0000
0010
0000
0001
1000
0001
0000
,  // measure 16
1000
0000
0100
0000
0010
0001
0100
0000
,  // measure 17
0001
0000
0100
0000
0010
1000
0100
0000
,  // measure 18
0001
0000
1000
0000
0100
0010
0100
0000
,  // measure 19
0001
0000
1000
0000
0010
0100
0010
0000
,  // measure 20
1000
0010
0100
0000
0001
0100
0010
0000
,  // measure 21
1000
0001
1000
0001
0010
0100
0010
0100
,  // measure 22
0010
0101
0010
1100
,  // measure 23
0001
0100
1000
0010
,  // measure 24
0001
1000
0001
0000
0100
0010
0100
0000
,  // measure 25
0100
1000
0100
1000
0010
0100
0001
0010
,  // measure 26
0100
1100
0010
0011
,  // measure 27
0001
0000
1000
0000
0001
1000
0001
0000
,  // measure 28
2000
0001
0010
3001
,  // measure 29
0100
0100
0100
0000
0100
0000
0000
0000
,  // measure 30
0200
0001
0010
0301
,  // measure 31
0010
0010
0010
0000
0010
0000
0000
0000
,  // measure 32
2000
0100
0010
3100
,  // measure 33
0100
0100
0100
0000
0100
0000
0000
0000
,  // measure 34
0002
0010
0100
1003
,  // measure 35
0000
0000
1000
0000
0100
0000
0010
0000
0001
0010
0000
0000
0000
0000
0000
0000
,  // measure 36
0001
0010
0001
0010
0100
1000
0100
1000
,  // measure 37
0001
0000
0000
0001
0000
0000
1000
0000
0000
1000
0000
0000
1001
0000
0000
0000
,  // measure 38
1000
0001
1000
0001
0100
0010
0100
0010
,  // measure 39
0100
0010
0100
0010
0100
0000
0010
0100
0010
0100
0010
0000
1000
0000
0010
0000
,  // measure 40
0010
1000
0100
1000
0010
1000
0100
0010
,  // measure 41
0001
0011
0000
0010
1100
0100
0010
0000
,  // measure 42
0010
1000
0100
0000
0010
0001
0100
0000
,  // measure 43
0010
0100
0001
1000
0100
0010
0001
1000
,  // measure 44
0010
0100
0001
0010
0100
1000
0001
0000
,  // measure 45
1000
0000
0000
0100
0000
0000
0001
0000
0000
0010
0000
0000
1000
0000
0100
0000
,  // measure 46
1000
0010
0100
0001
1000
0010
0100
0001
,  // measure 47
0010
1000
0010
0100
0010
0001
0100
0010
,  // measure 48
0100
0001
0010
0000
0100
0100
0010
0000
,  // measure 49
0100
1000
0010
0000
0100
0100
0010
0000
,  // measure 50
1000
0001
1000
0001
0010
0100
0010
0100
,  // measure 51
0010
0001
0010
0001
1000
0100
1000
0100
,  // measure 52
1000
0001
1000
0001
1000
0000
0010
0100
0010
0100
0010
0000
0100
0010
0100
0010
,  // measure 53
0200
0000
0000
0300
,  // measure 54
0001
0100
0001
0100
0001
0000
1000
0100
1000
0100
1000
0000
0010
0100
0010
0100
,  // measure 55
0010
0000
0000
0001
0000
0000
0100
0000
0000
0001
0000
0000
0001
0000
0000
0000
,  // measure 56
0001
0010
0001
0010
0001
0000
1000
0100
1000
0100
1000
0000
1000
0001
1000
0001
,  // measure 57
2000
0000
0000
3000
,  // measure 58
1000
0010
0100
0001
0100
0010
1000
0001
,  // measure 59
0001
0010
0100
1000
0100
0010
0002
0000
0000
0003
0000
0000
,  // measure 60
0001
0000
0010
0000
0100
0000
0000
1000
0000
0000
0001
0000
1001
0000
1000
0000
,  // measure 61
0000
0000
0100
0000
0010
0000
0000
0001
0000
0000
1000
0000
0000
0000
0010
0000
,  // measure 62
0000
0000
0100
0000
0001
0000
0000
0100
0000
0000
0100
0000
0110
0000
0010
0000
,  // measure 63
0000
0000
0010
0000
1000
0000
0000
0100
0000
0000
0001
0000
0000
0000
2002
0000
,  // measure 64
3003
0000
0000
0000
;
