#TITLE:ABOUT US;
#SUBTITLE:;
#ARTIST:Brooke Hogan feat. Paul Wall;
#TITLETRANSLIT:;
#SUBTITLETRANSLIT:;
#ARTISTTRANSLIT:;
#GENRE:;
#CREDIT:;
#BANNER:ABOUT US.png;
#BACKGROUND:ABOUT US-bg.png;
#LYRICSPATH:;
#CDTITLE:cdtitle.png;
#MUSIC:ABOUT US.ogg;
#OFFSET:0.001000;
#SAMPLESTART:11.524000;
#SAMPLELENGTH:12.000000;
#SELECTABLE:YES;
#BPMS:0.000000=83.300003
;
#STOPS:
;
#BGCHANGES:0.000=ABOUT US.avi=1.000=1=0=1===CrossFade==,
128.000=ABOUT US-bg.png=1.000=1=0=1===CrossFade==,
99999=-nosongbg-=1.000=0=0=0 // don't automatically add -songbackground-
;
#KEYSOUNDS:;
#ATTACKS:;

//---------------dance-single - ----------------
#NOTES:
     dance-single:
     :
     Hard:
     8:
     0.303266,0.287492,0.231402,0.080488,0.000000,211.000000,188.000000,23.000000,8.000000,0.000000,0.000000,0.303266,0.287492,0.231402,0.080488,0.000000,211.000000,188.000000,23.000000,8.000000,0.000000,0.000000:
0000
0000
0000
0000
,
0000
0000
0000
0000
,
1000
0100
1100
0000
0001
0100
0101
0000
,
1000
0010
1010
0000
0001
0010
0011
0000
,
1001
0100
0010
0001
0010
0100
2000
0000
,
3001
0100
0010
1000
0001
0100
0010
1000
,
0002
0000
1003
0000
0001
0001
1000
1000
,
2002
0000
3003
0000
0010
0010
0010
0000
,
1001
0010
0100
1000
0100
0010
0002
0000
,
1003
0010
0100
0001
1000
0010
0100
0001
,
2000
0000
3001
0000
1000
1000
0001
0001
,
2002
0000
3003
0000
0100
0100
0100
0000
,
1000
0000
0001
0100
1000
0000
1000
0100
,
0001
0000
0001
0010
1000
0100
0001
0100
,
1000
1000
0001
0000
0001
0001
1000
0000
,
0001
0100
0010
1000
1001
0001
1001
0000
,
1000
0100
0001
0000
0001
0100
1000
0000
,
1000
0010
0001
0000
0001
0010
1000
0000
,
0001
0100
0001
0100
1000
0100
1000
0100
,
0001
0010
0001
0010
1000
0010
1000
0000
,
0010
1000
0100
0001
0100
1000
1001
0000
,
0001
0010
1000
0100
0001
0010
0100
0001
,
0011
0000
1001
0000
1000
1000
0001
0001
,
0101
0000
0000
0000
0010
0010
1010
0000
,
1000
0010
1000
0100
0010
1000
0100
0000
,
1000
0100
0001
0100
1000
0010
0100
1000
,
0010
0000
0000
0000
0100
0001
0100
1000
,
0100
0000
0000
0000
0001
1000
1001
0000
,
0001
0100
0101
0000
0100
0010
0110
0000
,
0100
0010
1010
0000
1000
0001
1001
0000
,
1000
0100
1100
0000
0100
0010
0110
0000
,
0010
0001
0011
0000
0001
1000
0001
0000
;

//---------------dance-single - ----------------
#NOTES:
     dance-single:
     :
     Medium:
     7:
     0.224216,0.223605,0.090549,0.000000,0.030183,156.000000,147.000000,9.000000,0.000000,0.000000,0.000000,0.224216,0.223605,0.090549,0.000000,0.030183,156.000000,147.000000,9.000000,0.000000,0.000000,0.000000:
0000
0000
0000
0000
,
0000
0000
0000
0000
,
1000
0000
0000
0000
0100
0000
0000
1000
0000
0000
1000
0000
0001
0000
0000
0000
,
0001
0000
0000
0000
0100
0000
0000
0001
0000
0000
0001
0000
1000
0000
0000
0000
,
1001
0100
1000
0010
,
0001
0000
0100
0000
1000
0010
1000
0010
,
1000
0000
0000
0000
0001
1000
0001
1000
,
0001
0000
1000
1100
,
1001
0010
0001
0100
,
1000
0000
0010
0000
0001
0100
0001
0100
,
0001
0000
0000
0000
1000
0001
1000
0001
,
1000
0000
0001
0011
,
0101
0000
0100
1000
0100
0000
1000
0000
,
0001
0000
0100
0001
0100
0000
0010
0000
,
1000
1000
1100
1100
,
0001
0001
0101
0101
,
0010
0000
1000
0001
1000
0000
0100
0000
,
0001
1000
0001
0000
0010
0000
1000
0001
,
0100
0100
0010
0010
,
1000
1000
0100
0001
,
0100
0001
0100
0000
0001
0100
0001
0000
,
0100
0010
0100
0000
0010
1000
0010
1000
,
0010
0000
0000
0000
1000
0001
1000
0001
,
1000
0000
0000
0000
0100
0100
0100
0000
,
0010
1000
0010
0000
1000
0010
1000
0000
,
0010
0100
0010
0000
0100
0001
0100
0001
,
0100
0000
0000
0000
0001
1000
0001
1000
,
0001
0000
0000
0000
0010
0010
0010
0000
,
1000
0000
0000
0000
0100
0000
0000
1000
0000
0000
1000
0000
0001
0000
0000
0000
,
0001
0000
0000
0000
0100
0000
0000
0001
0000
0000
0001
0000
1000
0000
0000
0000
,
0001
0000
0000
0000
0010
0000
0000
0001
0000
0000
0001
0000
1000
0000
0000
0000
,
1000
0000
0000
0000
0010
0000
0000
1000
0000
0000
1000
0000
0001
0000
0000
0000
;

//---------------dance-single - ----------------
#NOTES:
     dance-single:
     :
     Easy:
     4:
     0.166725,0.159718,0.060366,0.100610,0.000000,116.000000,110.000000,6.000000,10.000000,0.000000,0.000000,0.166725,0.159718,0.060366,0.100610,0.000000,116.000000,110.000000,6.000000,10.000000,0.000000,0.000000:
0000
0000
0000
0000
,
0000
0000
0000
0000
,
2000
3000
1000
1000
,
0002
0003
0001
0001
,
1000
1000
1000
1000
,
0001
0000
0001
0000
0001
0000
0001
0001
,
0001
0000
0000
0000
1000
0000
1000
1000
,
1000
0000
0001
1001
,
0100
0100
0100
0100
,
0010
0000
0010
0000
0010
0000
0010
0010
,
0010
0000
0000
0000
0100
0000
0100
0100
,
0100
0000
0010
0110
,
0001
0100
1000
0000
,
1000
0010
0001
0000
,
0001
0100
0010
1000
,
1000
0100
0010
0001
,
1000
0010
0001
0000
,
0001
0100
1000
0000
,
1000
0010
0100
0001
,
0001
0010
0100
1000
,
0001
0001
1000
1000
,
0001
0000
1000
0000
0001
0000
1000
1000
,
1000
0000
0000
0000
0001
0000
0001
0001
,
0001
0000
0010
0010
,
1000
1000
0001
0001
,
1000
0000
0001
0000
1000
0000
0001
0001
,
0001
0000
0000
0000
1000
0000
1000
1000
,
1000
0000
0100
0100
,
0220
0330
0010
0100
,
2002
3003
1000
0001
,
0220
0330
0100
0010
,
2002
3003
0001
1000
;

//---------------dance-single - ----------------
#NOTES:
     dance-single:
     :
     Beginner:
     1:
     0.054617,0.077973,0.000000,0.000000,0.000000,38.000000,38.000000,0.000000,0.000000,0.000000,0.000000,0.054617,0.077973,0.000000,0.000000,0.000000,38.000000,38.000000,0.000000,0.000000,0.000000,0.000000:
0000
0000
0000
0000
,
0000
0000
0000
0000
,
1000
0000
0000
0000
,
0001
0000
0000
0000
,
0100
0000
0100
0000
,
0010
0000
0010
0000
,
0100
0000
0100
0000
,
0010
0000
0010
0000
,
1000
0000
1000
0000
,
0001
0000
0001
0000
,
1000
0000
1000
0000
,
0001
0000
0001
0000
,
0010
0000
0000
0000
,
0100
0000
0000
0000
,
1000
0000
0000
0000
,
0001
0000
0000
0000
,
0100
0000
0000
0000
,
0010
0000
0000
0000
,
1000
0000
0000
0000
,
0001
0000
0000
0000
,
0001
0000
0000
0000
,
1000
0000
0000
0000
,
0001
0000
0000
0000
,
1000
0000
0000
0000
,
0100
0000
0000
0000
,
0010
0000
0000
0000
,
0100
0000
0000
0000
,
0010
0000
0000
0000
,
0010
0000
0000
0000
,
0010
0000
0000
0000
,
0100
0000
0000
0000
,
0100
0000
0000
0000
;
