#VERSION:0.83;
#TITLE:A PLACE WITH NO NAME;
#SUBTITLE:;
#ARTIST:MICHAEL JACKSON;
#TITLETRANSLIT:;
#SUBTITLETRANSLIT:;
#ARTISTTRANSLIT:;
#GENRE:;
#ORIGIN:;
#CREDIT:;
#BANNER:A PLACE WITH NO NAME.png;
#BACKGROUND:A PLACE WITH NO NAME-bg.png;
#PREVIEWVID:;
#JACKET:A PLACE WITH NO NAME-jacket.png;
#CDIMAGE:;
#DISCIMAGE:;
#LYRICSPATH:;
#CDTITLE:;
#MUSIC:A PLACE WITH NO NAME.ogg;
#OFFSET:0.001000;
#SAMPLESTART:56.598000;
#SAMPLELENGTH:12.000000;
#SELECTABLE:YES;
#BPMS:0.000=118.729;
#STOPS:;
#DELAYS:;
#WARPS:;
#TIMESIGNATURES:0.000=4=4;
#TICKCOUNTS:0.000=4;
#COMBOS:0.000=1;
#SPEEDS:0.000=1.000=0.000=0;
#SCROLLS:0.000=1.000;
#FAKES:;
#LABELS:0.000=Song Start;
#BGCHANGES:-0.500=A PLACE WITH NO NAME.avi=1.000=1=0=1===CrossFade==,
176.000=A PLACE WITH NO NAME-bg.png=1.000=1=0=1===CrossFade==,
99999=-nosongbg-=1.000=0=0=0 // don't automatically add -songbackground-
;
#KEYSOUNDS:;
#ATTACKS:
;

//---------------dance-single - ----------------
#NOTEDATA:;
#CHARTNAME:;
#STEPSTYPE:dance-single;
#DESCRIPTION:;
#CHARTSTYLE:;
#DIFFICULTY:Hard;
#METER:12;
#RADARVALUES:0.420336,0.439687,0.111032,0.188755,0.577367,265.000000,255.000000,10.000000,17.000000,0.000000,0.000000,0.000000,0.000000,0.000000,0.420336,0.439687,0.111032,0.188755,0.577367,265.000000,255.000000,10.000000,17.000000,0.000000,0.000000,0.000000,0.000000,0.000000;
#CREDIT:chewi;
#NOTES:
// measure 0
0000
0000
0000
0000
,  // measure 1
0000
0000
0000
0000
,  // measure 2
0000
0000
0000
0000
,  // measure 3
0000
0000
0000
0000
,  // measure 4
1000
0000
0000
0100
0000
0100
1000
0000
1000
0010
0000
0010
,  // measure 5
0100
0000
0000
0001
0000
0001
0010
0000
0010
0100
0000
0100
,  // measure 6
1000
0000
0000
0001
0000
0001
1000
0000
1000
0001
0000
0001
,  // measure 7
0100
0000
0000
0010
0000
0010
0100
0000
0100
0001
0000
0001
,  // measure 8
1000
0000
0000
0010
0000
0010
0100
0000
0100
0001
0000
0001
,  // measure 9
1000
0000
0000
0100
0000
0100
0010
0000
0010
0001
0000
0001
,  // measure 10
0010
0000
0000
0100
0000
0100
1000
0000
1000
0001
0000
0001
,  // measure 11
0100
0000
0000
0010
0000
0010
0100
0000
0100
0001
0000
0000
,  // measure 12
1001
0000
1000
0100
0000
0100
0010
0000
0010
0001
0000
0001
,  // measure 13
0100
0000
0100
0001
0000
0000
0100
0000
0100
0010
0000
0000
,  // measure 14
0001
0000
0001
0010
0000
0010
0100
0000
0100
1000
0000
1000
,  // measure 15
0010
0000
0010
1000
0000
0000
0010
0000
0010
0100
0000
0000
,  // measure 16
0110
0000
0010
0100
0000
0100
0001
0000
0001
0010
0000
0010
,  // measure 17
0100
0000
0100
1000
0000
0000
0100
0000
0100
0010
0000
0000
,  // measure 18
0100
0000
0100
1000
0000
1000
0001
0000
0001
0010
0000
0010
,  // measure 19
0100
0000
0100
0001
0000
0000
0100
0000
0100
0010
0000
0000
,  // measure 20
0100
1000
0100
1000
0000
0001
0010
0000
0100
0010
0000
0001
,  // measure 21
0100
0000
0000
1010
0000
1000
0010
0000
0000
0101
0000
0000
,  // measure 22
0010
0001
0010
0001
0000
1000
0100
0000
0010
0100
0000
1000
,  // measure 23
0010
0000
0000
0101
0000
0001
0100
0000
0000
1010
0000
0000
,  // measure 24
0001
0100
0001
0100
0000
0010
1000
0000
0001
1000
0000
0010
,  // measure 25
0001
0000
0000
0011
0000
0010
1000
0000
0000
1010
0000
0000
,  // measure 26
1000
0010
1000
0010
0000
0100
0001
0000
1000
0001
0000
0010
,  // measure 27
0001
0000
0000
0011
0000
0100
1000
0000
0000
1100
0000
0000
,  // measure 28
2000
0000
0000
3013
0000
0010
0002
0000
0000
3013
0000
0010
,  // measure 29
1000
0000
1000
3031
0000
0001
0310
0000
0010
0130
0000
0100
,  // measure 30
2003
0000
0000
3103
0000
0100
0002
0000
0000
0103
0000
0100
,  // measure 31
0020
0000
0000
0000
0001
0000
0000
0300
0100
0000
0000
0000
1030
0000
0000
0000
,  // measure 32
0002
0000
0000
3103
0000
0100
2000
0000
0000
3103
0000
0100
,  // measure 33
0001
0000
0001
1303
0000
1000
0130
0000
0100
0310
0000
0010
,  // measure 34
3002
0000
0000
3013
0000
0010
2000
0000
0000
3010
0000
0010
,  // measure 35
0200
0000
0000
0000
1000
0000
0000
0030
0010
0000
0000
0000
0301
0000
0000
0000
,  // measure 36
0010
0100
1000
0001
0000
0000
0010
0000
0010
0100
0000
0000
,  // measure 37
1000
0000
1000
0010
0000
0000
0100
0000
0100
0001
0000
0000
,  // measure 38
0001
0010
0100
1000
0000
0000
0001
0000
0001
1000
0000
0000
,  // measure 39
1000
0000
1000
0001
0000
0000
0100
0000
0100
0010
0000
0000
,  // measure 40
0020
0000
0000
1300
0000
0000
2030
0000
0000
0000
0000
3001
,  // measure 41
0030
0000
1003
0200
0000
0030
2300
0000
0000
3001
0000
0001
,  // measure 42
0200
0000
0000
0001
0000
0000
0320
0000
0000
1000
0000
0200
,  // measure 43
0000
0000
0000
0000
,  // measure 44
3333
0000
0000
0000
;

//---------------dance-single - ----------------
#NOTEDATA:;
#CHARTNAME:;
#STEPSTYPE:dance-single;
#DESCRIPTION:;
#CHARTSTYLE:;
#DIFFICULTY:Medium;
#METER:8;
#RADARVALUES:0.318821,0.366406,0.000000,0.288684,0.283132,201.000000,201.000000,0.000000,26.000000,0.000000,0.000000,0.000000,0.000000,0.000000,0.318821,0.366406,0.000000,0.288684,0.283132,201.000000,201.000000,0.000000,26.000000,0.000000,0.000000,0.000000,0.000000,0.000000;
#CREDIT:chewi;
#NOTES:
0000
0000
0000
0000
,
0000
0000
0000
0000
,
0000
0000
0000
0000
,
0000
0000
0000
0000
,
1000
0010
0200
0310
,
0010
1000
0200
0310
,
0010
0001
0200
0301
,
0001
0010
0200
1300
,
1000
0001
0020
0031
,
0001
0000
0000
1000
0000
0000
0020
0000
0000
1030
0000
0003
,
0100
0010
0200
0310
,
0010
0100
0020
0031
,
0001
0000
0001
0100
0000
0000
0010
0000
0000
1000
0000
0000
,
0001
0000
0001
0010
0000
0000
0100
0000
0000
1000
0000
0000
,
0001
0000
0001
0100
0000
0000
0001
0000
0001
1000
0000
0000
,
0001
0000
0001
0010
0000
0010
0100
0000
0100
1000
0000
1000
,
0100
0000
0100
1000
0000
0000
0100
0000
0000
0010
0000
0000
,
0100
0000
0100
1000
0000
0000
0010
0000
0000
0100
0000
0000
,
0001
0000
0001
0010
0000
0000
0001
0000
0001
1000
0000
0000
,
1000
0000
1000
0100
0000
0100
0010
0000
0010
0001
0000
0001
,
1000
0000
1000
0010
0000
0000
0100
0000
0000
0001
0000
0000
,
1000
0000
1000
0100
0000
0000
0010
0000
0000
0001
0000
0000
,
1000
0000
1000
0010
0000
0000
1000
0000
1000
0001
0000
0000
,
1000
0000
1000
0100
0000
0100
0010
0000
0010
0001
0000
0001
,
0010
0000
0010
0001
0000
0000
0010
0000
0000
0100
0000
0000
,
0010
0000
0010
0001
0000
0000
0100
0000
0000
0010
0000
0000
,
1000
0000
1000
0100
0000
0000
1000
0000
1000
0001
0000
0000
,
1000
0000
1000
0010
0000
0010
0100
0000
0100
0001
0000
0001
,
2000
3013
0002
3013
,
0020
0230
2300
3020
,
0130
0000
0000
0301
0000
0000
1000
0000
1000
0010
0000
0000
,
0010
0000
0000
1030
0000
0000
0001
0000
0001
0100
0000
0000
,
0002
3103
2000
3103
,
0200
0320
0032
0203
,
0310
0000
0000
1030
0000
0000
0001
0000
0001
0100
0000
0000
,
0100
0000
0000
0301
0000
0000
1000
0000
1000
0010
0000
0000
,
0020
0000
0000
1030
0000
0000
2030
0000
0000
3010
0000
3001
,
0010
0000
0010
0100
0000
0100
1000
0000
1000
0010
0000
0010
,
0200
0000
0000
0301
0000
0000
0302
0000
0000
0103
0000
0001
,
0100
0000
0100
0010
0000
0010
1000
0000
1000
0001
0000
0001
,
1000
0000
0000
0000
0000
0000
0031
0000
0000
0000
0000
3010
,
0000
0000
0010
0100
0000
0000
1300
0000
0000
3010
0000
0010
,
0100
0000
0000
0000
0000
0000
0302
0000
0000
0000
0000
2000
,
0000
0000
0000
0000
,
3003
0000
0000
0000
;

//---------------dance-single - ----------------
#NOTEDATA:;
#CHARTNAME:;
#STEPSTYPE:dance-single;
#DESCRIPTION:;
#CHARTSTYLE:;
#DIFFICULTY:Easy;
#METER:4;
#RADARVALUES:0.187168,0.244271,0.066619,0.022206,0.000000,118.000000,112.000000,6.000000,2.000000,0.000000,0.000000,0.000000,0.000000,0.000000,0.187168,0.244271,0.066619,0.022206,0.000000,118.000000,112.000000,6.000000,2.000000,0.000000,0.000000,0.000000,0.000000,0.000000;
#CREDIT:chewi;
#NOTES:
0000
0000
0000
0000
,
0000
0000
0000
0000
,
0000
0000
0000
0000
,
0000
0000
0000
0000
,
0000
1000
0000
1000
,
0000
0000
0000
1000
,
0000
0001
0000
0001
,
0000
0100
0000
0100
,
0000
0010
0000
0010
,
0000
1000
0000
1000
,
0000
0001
0000
0001
,
0000
1000
0000
1000
,
1000
0100
1000
0100
,
0010
0010
0010
0000
,
0010
0001
0010
0001
,
0100
0100
0100
0000
,
0100
0001
0100
0001
,
1000
0010
1000
0010
,
1000
0001
1000
0001
,
0010
0100
0010
0100
,
0010
0001
0010
0001
,
0100
0100
0100
0000
,
0100
0010
0100
0010
,
1000
1000
1000
0000
,
0010
1000
0010
1000
,
0001
0100
0001
0100
,
0001
1000
0001
1000
,
0100
0010
0100
0010
,
0110
0000
0010
0000
,
0001
1000
0001
0100
,
0010
0000
0110
0000
,
1001
0000
0000
0000
,
0110
0000
0100
0000
,
1000
0001
1000
0010
,
0010
0000
0110
0000
,
1001
0000
0000
0000
,
1000
0000
1000
0000
,
1000
0100
0001
0010
,
1000
0000
1000
0000
,
1000
0010
0001
0100
,
1000
0000
0001
0000
,
1000
0000
0100
0000
,
1000
0000
0002
0000
,
2000
0000
0000
0000
,
3003
0000
0000
0000
;

//---------------dance-single - ----------------
#NOTEDATA:;
#CHARTNAME:;
#STEPSTYPE:dance-single;
#DESCRIPTION:;
#CHARTSTYLE:;
#DIFFICULTY:Beginner;
#METER:2;
#RADARVALUES:0.104687,0.146562,0.088826,0.133239,0.000000,66.000000,58.000000,8.000000,12.000000,0.000000,0.000000,0.000000,0.000000,0.000000,0.104687,0.146562,0.088826,0.133239,0.000000,66.000000,58.000000,8.000000,12.000000,0.000000,0.000000,0.000000,0.000000,0.000000;
#CREDIT:chewi;
#NOTES:
0000
0000
0000
0000
,
0000
0000
0000
0000
,
0000
0000
0000
0000
,
0000
0000
0000
0000
,
0000
1000
0000
1000
,
0000
0000
0000
0000
,
0000
0001
0000
0001
,
0000
0100
0000
0100
,
0000
0010
0000
0010
,
0000
1000
0000
1000
,
0000
0001
0000
0001
,
0000
1000
0000
1000
,
1000
0000
1000
0000
,
2000
0000
0000
3030
,
0001
0000
0001
0000
,
0002
0000
0000
0303
,
0010
0000
0010
0000
,
0020
0000
0000
3033
,
0100
0000
0100
0000
,
0200
0000
0000
0330
,
0001
0000
0001
0000
,
0002
0000
0000
0303
,
1000
0000
1000
0000
,
2000
0000
0000
3030
,
0100
0000
0100
0000
,
0200
0000
0000
3303
,
0010
0000
0010
0000
,
0020
0000
0000
0330
,
0110
0000
0000
0000
,
1001
0000
0000
0000
,
0110
0000
0000
0000
,
1001
0000
0000
0000
,
0110
0000
0000
0000
,
1001
0000
0000
0000
,
0110
0000
0000
0000
,
1001
0000
0000
0000
,
1000
0000
1000
0000
,
2000
0000
0000
3000
,
0001
0000
0001
0000
,
0002
0000
0000
0003
,
0100
0000
0100
0000
,
0200
0000
0000
0300
,
0010
0000
0010
0000
,
0020
0000
0000
0000
,
0030
0000
0000
0000
;
