#TITLE:A Midsummer Night's Dream (Ryu☆ Remix);
#SUBTITLE:;
#ARTIST:Ryu☆;
#TITLETRANSLIT:;
#SUBTITLETRANSLIT:;
#ARTISTTRANSLIT:;
#CREDIT:Chewphoria~;
#BANNER:A Midsummer Night's Dream (Ryu Remix).png;
#BACKGROUND:A Midsummer Night's Dream (Ryu Remix)-bg.png;
#LYRICSPATH:;
#CDTITLE:;
#MUSIC:A Midsummer Night's Dream (Ryu Remix).mp3;
#OFFSET:-0.812;
#SAMPLESTART:8.302;
#SAMPLELENGTH:15.000;
#SELECTABLE:YES;
#BPMS:0.000=128.010;
#STOPS:;
#BGCHANGES:;

//---------------dance-single - Chewphoria~----------------
#NOTES:
     dance-single:
     Chewphoria~:
     Beginner:
     1:
     0.142,0.199,0.070,0.030,0.000:
0000
0000
0000
0000
,
0000
0000
0000
0000
,
0000
0000
0000
0000
,
0000
0000
0000
0000
,
0010
0000
1000
0000
,
0100
0000
0001
0000
,
0001
0001
0001
0000
,
1001
0000
0000
0000
,
0010
0000
0001
0000
,
0100
0000
1000
0000
,
0001
0001
0001
0000
,
1001
0000
0000
0000
,
2000
0000
0000
3000
,
1000
0000
1001
0000
,
0001
0000
1000
0000
,
0001
0000
0000
0000
,
0002
0000
0000
0003
,
0001
0000
1000
0000
,
1001
0000
1000
0000
,
0001
0001
0001
0000
,
1000
0000
0100
0000
,
0010
0000
0001
0000
,
0010
0000
1000
0000
,
0100
0000
0001
0000
,
0010
0000
1000
0000
,
0100
0000
0001
0000
,
0010
0000
0100
0000
,
0010
0000
0000
0000
,
0100
0000
0001
0000
,
0010
0000
1000
0000
,
0001
0000
1000
0000
,
1001
0000
0000
0000
,
1000
0000
0010
0000
,
1000
1000
1000
0000
,
0001
0000
0100
0000
,
0001
0001
0001
0000
,
0010
0000
0100
0000
,
0001
1000
0001
0000
,
1000
0000
1000
0000
,
0001
0001
0001
0001
,
1001
0000
0100
0000
,
0100
0000
0100
0000
,
0010
0000
1000
0000
,
0100
0000
0001
0000
,
0110
0000
0010
0000
,
0010
0000
0010
0000
,
0001
0000
0100
0000
,
1000
0000
0010
0000
,
0200
0000
0000
0000
,
0000
0000
0000
0000
,
0300
0000
0000
0000
;

//---------------dance-single - Chewphoria~----------------
#NOTES:
     dance-single:
     Chewphoria~:
     Easy:
     3:
     0.249,0.324,0.070,0.379,0.000:
0000
0000
0000
0000
,
0000
0000
0000
0000
,
0000
0000
0000
0000
,
0000
0000
0000
0000
,
2000
0000
3002
0000
,
0103
0010
0100
0010
,
0020
0000
2030
0000
,
3001
0010
0001
0010
,
0020
0000
0230
0000
,
0310
0100
0010
0100
,
0002
0000
2003
0000
,
3001
0010
0100
1001
,
2000
0000
3020
0000
,
1030
0100
0001
0100
,
2000
0000
3020
0000
,
0031
0001
0100
0100
,
2000
0000
3200
0000
,
1300
0010
0001
0010
,
0002
0000
2003
0000
,
3001
0010
0100
1001
,
0002
0000
0000
0003
,
2000
0000
0000
3000
,
0020
0000
0230
0000
,
0302
0000
1000
1000
,
2003
0000
3002
0000
,
0103
0010
0100
0010
,
0020
0000
2030
0000
,
3001
0010
0001
0010
,
0020
0000
0230
0000
,
0310
0100
0010
0100
,
0002
0000
2003
0000
,
3001
0010
0100
1001
,
0001
1000
0010
0000
,
0010
0010
0010
0000
,
1000
0001
0010
0000
,
0010
0010
0010
0000
,
0100
1000
0001
0000
,
0100
0100
0100
0000
,
0100
0001
1000
0100
,
0110
1001
0110
1001
,
0002
0000
2003
0000
,
3010
0100
0010
0100
,
0200
0000
0302
0000
,
1003
0100
1000
0100
,
0200
0000
0320
0000
,
0130
0010
0100
0010
,
2000
0000
3002
0000
,
1003
0100
0010
0001
,
2000
0000
0000
0000
,
0000
0000
0000
0000
,
3000
0000
0000
0000
;

//---------------dance-single - Chewphoria~----------------
#NOTES:
     dance-single:
     Chewphoria~:
     Medium:
     5:
     0.323,0.349,0.189,0.229,0.000:
0000
0000
0000
0000
,
0000
0000
0000
0000
,
0000
0000
0000
0000
,
0000
0000
0000
0000
,
2000
0000
3020
0000
,
0130
0001
0010
1000
,
0100
1000
1100
0001
,
0101
0000
0100
0010
0100
0010
0100
0010
,
0200
0000
2300
0000
,
3001
0010
1000
0100
,
0001
0100
0101
0010
,
0010
0001
0010
0001
0000
0010
0001
0000
,
0020
0000
0032
0000
,
1003
0100
0001
0010
,
1000
0010
1010
0100
,
1100
0000
1000
0001
1000
0001
1000
0001
,
0002
0000
0203
0000
,
0310
1000
0100
0001
,
0010
0001
0011
1000
,
1000
0010
1000
0010
0000
0010
1000
0001
,
1000
0000
0001
0000
1100
0000
1000
0001
,
1000
0000
0001
0000
0101
0000
0010
0100
,
0010
0000
0100
0010
0100
0000
0010
1000
,
0010
0000
0100
0001
0100
0000
0100
0000
,
2000
0000
3020
0000
,
0130
0001
0010
1000
,
0100
1000
1100
0001
,
0101
0000
0100
0010
0100
0010
0100
0010
,
0200
0000
2300
0000
,
3001
0010
1000
0100
,
0001
0100
0101
0010
,
0010
0001
0010
0001
0000
0010
0001
0000
,
0020
0000
0032
0000
,
1003
0100
0001
0010
,
2000
0000
3020
0000
,
1030
0000
1000
0001
1000
0001
1000
0001
,
0002
0000
0203
0000
,
0310
1000
0100
0001
,
0010
0011
0010
1000
,
1010
1100
0101
0011
,
0002
0000
0203
0000
,
0310
1000
0100
0001
,
0010
0001
0011
1000
,
1010
0000
0010
0100
0010
0100
0010
0100
,
0020
0000
0032
0000
,
1003
0100
0001
0010
,
1000
0010
1010
0100
,
0100
1000
0100
1000
0000
1000
0100
0001
,
0020
0000
0000
0000
,
0000
0000
0000
0000
,
0030
0000
0000
0000
;

//---------------dance-single - Chewphoria~----------------
#NOTES:
     dance-single:
     Chewphoria~:
     Hard:
     7:
     0.456,0.499,0.489,0.449,0.030: // measure 1
0000
0000
0000
0000
,  // measure 2
0000
0000
0000
0000
,  // measure 3
0000
0000
0000
0000
,  // measure 4
0000
0000
0000
0000
,  // measure 5
2200
0000
3300
0000
0022
0000
0033
1000
,  // measure 6
1000
0110
0001
0100
,  // measure 7
1000
0000
0100
0000
1000
0000
0000
0000
0001
0000
0100
0000
0001
0000
0000
0100
,  // measure 8
0010
0000
0100
0100
0010
0010
1000
1000
,  // measure 9
2020
0000
3030
0000
0202
0000
0303
0001
,  // measure 10
0001
0110
1000
0100
,  // measure 11
0010
0100
0010
0000
0001
1000
0001
0000
,  // measure 12
1001
1000
0001
1000
0000
0001
0010
0001
,  // measure 13
0022
0000
0033
0000
2200
0000
3300
0001
,  // measure 14
0001
0110
1000
0010
,  // measure 15
0001
0000
0010
0000
0001
0000
0000
0000
1000
0000
0010
0000
1000
0000
0000
0100
,  // measure 16
0010
0000
0010
0010
0100
0100
0001
0001
,  // measure 17
0202
0000
0303
0000
2020
0000
3030
1000
,  // measure 18
1000
0100
0001
0010
,  // measure 19
0100
0010
0100
0000
1000
0001
1000
0000
,  // measure 20
1001
0001
1000
0001
0000
1000
1000
1000
,  // measure 21
0100
1000
0100
0010
1000
0000
0100
0010
,  // measure 22
0001
0000
0001
0100
0010
0000
1000
0100
,  // measure 23
1001
0000
0001
0100
1001
0000
0001
1000
,  // measure 24
0010
0100
0001
1000
0100
0110
0001
1001
,  // measure 25
2200
0000
3300
0000
0022
0000
0033
1000
,  // measure 26
1000
0110
0001
0100
,  // measure 27
1000
0000
0100
0000
1000
0000
0000
0000
0001
0000
0100
0000
0001
0000
0000
0100
,  // measure 28
0010
0000
0100
0100
0010
0010
1000
1000
,  // measure 29
2020
0000
3030
0000
0202
0000
0303
0001
,  // measure 30
0001
0110
1000
0100
,  // measure 31
0010
0100
0010
0000
0001
1000
0001
0000
,  // measure 32
1001
1000
0001
1000
0000
0001
0001
0001
,  // measure 33
0022
0000
0033
0000
2200
0000
3300
0001
,  // measure 34
0101
1010
0011
1100
,  // measure 35
2002
0000
3003
0000
0202
0000
0303
0001
,  // measure 36
0010
0000
0100
0000
1000
0010
0100
0001
,  // measure 37
2200
0000
3300
0000
0022
0000
0033
1000
,  // measure 38
1010
0101
1100
0011
,  // measure 39
1000
0000
0000
0010
1000
0000
0000
0000
0010
0000
0000
1000
0010
0000
1000
0000
,  // measure 40
1100
0011
0101
1100
,  // measure 41
0022
0000
0033
0000
2200
0000
3300
0001
,  // measure 42
0001
0110
1000
0010
,  // measure 43
0001
0000
0010
0000
0001
0000
0000
0000
1000
0000
0010
0000
1000
0000
0000
0010
,  // measure 44
0100
0000
0010
0010
0100
0100
0001
0001
,  // measure 45
0202
0000
0303
0000
2020
0000
3030
1000
,  // measure 46
1000
0110
0001
0010
,  // measure 47
0100
0010
0100
0000
1000
0001
1000
0000
,  // measure 48
1001
0001
1000
0001
0000
0001
0100
0010
,  // measure 49
2000
0000
0000
0000
,  // measure 50
0000
0000
0000
0000
,  // measure 51
3000
0000
0000
0000
;
