#TITLE:A Geisha's Dream (Ruffage Remix);
#SUBTITLE:;
#ARTIST:NAOKI feat. SMiLE.dk;
#TITLETRANSLIT:;
#SUBTITLETRANSLIT:;
#ARTISTTRANSLIT:;
#GENRE:;
#CREDIT:Chewi☆;
#MENUCOLOR:#00FFFF;
#METERTYPE:DDR X;
#BANNER:A Geisha's Dream (Ruffage Remix).png;
#BACKGROUND:A Geisha's Dream (Ruffage Remix)-bg.png;
#LYRICSPATH:;
#CDTITLE:;
#MUSIC:A Geisha's Dream (Ruffage Remix).mp3;
#OFFSET:-1.766;
#SAMPLESTART:29.180;
#SAMPLELENGTH:15.000;
#SELECTABLE:YES;
#LISTSORT:;
#DISPLAYBPM:140.000;
#BPMS:0.000=140.000;
#STOPS:;
#BGCHANGES:;
#ATTACKS:;

//---------------dance-single - Chewi----------------
#NOTES:
     dance-single:
     Chewi:
     Hard:
     10:
     0.564,0.506,0.188,0.113,0.056:
0000
0000
0000
0000
,
0000
0000
0000
0000
,
0000
0000
0000
0000
,
0000
0000
0000
0000
,
1000
0100
0010
0000
0001
0010
0100
1000
,
0002
0000
0203
0000
0320
0000
1030
0100
,
0001
0010
1000
0000
1000
0010
0001
0100
,
1000
0001
1000
0001
0100
0010
0100
0000
,
0102
0000
0010
0000
0103
0000
0010
1000
,
0100
0010
0001
0010
0100
1000
0001
0100
,
0010
0100
1001
0000
0010
0100
1001
0000
,
1000
0100
0001
0100
1000
0010
0001
0010
,
2010
0000
0100
0000
3010
0000
0100
0001
,
0010
0100
1000
0001
0100
0000
0010
0100
,
0001
1000
0001
1000
0010
0100
0010
0100
,
1010
0100
0001
0010
0022
0000
0033
0000
,
0001
0010
0100
1000
0001
0010
0100
1000
,
0001
0100
1000
0010
1000
0100
0001
0010
,
0100
0010
0100
0010
0001
1000
0001
1000
,
0010
0100
0001
0100
0010
1000
1001
0000
,
1000
0100
1000
0100
0010
0100
0010
0100
,
0010
0001
0010
0001
0100
0001
0100
0001
,
0100
0010
1001
0000
0010
0100
1001
0000
,
1000
0100
0010
1000
0100
0010
0001
0000
,
0001
0000
0000
0001
0010
0000
0000
0010
0100
0000
0000
0100
1000
0000
0000
1000
,
0100
0000
0000
0100
0010
0000
0000
0010
0001
0000
0000
0001
1000
0000
0000
1000
,
0010
0000
0000
0010
0100
0000
0000
0100
0010
0000
0000
0010
0100
0000
0000
0100
,
0001
0010
0100
1000
0001
0010
0100
1000
,
0010
0000
0100
0001
0010
1000
0100
0010
,
0001
1000
0001
1000
0001
0000
1000
0010
,
0100
0001
0010
0000
0100
1000
0010
0000
,
1000
0100
0001
0010
0100
0001
0010
0100
,
1000
0001
0100
0000
1000
0001
0100
0000
,
0010
0100
0010
0100
0001
1000
0001
1000
,
0100
0010
0001
0000
0100
1000
0010
0000
,
0100
0010
0100
0010
1000
0001
1000
0001
,
2100
0000
0001
0000
3010
0000
0100
0001
,
0010
0100
1000
0010
0100
0001
1001
0000
,
1000
0100
1000
0000
0001
0010
0001
0000
,
1000
0001
0100
0010
1000
0001
0010
0100
,
2001
0000
0001
0000
3100
0010
0001
0100
,
1000
0100
0001
0000
1000
0010
0001
0100
,
1000
0001
0100
1000
0010
0100
0001
0010
,
0100
1000
0001
1000
0220
0000
0330
0000
,
0100
0001
0010
0100
1000
0010
0100
0000
,
0100
0010
1000
0001
0010
0100
1000
0000
,
0101
0000
0010
1000
0001
0000
1010
0000
,
0001
0010
1000
0100
0001
0100
1000
0000
,
1010
0101
1100
0011
,
0101
0000
0100
0010
0100
0000
0001
1000
,
0100
0001
0100
0000
0001
0010
0001
0000
,
0010
1000
0100
0010
0001
1000
0100
0010
,
0001
1000
0001
1000
0010
0100
0010
0100
,
0010
1000
0010
1000
0001
0100
0001
0100
,
0010
0100
0010
0100
0001
1000
0001
1000
,
0001
0010
0100
1000
0001
0010
0100
1000
,
0001
1000
0001
1000
0100
0010
0100
0010
,
0001
0010
0001
0010
0001
0100
0001
0100
,
0001
0100
0010
1000
0001
0010
0100
1000
,
0001
1000
0010
0100
0200
0000
0000
0000
,
0300
0000
0000
0000
;

//---------------dance-single - Chewi----------------
#NOTES:
     dance-single:
     Chewi:
     Beginner:
     2:
     0.153,0.195,0.000,0.056,0.000:
0000
0000
0000
0000
,
0000
0000
0000
0000
,
0000
0000
0000
0000
,
0000
0000
0000
0000
,
1000
0000
0000
0000
,
0001
0000
0000
0000
,
0001
0000
0000
0000
,
1000
0000
0000
0000
,
0010
0000
0010
0000
,
0010
0000
0000
0000
,
0100
0000
0100
0000
,
0100
0000
0000
0000
,
1000
0000
1000
0000
,
1000
0000
0000
0000
,
0001
0000
0001
0000
,
0001
0000
0000
0000
,
1000
0000
1000
0000
,
0100
0000
0100
0000
,
0001
0000
0001
0000
,
0010
0000
0010
0000
,
0010
0010
0010
0000
,
0100
0100
0100
0000
,
1000
1000
1000
0000
,
0001
0001
0001
0000
,
2000
0000
0000
3000
,
1000
0000
0000
0000
,
0002
0000
0000
0003
,
0001
0000
0000
0000
,
0100
0000
0100
0000
,
0100
0000
0000
0000
,
0010
0000
0010
0000
,
0010
0000
0000
0000
,
1000
0000
1000
0000
,
1000
0000
0000
0000
,
0001
0000
0001
0000
,
0001
0000
0000
0000
,
0100
0100
0100
0000
,
1000
1000
1000
0000
,
0001
0001
0001
0000
,
0010
0010
0010
0000
,
0010
0000
0010
0000
,
0100
0000
0100
0000
,
0001
0000
0001
0000
,
1000
0000
1000
0000
,
1000
1000
1000
0000
,
0100
0000
0100
0000
,
0001
0001
0001
0000
,
0100
0000
0100
0000
,
1000
1000
1000
0000
,
0010
0000
0010
0000
,
0001
0001
0001
0000
,
0010
0000
0010
0000
,
0200
0000
0000
0300
,
0100
0100
0100
0000
,
0020
0000
0000
0030
,
0010
0010
0010
0000
,
2000
0000
0000
3000
,
1000
1000
1000
0000
,
0002
0000
0000
0003
,
0001
0001
0001
0000
;

//---------------dance-single - Chewi----------------
#NOTES:
     dance-single:
     Chewi:
     Easy:
     5:
     0.267,0.309,0.103,0.169,0.000: // measure 1
0000
0000
0000
0000
,  // measure 2
0000
0000
0000
0000
,  // measure 3
0000
0000
0000
0000
,  // measure 4
0000
0000
0000
0000
,  // measure 5
2000
0000
3200
0000
,  // measure 6
1300
0100
1000
0000
,  // measure 7
0002
0000
0203
0000
,  // measure 8
0301
0100
0001
0000
,  // measure 9
2000
3002
2003
3001
,  // measure 10
0010
0100
0010
0000
,  // measure 11
0100
0001
0010
0000
,  // measure 12
0100
1000
0010
0000
,  // measure 13
0002
2003
3002
1003
,  // measure 14
0001
1000
0001
0000
,  // measure 15
0100
1000
0010
0000
,  // measure 16
0100
0001
0010
0000
,  // measure 17
0010
0010
0010
0010
,  // measure 18
0010
0010
0010
0010
,  // measure 19
0001
0000
1000
0000
,  // measure 20
1000
0001
1001
0000
,  // measure 21
0100
0100
0100
0100
,  // measure 22
0100
0100
0100
0001
,  // measure 23
1000
0000
1001
0000
,  // measure 24
1000
0100
0010
0000
,  // measure 25
0002
0000
0000
0000
,  // measure 26
2003
0000
0000
0000
,  // measure 27
3020
0000
0000
0000
,  // measure 28
0100
0100
0130
0000
,  // measure 29
0010
1000
0010
1000
,  // measure 30
0001
0001
0001
0000
,  // measure 31
0010
0001
0010
0001
,  // measure 32
1000
1000
1000
0000
,  // measure 33
0002
0000
1000
0000
,  // measure 34
2003
0000
0001
0000
,  // measure 35
3010
0010
0010
0010
,  // measure 36
0100
0100
0100
0100
,  // measure 37
0010
1000
0010
1000
,  // measure 38
0010
0001
0010
0001
,  // measure 39
0100
0001
0100
0001
,  // measure 40
0100
1000
0100
1000
,  // measure 41
0001
1000
0001
1000
,  // measure 42
0010
0100
0010
0100
,  // measure 43
0001
0100
1000
0100
,  // measure 44
0220
0000
0000
0330
,  // measure 45
0001
0010
0001
0010
,  // measure 46
0100
1000
0100
1000
,  // measure 47
1001
0000
0110
0000
,  // measure 48
0010
1000
0001
0000
,  // measure 49
1000
0100
0010
0001
,  // measure 50
1000
0100
0010
0001
,  // measure 51
1001
0000
0110
0000
,  // measure 52
1000
0010
0001
0000
,  // measure 53
0010
0010
0010
0010
,  // measure 54
0010
0100
0010
0000
,  // measure 55
0100
0000
1001
0000
,  // measure 56
0110
0000
0000
0000
,  // measure 57
0100
0100
0100
0100
,  // measure 58
0010
0000
1001
0000
,  // measure 59
0110
0000
1000
0000
,  // measure 60
0001
1000
0200
0000
,  // measure 61
0300
0000
0000
0000
;

//---------------dance-single - Chewi----------------
#NOTES:
     dance-single:
     Chewi:
     Medium:
     8:
     0.368,0.394,0.225,0.225,0.000:
0000
0000
0000
0000
,
0000
0000
0000
0000
,
0000
0000
0000
0000
,
0000
0000
0000
0000
,
2000
3100
0002
0103
,
0010
0100
0010
0000
0100
0000
0000
0000
,
2000
3010
0002
0013
,
0010
0100
0010
0000
0100
0000
0000
0000
,
1000
0000
1001
0000
1001
0000
0001
1000
,
0001
0100
0010
0000
,
1000
0100
0001
0010
,
0001
0100
1000
0010
,
0100
0101
1010
1000
,
0001
0000
0010
0010
0010
0000
0100
0000
,
0010
0001
1000
0020
,
0200
0000
0000
0330
,
0010
1000
0100
1000
,
0010
0001
0100
0001
,
1010
1000
0101
0100
,
0010
0100
0010
0000
1000
0000
0000
0000
,
0001
1100
1000
0101
,
0100
0000
0010
0100
0010
0000
0100
0000
,
2001
0100
0020
3030
,
0001
0100
1000
0000
0010
0000
0000
0000
,
0100
0100
0100
0100
,
0010
0010
0010
0000
0100
0100
0100
0000
,
0001
0001
0001
0001
,
1000
1000
1000
0000
0001
0001
0001
0000
,
1000
0100
0001
0010
,
0100
0010
0100
0000
0100
0000
0000
0000
,
0010
0001
0100
1000
,
0010
0100
0010
0000
0100
0000
0000
0000
,
0020
1030
0020
0031
,
0200
0301
0200
1300
,
0010
0101
0010
1100
,
1000
0001
0100
1000
0010
0000
0000
0000
,
0100
0000
0001
0000
0100
0000
0010
1000
,
0100
0010
0001
0100
,
0010
1001
0100
1001
,
0100
0010
0100
0010
,
1000
1100
0001
0101
,
0100
0000
0010
0010
0010
0000
1000
0000
,
0001
0010
0100
2001
,
0200
0000
0000
3300
,
0100
0001
0010
1000
,
0100
1000
0010
0001
,
0100
0010
0100
0000
0010
0100
0010
0000
,
0011
0100
1010
0000
,
0001
1000
0001
0000
1000
0000
0100
0000
,
1000
0001
1000
0000
0001
0000
0100
0000
,
0120
1000
2000
3030
,
0001
0010
0110
0000
,
0010
0001
0010
0001
,
0010
0000
0100
0100
0100
0000
1000
0000
,
0102
1000
2003
0100
,
3020
0100
2000
3030
,
1000
0001
1000
0001
,
1000
0000
0010
0010
0010
0000
0100
0000
,
0102
1000
2003
0010
,
3010
1010
0202
0000
,
0303
0000
0000
0000
;

//---------------dance-double - Chewi----------------
#NOTES:
     dance-double:
     Chewi:
     Easy:
     4:
     0.188,0.194,0.019,0.056,0.000:
00000000
00000000
00000000
00000000
,
00000000
00000000
00000000
00000000
,
00000000
00000000
00000000
00000000
,
00000000
00000000
00000000
00000000
,
10000000
00000000
00010000
00000000
,
00100000
01000000
00100000
00000000
,
00010000
00000000
00001000
00000000
,
00000010
00001000
00000010
00000000
,
00000100
00000000
00000001
00000000
,
00000001
00000010
00000100
00000000
,
00001000
00000000
00000010
00000000
,
00000100
00001000
00010000
00000000
,
00001000
00000000
00010000
00000000
,
00001000
00100000
00010000
00000000
,
01000000
00000000
00010000
00000000
,
00100000
01000000
00100000
00000000
,
10000000
00000000
01000000
00000000
,
00100000
00000000
00010000
00000000
,
00001000
00000000
00010000
00000000
,
00000010
00000000
00001000
00000000
,
00000001
00000000
00000100
00000000
,
00000010
00000000
00001000
00000000
,
00010000
00000000
00001000
00000000
,
00100000
00000000
01000000
00000000
,
00020000
00000000
00000000
00030000
,
20000000
00000000
00000000
30000000
,
01000000
01000000
01000000
00000000
,
00100000
00100000
00100000
00000000
,
01000000
00000000
00100000
00000000
,
00010000
00100000
00001000
00000000
,
00010000
00000000
00001000
00000000
,
00000010
00000001
00000010
00000000
,
00000001
00000000
00000100
00000000
,
00001000
00000100
00001000
00000000
,
00000100
00000000
00001000
00000000
,
00010000
00001000
00010000
00000000
,
00020000
00000000
00030000
00000000
,
10000000
00100000
01000000
00000000
,
01000000
00000000
00010000
00000000
,
00100000
00000000
00001000
00000000
,
00020000
00000000
00030000
00000000
,
00001000
00000000
00000010
00000000
,
00000100
00000000
00001000
00000000
,
00000001
00001000
00001001
00000000
,
00000002
00000000
00000010
00000100
,
00000013
00000000
00001000
00000000
,
00010000
00000000
00001000
00000000
,
00010000
01000000
10000000
00000000
,
20000000
00000000
00100000
01000000
,
30100000
00000000
01000000
00000000
,
00100000
00000000
00010000
00000000
,
00001000
00010000
00011000
00000000
,
00001000
00001000
00001000
00000000
,
00000010
00000100
00000010
00000000
,
00000001
00000001
00000001
00000000
,
00000100
00000010
00000100
00000000
,
00001000
00001000
00001000
00000000
,
00010000
00001000
00010000
00000000
,
00010000
00010000
00010000
00000000
,
01000000
00000000
00000000
00000000
;

//---------------dance-double - Chewi----------------
#NOTES:
     dance-double:
     Chewi:
     Medium:
     8:
     0.338,0.335,0.178,0.038,0.000:
00000000
00000000
00000000
00000000
,
00000000
00000000
00000000
00000000
,
00000000
00000000
00000000
00000000
,
00000000
00000000
00000000
00000000
,
10000000
11000000
00010000
00110000
,
00100000
00010000
00001000
00000100
,
00000001
00000101
00001000
00001100
,
00000001
00000010
00000100
00001000
,
00010000
00000000
00001000
00000000
00010000
00001000
00010000
00000000
,
00010000
00000000
01000000
00000000
10000000
01000000
00010000
00000000
,
10000000
00100000
01000000
00010000
,
00100000
00100000
01000000
01000000
,
00100000
00010000
00001000
00000010
,
00000001
00000100
00001000
00000010
,
00000100
00000010
00001000
00010000
,
00001000
00010000
00001000
00000000
00011000
00000000
00000000
00000000
,
00010000
01010000
10000000
11000000
,
00100000
00000000
01000000
01000000
01000000
00000000
00100000
00000000
,
00010000
00000000
00001000
00000000
,
00000010
00001000
00001010
00000000
,
00000001
00000100
00000010
00001000
,
00000100
00000000
00010000
00010000
00010000
00000000
00001000
00000000
,
00100000
00000000
01000000
00000000
,
10000000
01000000
00010000
00000000
10010000
00000000
00000000
00000000
,
20000000
00100000
01000000
30100000
,
00020000
00100000
01000000
00130000
,
00200000
00001000
00010000
00310000
,
00020000
00001000
00001000
00030100
,
00001000
00000010
00000001
00000010
,
00001000
00001000
00001000
00000000
00000001
00000001
00000001
00000000
,
00001000
00000100
00010000
00001000
,
00100000
00010000
01000000
10000000
,
10000000
01000000
00010000
01000000
,
00100000
00100000
00100000
00000000
01000000
01000000
01000000
00000000
,
00010000
00100000
00001000
00000010
,
00000001
00000100
00000010
00000001
,
00000101
00000000
00001000
00000000
00001010
00000000
00000010
00000100
,
00000010
00001000
00000100
00010000
,
00001000
00000010
00001000
00010000
,
01000000
00010000
00100000
01000000
,
00010000
00100000
01000000
00010000
,
00100000
01000000
00100000
00010000
,
01000000
00100000
01000000
00010000
,
00100000
00010000
00100000
00000000
00110000
00000000
00000000
00000000
,
00110000
00100000
00001000
00010000
,
00001000
00000010
00000001
00000100
,
00000011
00000100
00001010
00000100
,
00000010
00000100
00000010
00000000
00000110
00000000
00000000
00000000
,
00000010
00001000
00000100
00010000
,
00001000
00100000
00010000
01000000
,
10000000
01000000
10000000
00000000
10000000
00100000
10000000
00000000
,
01100000
10010000
01100000
00000000
,
00000000
00100000
00010000
00001000
,
00000100
00010000
00001000
00000010
,
00000100
00001000
00000010
00000100
,
00000001
00000100
00001000
00000100
00000001
00000000
00000000
00000000
,
00000001
00000100
00001000
00000010
,
00001000
00010000
01000000
00100000
,
00010000
00100000
01000000
00100000
,
00010000
00100000
00010000
00000000
00100000
00000000
00000000
00000000
;

//---------------dance-double - Chewi----------------
#NOTES:
     dance-double:
     Chewi:
     Hard:
     10:
     0.469,0.474,0.216,0.000,0.000:
00000000
00000000
00000000
00000000
,
00000000
00000000
00000000
00000000
,
00000000
00000000
00000000
00000000
,
00000000
00000000
00000000
00000000
,
10000000
00100000
01000000
00000000
00010000
00100000
01000000
00000000
,
00100000
00010000
00001000
00000100
00001000
00000010
00000100
00000000
,
00000001
00000100
00000010
00000000
00001000
00000100
00000010
00000000
,
00000100
00001000
00010000
01000000
00100000
10000000
00010000
00000000
,
11000000
00000000
01010000
00000000
11000000
00000000
00010000
00100000
,
00001000
00010000
00000100
00001000
00000010
00000000
00000100
00000000
,
00000001
00000011
00001000
00001010
,
00000010
00000010
00000010
00000000
00000100
00000100
00000100
00000000
,
00000010
00001000
00000100
00010000
00001000
00100000
00010000
01000000
,
00100000
10000000
00010000
00000000
00100000
00010000
10000000
00000000
,
01000000
01000000
01000000
00000000
00100000
00100000
00100000
00000000
,
00110000
01000000
00110000
00000000
,
01000000
00100000
00010000
00001000
,
00000100
00000000
00001000
00000010
00000001
00000000
00000100
00000000
,
00001000
00000000
00000000
00000010
00000010
00000000
00000000
00000010
,
00000100
00000001
00001000
00000000
00001001
00000000
00000000
00000000
,
00000001
00000010
00001000
00010000
,
00001000
00100000
10000000
01000000
,
00010000
00000000
00000000
00100000
01000000
00000000
00000000
10000000
,
00100000
01000000
00010000
00100000
01000000
00000000
11000000
00000000
,
10000000
01000000
10000000
01000000
00100000
01000000
00100000
01000000
,
00100000
00010000
00100000
00010000
01000000
00010000
01000000
00010000
,
00100000
00001000
00010000
00000100
00001000
00001000
00000010
00000001
,
00000100
00000001
00000010
00000100
00001000
00000010
00000100
00000001
,
00000100
00000000
00000010
00001000
00000001
00000010
00000100
00001000
,
00000010
00000010
00001000
00001000
00000100
00000000
00010000
00001000
,
00100000
00000000
00001000
00010000
01000000
00000000
00010000
00100000
,
01000000
00000000
00100000
00010000
01000000
00000000
00100000
01000000
,
00010000
00000000
10000000
01000000
00100000
00010000
01000000
00100000
,
01000000
01000000
00010000
00010000
00100000
00100000
00001000
00010000
,
00000100
00001000
00000001
00000000
00000100
00000010
00001000
00000000
,
00000001
00000001
00001000
00001000
00000001
00000100
00000010
00000000
,
00001010
00000000
00000101
00000000
00000011
00000000
00000001
00000010
,
00000100
00000000
00001000
00000000
00010000
00000000
00001000
00010000
,
00100000
10000000
01000000
00010000
,
01000000
10000000
00100000
00010000
00100000
00000000
01000000
00010000
,
00100000
00000000
01000000
00000000
00100000
00000000
00010000
10000000
,
00100000
00000000
01000000
00010000
00100000
00000000
00001000
00010000
,
00000100
00001000
00000010
00000001
,
00000100
00000100
00000010
00000010
00000001
00000100
00000010
00000100
,
00000001
00000100
00000010
00001000
00000001
00000000
00000100
00000000
,
00000010
00000000
00001000
00000100
00010000
00000000
00001000
00000000
,
00011000
00000000
00001000
00000000
00010000
00000000
00010000
01000000
,
10000000
01000000
00010000
00100000
01000000
00100000
00010000
00000000
,
10000000
00100000
01000000
00000000
00010000
01000000
00100000
00000000
,
10010000
00000000
10000000
01000000
10000000
00000000
00010000
00000000
,
00110000
00000000
01000000
00100000
00010000
00000000
00100000
01000000
,
00100000
00010000
00001000
00000100
00001000
00000001
00000100
00000000
,
00000010
00000110
00001001
00000011
,
00001100
00000000
00000001
00000001
00000001
00000000
00000001
00000100
,
00000010
00000000
00001000
00000100
00000010
00000000
00000100
00001000
,
00000010
00001000
00010000
00001000
00100000
00010000
01000000
10000000
,
00100000
10100000
01010000
00100000
,
11000000
00000000
00100000
00000000
01010000
00000000
10000000
00010000
,
00100000
00000000
00010000
10000000
00100000
01000000
00010000
00100000
,
01000000
01000000
00100000
01000000
00100000
00000000
00000000
00000000
;
