#TITLE:A Dios le Pido;
#SUBTITLE:;
#ARTIST:Juanes;
#TITLETRANSLIT:;
#SUBTITLETRANSLIT:;
#ARTISTTRANSLIT:;
#GENRE:;
#CREDIT:Chewi☆;
#MENUCOLOR:#FFFF00;
#METERTYPE:DDR X;
#BANNER:A Dios le Pido.png;
#BACKGROUND:A Dios le Pido-bg.png;
#LYRICSPATH:;
#CDTITLE:;
#MUSIC:A Dios le Pido.mp3;
#OFFSET:-0.525;
#SAMPLESTART:68.995;
#SAMPLELENGTH:15.000;
#SELECTABLE:YES;
#LISTSORT:;
#DISPLAYBPM:97.000;
#BPMS:0.000=97.000;
#STOPS:;
#BGCHANGES:;
#ATTACKS:;

//---------------dance-single - Chewi----------------
#NOTES:
     dance-single:
     Chewi:
     Beginner:
     1:
     0.049,0.056,0.000,0.000,0.000:
0000
0000
0000
0000
,
0000
0000
0000
0000
,
0000
0000
0000
0000
,
0000
0000
0000
0000
,
1000
0000
0000
0000
,
0010
0000
0000
0000
,
0001
0000
0000
0000
,
0001
0000
0000
0000
,
1000
0000
0000
0000
,
0001
0000
0000
0000
,
1000
0000
0000
0000
,
0001
0000
0000
0000
,
0100
0000
0000
0000
,
0100
0000
0000
0000
,
0001
0000
0000
0000
,
0001
0000
0000
0000
,
1000
0000
0000
0000
,
0001
0000
0000
0000
,
1000
0000
0000
0000
,
0001
0000
0000
0000
,
0100
0000
0000
0000
,
0010
0000
0000
0000
,
0100
0000
0000
0000
,
0100
0000
0000
0000
,
0010
0000
0000
0000
,
0001
0000
0000
0000
,
0001
0000
0000
0000
,
0010
0000
0000
0000
,
1000
0000
0000
0000
,
0001
0000
0000
0000
,
0010
0000
0000
0000
,
0100
0000
0000
0000
,
1000
0000
0000
0000
,
0001
0000
0000
0000
,
0010
0000
0000
0000
,
0100
0000
0000
0000
,
0001
0000
0000
0000
,
1000
0000
0000
0000
;

//---------------dance-single - Chewi----------------
#NOTES:
     dance-single:
     Chewi:
     Easy:
     3:
     0.121,0.138,0.010,0.050,0.000:
0000
0000
0000
0000
,
0000
0000
0000
0000
,
0000
0000
0000
0000
,
0000
0000
0000
0000
,
2000
0000
0000
3000
,
0020
0000
0000
0030
,
0002
0000
0000
0003
,
0001
0100
0100
0000
,
1000
0000
0010
0000
,
0001
0010
0010
0000
,
1000
0000
0100
0000
,
0001
1000
1000
0000
,
0100
0000
0010
0000
,
0100
0010
0010
0000
,
0001
0000
0001
0000
,
0001
1000
1000
0000
,
1000
0000
0010
0000
,
0001
0000
0100
0000
,
1000
0000
0100
0000
,
0001
0000
0010
0000
,
0100
0000
1000
0000
,
0010
0001
0100
0000
,
0100
0000
0001
0000
,
0100
0000
1000
0000
,
0010
0000
0100
0000
,
0001
0000
1000
0000
,
0001
0000
0100
0000
,
0010
0000
1001
0000
,
1000
1000
0100
0000
,
0001
0010
0001
0000
,
0010
0010
0001
0000
,
0100
1000
0100
0000
,
1000
0001
1000
0000
,
0001
1000
0001
0000
,
0010
0100
0010
0000
,
0100
0001
1000
0000
,
0001
0000
0000
0002
,
2000
0000
0000
0000
,
0000
0000
0000
0000
,
3003
0000
0000
0000
;

//---------------dance-single - Chewi----------------
#NOTES:
     dance-single:
     Chewi:
     Medium:
     5:
     0.199,0.216,0.050,0.050,0.005:
0000
0000
0000
0000
,
0000
0000
0000
0000
,
0000
0000
0000
0000
,
0000
0000
0000
0000
,
2000
0000
0000
0000
,
3020
0000
0000
0000
,
0230
0000
0000
0301
,
0001
1000
0100
0010
,
0001
1000
0010
0100
,
0001
0001
0001
0000
1000
0000
0100
0000
,
0010
0010
0010
0000
0100
0000
1000
0000
,
0001
0010
0100
1001
,
1000
0010
0100
1001
,
0001
1000
0001
0000
0000
0000
0000
0000
,
1000
0001
1000
0000
0000
0000
0000
0000
,
0100
0010
0100
0000
0000
0000
0010
0100
,
0010
0001
0100
0101
,
0010
1000
0100
1100
,
0001
1000
0100
0010
,
0001
1000
0100
0010
,
0001
0000
0001
0000
0001
0000
0001
0100
,
1000
0000
1000
0000
1000
0000
1000
0001
,
0010
0010
0010
0010
,
0100
0100
0100
0100
,
1000
1000
1000
1000
,
0001
0001
0001
0001
,
1000
0010
0001
0010
,
1000
0100
0101
0000
,
0001
0100
1000
0000
0100
0000
0010
0000
,
0001
0100
0010
1000
,
0001
0100
1000
0100
,
0001
0010
0100
1000
,
0001
0100
1000
0000
0010
0000
0001
0000
,
0010
1000
0100
0001
,
0010
0100
1000
0001
,
1000
0100
0001
0100
,
0010
0010
0200
0000
,
0000
0020
0000
0000
0000
0000
0000
0000
0000
0000
0000
0000
0000
0000
0000
0000
,
0000
0000
0000
0000
,
0330
0000
0000
0000
;

//---------------dance-single - Chewi----------------
#NOTES:
     dance-single:
     Chewi:
     Hard:
     10:
     0.308,0.334,0.101,0.061,0.061:
0000
0000
0000
0000
,
0000
0000
0000
0000
,
0000
0000
0000
0000
,
0000
0000
0000
0000
,
1000
0000
1100
0000
0001
1000
0001
0000
,
0001
0000
0101
0000
1000
0001
1000
0000
,
0010
0000
0101
0000
0100
0001
0100
0001
,
1000
0100
1000
0000
0001
0000
0010
0000
,
0001
0010
0001
0000
0010
0000
1000
0000
,
0100
0010
0100
0000
1000
0000
0101
0000
,
0100
0010
0100
0000
0001
0000
1100
0000
,
0001
0010
0001
0000
1000
0100
1000
0000
,
0001
0100
0001
0000
1000
0010
1000
0000
,
0001
1000
0100
0000
0100
0000
0100
0000
,
1000
0001
0010
0000
0010
0000
0010
0000
,
0001
0010
0100
0000
0010
0000
0110
0000
,
0010
0001
0100
0001
0010
0001
0100
0000
,
0010
1000
0100
1000
0010
1000
0100
0000
,
0010
0100
1000
0100
0010
0100
1000
0000
,
0010
0100
0001
0100
0010
0100
0001
0000
,
0001
0010
0100
0000
0001
0000
1001
0000
,
1000
0100
0010
0000
1000
0000
1001
0000
,
0001
0000
0000
1000
0000
0000
0010
0000
0010
0000
0000
0100
0000
0000
0001
0000
,
0100
0000
0000
0010
0000
0000
1000
0000
0001
0000
0000
0010
0000
0000
0100
0000
,
1000
0000
0000
0100
0000
0000
0001
0000
0100
0000
0000
1000
0000
0000
0010
0000
,
1000
0000
0000
0010
0000
0000
0001
0000
0010
0000
0000
0001
0000
0000
0100
0000
,
0010
0000
0000
0100
0000
0000
0010
0000
0001
0000
0000
0100
0000
0000
0001
0000
,
0010
0000
0000
0100
0000
0000
1000
0000
2002
0000
0000
0000
3003
0000
0000
0000
,
1000
0001
0100
0001
1000
0100
1000
0100
,
0010
0001
0100
0001
0010
1000
0100
1000
,
0010
0100
1000
0001
0100
0010
1000
0001
,
0100
0010
1000
0001
1000
0100
0010
0001
,
1000
0100
1000
0100
0010
0100
0010
0100
,
0010
0001
0010
0001
0100
0001
0100
0001
,
0100
0010
0100
0010
1000
0001
1000
0001
,
1000
0100
0001
0010
0200
0000
0000
0000
,
0020
0000
0330
0000
,
0000
2002
0000
0000
0000
0000
0000
0000
0000
0000
0000
0000
0000
0000
0000
0000
,
0000
0000
0000
0000
,
3003
0000
0000
0000
;

//---------------dance-double - Chewi----------------
#NOTES:
     dance-double:
     Chewi:
     Hard:
     9:
     0.288,0.334,0.081,0.040,0.055: // measure 1
00000000
00000000
00000000
00000000
,  // measure 2
00000000
00000000
00000000
00000000
,  // measure 3
00000000
00000000
00000000
00000000
,  // measure 4
00000000
00000000
00000000
00000000
,  // measure 5
10000000
01000000
00100000
00010000
,  // measure 6
01000000
00100000
10000000
00010000
,  // measure 7
00100000
00010000
00001000
00011000
,  // measure 8
00010000
00001000
00000010
00000000
00000010
00000100
00000010
00000000
,  // measure 9
00000100
00000001
00000010
00000000
00000100
00000010
00000100
00000000
,  // measure 10
00000100
00001000
00000010
00000000
00001000
00001000
00010000
00000000
,  // measure 11
00001000
00010000
01000000
00000000
10000000
10000000
01000000
00000000
,  // measure 12
10000000
01000000
00100000
00000000
00010000
00100000
00010000
00000000
,  // measure 13
01000000
00010000
00100000
00000000
00001000
00010000
00000100
00000000
,  // measure 14
00000010
00001000
00000100
00000001
,  // measure 15
00000001
00000001
00001000
00001000
,  // measure 16
00000010
00001000
00000100
00001100
,  // measure 17
00000100
00010000
00001000
00010000
01000000
00010000
01000000
00000000
,  // measure 18
00100000
10010000
01000000
10010000
,  // measure 19
10000000
01000000
00100000
01000000
10000000
00100000
01000000
00000000
,  // measure 20
00010000
00110000
00100000
00101000
,  // measure 21
00010000
00000000
00001000
00000000
00000010
00000001
00000100
00000000
,  // measure 22
00001000
00000000
00000001
00000000
00001000
00000100
00010000
00000000
,  // measure 23
00001000
00000000
00000000
00010000
00000000
00000000
00001000
00000000
00010000
00000000
00000000
01000000
00000000
00000000
10000000
00000000
,  // measure 24
00100000
00000000
00000000
10000000
00000000
00000000
00100000
00000000
01000000
00000000
00000000
00010000
00000000
00000000
00100000
00000000
,  // measure 25
01000000
00000000
00000000
00100000
00000000
00000000
00010000
00000000
00001000
00000000
00000000
00000100
00000000
00000000
00000001
00000000
,  // measure 26
00000100
00000000
00000000
00000010
00000000
00000000
00000100
00000000
00000001
00000000
00000000
00000100
00000000
00000000
00000010
00000000
,  // measure 27
00001000
00000000
00000000
00000100
00000000
00000000
00010000
00000000
00001000
00000000
00000000
00000010
00000000
00000000
00000100
00000000
,  // measure 28
00000010
00001000
00000100
00010000
00011000
00000000
00000000
00000000
,  // measure 29
10000000
10000000
00010000
00010000
00100000
01000000
00100000
01000000
,  // measure 30
00100000
00100000
01000000
01000000
00100000
00010000
01000000
00010000
,  // measure 31
00100000
00001000
00010000
00000100
00010000
00001000
00000010
00000001
,  // measure 32
00000100
00000010
00001000
00000001
00000010
00000100
00000000
00000001
,  // measure 33
00001000
00001000
00000001
00000001
00000100
00000010
00000100
00000001
,  // measure 34
00000010
00000100
00001000
00000100
00010000
00001000
00010000
01000000
,  // measure 35
10000000
00100000
10000000
01000000
00100000
00010000
01000000
00100000
,  // measure 36
01000000
01000000
01000000
00000000
00020000
00000000
00000000
00000000
,  // measure 37
00200000
00000000
00330000
00000000
,  // measure 38
00000000
00022000
00000000
00000000
00000000
00000000
00000000
00000000
00000000
00000000
00000000
00000000
00000000
00000000
00000000
00000000
,  // measure 39
00000000
00000000
00000000
00000000
,  // measure 40
00033000
00000000
00000000
00000000
;

//---------------dance-double - Chewi----------------
#NOTES:
     dance-double:
     Chewi:
     Medium:
     5:
     0.196,0.216,0.040,0.151,0.005: // measure 1
00000000
00000000
00000000
00000000
,  // measure 2
00000000
00000000
00000000
00000000
,  // measure 3
00000000
00000000
00000000
00000000
,  // measure 4
00000000
00000000
00000000
00000000
,  // measure 5
20000000
00000000
31000000
00000000
,  // measure 6
02000000
00000000
03010000
00000000
,  // measure 7
00020000
00000000
00130000
00000000
,  // measure 8
00100000
00100000
00010000
00010000
,  // measure 9
01000000
01000000
00010000
00010000
,  // measure 10
00001000
00001000
00000010
00000010
,  // measure 11
00000100
00000100
00000001
00000001
,  // measure 12
00001000
00001000
00001000
00000000
00000001
00000000
00001001
00000000
,  // measure 13
00000001
00000100
00000010
00000000
00000100
00000000
00000110
00000000
,  // measure 14
00000010
00001000
00000100
00001000
,  // measure 15
00000100
00010000
00000100
00001000
,  // measure 16
00010000
01000000
00010000
10010000
,  // measure 17
10000000
00000000
10000000
00000000
10000000
01000000
10000000
00000000
,  // measure 18
00010000
00000000
00010000
00000000
00010000
01000000
00010000
00000000
,  // measure 19
01000000
01000000
00100000
00100000
,  // measure 20
00010000
00010000
01000000
01000000
,  // measure 21
01000000
00010000
00001000
00000010
,  // measure 22
00001000
00000010
00000001
00000100
,  // measure 23
00002000
00000000
00003020
00000000
,  // measure 24
00000230
00000000
00000320
00000000
,  // measure 25
00002030
00000000
00023000
00000000
,  // measure 26
02030000
00000000
03020000
00000000
,  // measure 27
20030000
00000000
30200000
00000000
,  // measure 28
00310000
00010000
00010000
00000000
10010000
00000000
00000000
00000000
,  // measure 29
10000000
01000000
00100000
00010000
,  // measure 30
00001000
00000010
00000001
00000100
,  // measure 31
00000010
00000100
00000001
00001000
,  // measure 32
00000100
00000010
00000001
00001000
,  // measure 33
00000010
00001000
00000100
00001000
,  // measure 34
00010000
00100000
10000000
01000000
,  // measure 35
00010000
00000000
01000000
00000000
00100000
00000000
00000000
10000000
,  // measure 36
00010000
00100000
00100000
00000000
,  // measure 37
00020000
00000000
00000000
00000000
,  // measure 38
00000000
00002000
00000000
00000000
00000000
00000000
00000000
00000000
00000000
00000000
00000000
00000000
00000000
00000000
00000000
00000000
,  // measure 39
00000000
00000000
00000000
00000000
,  // measure 40
00033000
00000000
00000000
00000000
;

//---------------dance-double - Chewi----------------
#NOTES:
     dance-double:
     Chewi:
     Easy:
     3:
     0.117,0.138,0.040,0.091,0.000: // measure 1
00000000
00000000
00000000
00000000
,  // measure 2
00000000
00000000
00000000
00000000
,  // measure 3
00000000
00000000
00000000
00000000
,  // measure 4
00000000
00000000
00000000
00000000
,  // measure 5
00100000
00000000
01100000
00000000
,  // measure 6
01000000
00000000
01100000
00000000
,  // measure 7
00010000
00000000
10010000
00000000
,  // measure 8
00010000
00000000
00001000
00000000
,  // measure 9
00000010
00000000
00001000
00000000
,  // measure 10
00000010
00000000
00000100
00000000
,  // measure 11
00000001
00000000
00001000
00000000
,  // measure 12
00000001
00000000
00000010
00000000
,  // measure 13
00001000
00000000
00010000
00000000
,  // measure 14
00011000
00000000
00000000
00000000
,  // measure 15
01000000
00000000
00000000
00000000
,  // measure 16
10000000
00000000
00000000
00100000
,  // measure 17
00100000
10000000
00100000
00000000
,  // measure 18
01000000
01000000
01000000
00000000
,  // measure 19
00010000
01000000
00010000
00000000
,  // measure 20
00001000
00001000
00001000
00000000
,  // measure 21
00000010
00000100
00000010
00000000
,  // measure 22
00001000
00000100
00000001
00000000
,  // measure 23
00000002
00000000
00000000
00000003
,  // measure 24
00002000
00000000
00000000
00003000
,  // measure 25
00020000
00000000
00000000
00030000
,  // measure 26
00002000
00000000
00000000
00003000
,  // measure 27
02000000
00000000
00000000
00000000
,  // measure 28
00200000
00000000
03300000
00000000
,  // measure 29
00100000
10000000
00100000
00000000
,  // measure 30
01000000
00000000
00010000
00000000
,  // measure 31
00100000
00010000
00001000
00000000
,  // measure 32
00000100
00000000
00000010
00000000
,  // measure 33
00000001
00001000
00000010
00000000
,  // measure 34
00000100
00000000
00000010
00000000
,  // measure 35
00000010
00001000
00010000
00000000
,  // measure 36
00001000
00000000
00020000
00000000
,  // measure 37
20000000
00000000
30030000
00000000
,  // measure 38
00200000
00000000
00000000
00000000
,  // measure 39
00000000
00000000
00000000
00000000
,  // measure 40
00300000
00000000
00000000
00000000
;
