#TITLE:777;
#SUBTITLE:;
#ARTIST:EeL;
#TITLETRANSLIT:;
#SUBTITLETRANSLIT:;
#ARTISTTRANSLIT:;
#GENRE:;
#CREDIT:Chewphoria~;
#MENUCOLOR:;
#METERTYPE:DDR;
#BANNER:777.png;
#BACKGROUND:777-bg.png;
#LYRICSPATH:;
#CDTITLE:;
#MUSIC:777.mp3;
#OFFSET:1.118;
#SAMPLESTART:30.050;
#SAMPLELENGTH:16.280;
#SELECTABLE:YES;
#LISTSORT:;
#BPMS:0.000=200.000,320.000=400.000;
#STOPS:;
#BGCHANGES:;
#ATTACKS:;

//---------------dance-single - Chewphoria~----------------
#NOTES:
     dance-single:
     Chewphoria~:
     Hard:
     13:
     0.708,0.776,0.751,0.048,0.005: // measure 1
0000
0000
0000
0000
,  // measure 2
1000
0100
0010
0001
,  // measure 3
1100
0001
0100
0000
,  // measure 4
0000
0001
0100
0010
1000
0000
0001
0000
,  // measure 5
0011
1010
0011
0100
,  // measure 6
1000
0100
1000
0100
1000
0000
0000
0000
,  // measure 7
0001
0100
0010
0000
,  // measure 8
0000
0010
1000
0010
1000
0010
1000
0000
,  // measure 9
0100
0010
0011
1100
,  // measure 10
0001
0100
0010
1000
0001
0000
1000
0000
,  // measure 11
1100
0010
0101
0010
,  // measure 12
1000
0001
1000
0000
0001
1000
0001
0000
,  // measure 13
0010
1000
0001
0000
0101
0000
1010
0000
,  // measure 14
1000
0100
1000
0000
0001
0010
0001
0000
,  // measure 15
1100
0101
1100
0101
,  // measure 16
0010
0100
0010
0000
0100
0010
0100
0000
,  // measure 17
0011
1100
0101
1010
,  // measure 18
1000
0001
1000
0000
1001
0000
0000
0000
1010
0000
0000
0000
0000
0000
0000
0000
,  // measure 19
1000
0010
0100
0001
0100
0000
0110
0000
,  // measure 20
1010
0011
1001
0000
,  // measure 21
0010
1000
0100
0010
0001
0010
0100
0000
,  // measure 22
1100
0101
0110
1001
,  // measure 23
0001
0010
0100
1000
0010
0100
0001
0000
,  // measure 24
0100
0100
0010
0010
,  // measure 25
1010
0101
0011
1100
,  // measure 26
1000
0001
1000
0001
1000
0000
0000
0000
,  // measure 27
0101
0000
0000
0000
1000
1100
0000
0000
,  // measure 28
1010
0000
0000
0000
0001
0101
0000
0000
,  // measure 29
1001
0000
0000
0000
1000
0101
0000
0000
,  // measure 30
1000
0000
0000
0000
0001
0001
0000
0000
,  // measure 31
0010
0100
0010
0100
0010
0000
0000
0000
,  // measure 32
1000
0100
1000
0100
1000
0000
0000
0000
,  // measure 33
0001
0010
0001
0010
0001
0000
0000
0000
,  // measure 34
0010
0100
0010
0100
0010
0000
0000
0000
,  // measure 35
0010
0001
0010
0001
0010
0000
0000
0000
,  // measure 36
0001
0100
0001
0100
0001
0000
0000
0000
,  // measure 37
0100
1000
0100
1000
0100
0000
0000
0000
,  // measure 38
1000
0010
1000
0010
1000
0010
1000
0000
,  // measure 39
0010
0100
0001
0100
0010
1000
0001
1000
,  // measure 40
1001
2002
0000
3003
,  // measure 41
1010
0101
0202
0000
,  // measure 42
0303
0001
1000
0010
1000
0001
0010
0100
,  // measure 43
1000
1000
0001
0001
,  // measure 44
1000
0100
0010
0001
0010
0000
1100
0000
,  // measure 45
0001
0100
0001
0000
1000
0010
1000
0000
,  // measure 46
0001
0010
0001
0000
1000
0100
1000
0000
,  // measure 47
0001
0100
0001
0000
1000
0001
1000
0000
,  // measure 48
0010
1000
0001
0010
0100
1000
0100
0000
,  // measure 49
1000
0100
1000
0100
1000
0100
1000
0000
,  // measure 50
0001
1000
0001
1000
0001
1000
0001
0000
,  // measure 51
1000
0010
1000
0010
1000
0010
1000
0000
,  // measure 52
0001
0100
0001
0100
0001
0100
0001
0000
,  // measure 53
0010
0100
0010
0100
0010
0100
0010
0000
,  // measure 54
1000
0001
1000
0001
1000
0001
1000
0000
,  // measure 55
0001
1000
0001
1000
0001
1000
0001
0000
,  // measure 56
0010
0100
0010
0100
0010
0100
0010
0000
,  // measure 57
0000
1000
0000
1100
0000
0001
0000
0011
,  // measure 58
0000
1100
0000
0101
0000
1010
0000
0001
,  // measure 59
0000
0010
0000
0011
0000
1000
0000
1010
,  // measure 60
0000
0100
0000
0101
0000
1100
0000
0101
,  // measure 61
0000
0010
0000
0011
0000
0100
0000
1100
,  // measure 62
0000
1000
0000
1001
0000
0001
0000
1001
,  // measure 63
0000
1010
0000
0101
0000
0011
0000
1100
,  // measure 64
1000
0100
0010
0001
0010
0100
1000
0000
,  // measure 65
1001
0000
1010
0000
0101
0000
0100
0010
,  // measure 66
0000
0010
0100
0001
0010
0100
1000
0001
,  // measure 67
1000
0000
1100
0000
0010
0000
0011
0001
,  // measure 68
0000
0001
0010
0000
1001
0000
0100
0001
,  // measure 69
0010
0010
0100
1000
0001
0000
1000
0010
,  // measure 70
0000
0010
0100
0001
0100
0010
0010
0000
,  // measure 71
1001
0000
1100
0000
1001
0000
0010
0001
,  // measure 72
0000
0001
0010
0100
1000
0000
1001
0000
,  // measure 73
0100
0010
0100
0001
0100
0000
0010
1000
,  // measure 74
0000
1000
0010
0000
1000
0100
0010
0001
,  // measure 75
0010
0000
0100
0000
1000
0000
0100
1000
,  // measure 76
0000
1000
0100
0000
1000
0100
0010
0001
,  // measure 77
0010
0000
0100
0000
0010
0000
0001
0010
,  // measure 78
0000
0010
0001
0000
0100
0000
0010
0000
,  // measure 79
1000
0000
0001
0000
0100
0000
0010
0100
,  // measure 80
0000
0100
0010
0000
1010
0000
0101
0000
,  // measure 81
1010
0000
0010
0000
,  // measure 82
0010
0000
0010
0000
,  // measure 83
0100
0000
0100
0000
,  // measure 84
0100
0000
0100
0000
,  // measure 85
0001
0000
0001
0000
,  // measure 86
0001
0000
0001
0000
,  // measure 87
1001
0000
0000
0000
,  // measure 88
1001
0000
0000
0000
,  // measure 89
0011
0000
0010
0000
,  // measure 90
0010
0000
0010
0000
,  // measure 91
0100
0000
0100
0000
,  // measure 92
0100
0000
0100
0000
,  // measure 93
1000
0000
1000
0000
,  // measure 94
1000
0000
1000
0000
,  // measure 95
1001
0000
0010
0000
,  // measure 96
0100
0000
0020
0000
,  // measure 97
0030
0000
0000
0000
;

//---------------dance-single - Chewphoria~----------------
#NOTES:
     dance-single:
     Chewphoria~:
     Medium:
     10:
     0.578,0.731,0.618,0.000,0.000: // measure 1
0000
0000
0000
0000
,  // measure 2
0010
1000
0100
0001
,  // measure 3
0010
0011
0010
0000
,  // measure 4
0100
0010
0100
0000
1000
0000
0100
0000
,  // measure 5
1000
1100
1000
0000
,  // measure 6
1000
0001
1000
0000
0001
0000
0000
0000
,  // measure 7
0001
1010
1000
0000
,  // measure 8
0010
0100
0010
0000
0001
0000
0100
0000
,  // measure 9
1000
0010
0100
0001
,  // measure 10
0100
0001
0100
0000
1000
0100
1000
0000
,  // measure 11
1000
0001
0010
0100
,  // measure 12
1000
0001
1000
0000
0010
0100
0010
0000
,  // measure 13
0100
0001
0010
1000
,  // measure 14
0100
0010
0100
0000
0010
0100
0010
0000
,  // measure 15
0010
0001
0100
0010
,  // measure 16
0100
0001
0010
0100
,  // measure 17
1000
0010
0100
0001
,  // measure 18
0100
0001
0100
0000
1001
0000
0000
0000
,  // measure 19
1000
1010
0001
0011
,  // measure 20
0010
0100
0010
0100
0010
0000
0000
0000
,  // measure 21
0010
0011
0010
1010
,  // measure 22
0010
0100
0010
0100
0010
0000
0000
0000
,  // measure 23
0100
0101
0100
1100
,  // measure 24
0100
0010
0100
0010
0100
0000
0000
0000
,  // measure 25
0011
1000
1100
0100
,  // measure 26
1000
0001
1000
0000
0001
0000
0000
0000
,  // measure 27
0101
0010
1000
1000
,  // measure 28
1000
0100
0001
0010
,  // measure 29
0010
0100
1000
1000
,  // measure 30
1000
0001
0010
0001
,  // measure 31
0001
0010
0100
0100
,  // measure 32
1000
0100
0010
0010
,  // measure 33
0001
0100
0010
1000
,  // measure 34
1000
0100
1000
0000
0001
0010
0001
0000
,  // measure 35
1000
0010
0001
0001
,  // measure 36
0001
0010
0100
0010
,  // measure 37
1000
0010
0001
0001
,  // measure 38
0011
1100
0101
1010
,  // measure 39
1000
0001
1000
0000
0001
1000
0001
0000
,  // measure 40
1001
1001
0000
0000
,  // measure 41
1000
0100
1000
0000
0100
0000
0000
0000
,  // measure 42
0010
0100
0010
0000
0001
0010
0001
0010
,  // measure 43
0100
0100
1000
0010
,  // measure 44
0100
0001
0100
0000
0010
0000
0000
0000
,  // measure 45
1010
0101
0011
1100
,  // measure 46
1000
0001
1000
0000
0001
1000
0001
0000
,  // measure 47
1000
0010
0001
0100
,  // measure 48
1000
0100
0001
0010
,  // measure 49
0100
0010
0001
0000
0100
0000
0100
0000
,  // measure 50
0010
0100
1000
0000
0010
0000
0010
0000
,  // measure 51
1000
0010
0100
0000
0100
0000
0100
0000
,  // measure 52
0001
0100
0010
0000
1000
0000
1000
0000
,  // measure 53
0001
1001
1000
1001
,  // measure 54
0001
0011
0010
0110
,  // measure 55
0100
1100
1000
1001
,  // measure 56
1000
1001
0010
1010
,  // measure 57
0100
0001
0100
0000
0100
0000
0100
0000
,  // measure 58
0010
1000
0010
0000
0010
0000
0010
0000
,  // measure 59
1000
0001
1000
0000
1000
0000
1000
0000
,  // measure 60
0001
1000
0001
0000
0001
0000
0001
0000
,  // measure 61
0010
0100
1000
0001
,  // measure 62
0010
0100
1000
0001
,  // measure 63
1000
0010
0100
0001
,  // measure 64
1000
0010
0100
0001
,  // measure 65
0101
1010
0101
1000
,  // measure 66
0100
0010
0001
0010
,  // measure 67
1100
0011
1100
0001
,  // measure 68
0100
0010
0100
0010
,  // measure 69
1100
0101
1001
0100
,  // measure 70
0010
0001
0010
0100
,  // measure 71
1100
0000
0011
0000
1100
0000
0001
0100
,  // measure 72
0010
1000
0001
0100
0010
0000
1000
0000
,  // measure 73
1001
0000
0100
0000
0010
0000
0000
0100
,  // measure 74
0000
0100
0000
0000
0001
0000
0100
0000
,  // measure 75
1010
0000
0011
0000
1100
0000
0000
0100
,  // measure 76
0000
0100
0000
0000
0010
0000
0001
0000
,  // measure 77
1100
0000
0101
0000
1010
0000
0000
0010
,  // measure 78
0000
0010
0000
0000
0010
0000
0100
0000
,  // measure 79
0101
0000
1010
0000
0101
0000
0000
0100
,  // measure 80
0000
0100
0000
0000
0100
0000
0000
0000
,  // measure 81
1010
0000
0000
1010
,  // measure 82
0000
0000
0000
0000
,  // measure 83
0101
0000
0000
0101
,  // measure 84
0000
0000
0000
0000
,  // measure 85
1001
0000
0000
1001
,  // measure 86
0000
0000
0000
0000
,  // measure 87
1000
0001
1000
0001
,  // measure 88
1000
0000
0000
0000
,  // measure 89
1010
0000
0000
0011
,  // measure 90
0000
0000
0000
0000
,  // measure 91
0011
0000
0000
1010
,  // measure 92
0000
0000
0000
0000
,  // measure 93
0110
0000
0000
1001
,  // measure 94
0000
0000
0000
0000
,  // measure 95
1000
0001
1000
0001
,  // measure 96
1000
0000
0000
0000
,  // measure 97
1000
0000
0000
0000
;

//---------------dance-single - Chewphoria~----------------
#NOTES:
     dance-single:
     Chewphoria~:
     Easy:
     7:
     0.462,0.639,0.247,0.200,0.000: // measure 1
0000
0000
0000
0000
,  // measure 2
1000
0001
1000
0001
,  // measure 3
0100
0010
0110
0000
,  // measure 4
0000
0010
0001
0100
,  // measure 5
1000
0010
0110
0000
,  // measure 6
0100
0010
0100
0000
,  // measure 7
0001
0010
0100
1000
,  // measure 8
1000
0100
0010
0001
,  // measure 9
1000
0001
0100
0010
,  // measure 10
1000
0001
0010
0100
,  // measure 11
1000
1000
1000
1000
,  // measure 12
0100
0100
0100
0100
,  // measure 13
0001
0001
0001
0001
,  // measure 14
0010
0010
0010
0010
,  // measure 15
0001
0001
0001
0001
,  // measure 16
0100
0100
0100
0100
,  // measure 17
1000
1000
1000
1000
,  // measure 18
0010
0010
0010
0010
,  // measure 19
0200
0001
0001
0001
,  // measure 20
0001
0001
0301
0000
,  // measure 21
0002
1000
1000
1000
,  // measure 22
1000
1000
1003
0000
,  // measure 23
2000
0100
0100
0100
,  // measure 24
0100
0100
3100
0000
,  // measure 25
0100
0010
0001
0100
,  // measure 26
0020
1030
1001
0000
,  // measure 27
2002
0000
0000
3003
,  // measure 28
0200
0000
0000
0300
,  // measure 29
0020
0000
0000
0030
,  // measure 30
0100
0001
0100
0010
,  // measure 31
2000
0000
0000
3000
,  // measure 32
0002
0000
0000
0003
,  // measure 33
0020
0000
0000
0030
,  // measure 34
0100
0010
0100
0010
,  // measure 35
0002
0000
0000
0003
,  // measure 36
2000
0000
0000
3000
,  // measure 37
0020
0000
0000
0030
,  // measure 38
0100
0001
0100
1000
,  // measure 39
0100
0010
0001
0010
,  // measure 40
0110
1001
0100
0010
,  // measure 41
0100
0100
0200
0000
,  // measure 42
0300
0001
0001
1000
,  // measure 43
1000
0001
0010
0100
,  // measure 44
1000
0100
0010
0001
,  // measure 45
1000
1010
0101
0001
,  // measure 46
0100
0010
1000
0002
,  // measure 47
0013
0010
0100
0100
,  // measure 48
0010
0001
0010
0100
,  // measure 49
1000
0001
1000
0002
,  // measure 50
0103
0010
0100
0010
,  // measure 51
1000
0010
1000
0010
,  // measure 52
0100
0001
0100
0001
,  // measure 53
0010
0001
0010
0100
,  // measure 54
0010
0002
0013
0100
,  // measure 55
0010
1000
0010
0100
,  // measure 56
0010
1000
0100
0001
,  // measure 57
0010
0100
0010
0001
,  // measure 58
0100
0010
0100
1000
,  // measure 59
0010
0001
0100
1000
,  // measure 60
1000
0100
0001
0010
,  // measure 61
0100
0110
0010
0011
,  // measure 62
0001
0101
0100
0110
,  // measure 63
0010
1000
0001
1000
,  // measure 64
0010
1000
0001
0010
,  // measure 65
0110
1100
0011
0100
,  // measure 66
1000
0001
0100
0010
,  // measure 67
1010
0101
0110
1000
,  // measure 68
0001
0100
0010
1000
,  // measure 69
0011
0110
1100
1000
,  // measure 70
0001
1000
0020
0130
,  // measure 71
0101
0110
1010
1000
,  // measure 72
0001
1000
1001
0000
,  // measure 73
1000
1000
0001
0001
,  // measure 74
0010
0010
0100
0100
,  // measure 75
0010
0010
0100
0100
,  // measure 76
1000
0001
1000
0001
,  // measure 77
0100
0100
0010
0010
,  // measure 78
1000
0001
1000
0001
,  // measure 79
1000
1000
0001
0001
,  // measure 80
0100
0010
0100
0010
,  // measure 81
1000
0000
0000
0000
,  // measure 82
1000
0000
0000
0000
,  // measure 83
1001
0000
0000
0000
,  // measure 84
0001
0000
0000
0000
,  // measure 85
0010
0000
0000
0000
,  // measure 86
0100
0000
0000
0000
,  // measure 87
2000
0000
0000
0000
,  // measure 88
3000
0000
0000
0000
,  // measure 89
0001
0000
0000
0000
,  // measure 90
1000
0000
0000
0000
,  // measure 91
0010
0000
0000
0000
,  // measure 92
0100
0000
0000
0000
,  // measure 93
0001
0000
0000
0000
,  // measure 94
0100
0000
0000
0000
,  // measure 95
0020
0000
0000
0000
,  // measure 96
0030
0000
0000
0000
,  // measure 97
1000
0000
0000
0000
;

//---------------dance-single - Chewphoria~----------------
#NOTES:
     dance-single:
     Chewphoria~:
     Beginner:
     4:
     0.279,0.411,0.048,0.114,0.000: // measure 1
0000
0000
0000
0000
,  // measure 2
0010
0010
0010
0010
,  // measure 3
1000
0000
1000
0000
,  // measure 4
0001
0001
0001
0000
,  // measure 5
0001
0000
1000
0000
,  // measure 6
1000
1000
1000
0000
,  // measure 7
1000
0000
0100
0000
,  // measure 8
0001
0000
0001
0000
,  // measure 9
0001
0000
0100
0000
,  // measure 10
1000
0000
0010
0000
,  // measure 11
0010
0010
0010
0000
,  // measure 12
1000
0000
0001
0000
,  // measure 13
0001
0001
0001
0000
,  // measure 14
0001
0000
0010
0000
,  // measure 15
0010
0010
0010
0000
,  // measure 16
0010
0000
0100
0000
,  // measure 17
1000
1000
1000
0000
,  // measure 18
1000
0000
1001
0000
,  // measure 19
0001
0001
0001
0001
,  // measure 20
0001
0001
0001
0000
,  // measure 21
1000
1000
1000
1000
,  // measure 22
1000
1000
1000
0000
,  // measure 23
0010
0010
0010
0010
,  // measure 24
0010
0010
0010
0000
,  // measure 25
0100
0100
0100
0100
,  // measure 26
0100
0100
0100
0000
,  // measure 27
2000
0000
0000
3000
,  // measure 28
2000
0000
0000
3000
,  // measure 29
0002
0000
0000
0003
,  // measure 30
0002
0000
0000
0003
,  // measure 31
0020
0000
0000
0030
,  // measure 32
0020
0000
0000
0030
,  // measure 33
0200
0000
0000
0300
,  // measure 34
0200
0000
0000
0300
,  // measure 35
1000
1000
1000
0000
,  // measure 36
0001
0001
0001
0000
,  // measure 37
0010
0010
0010
0000
,  // measure 38
0110
0000
1001
0000
,  // measure 39
0110
0010
0010
0000
,  // measure 40
0100
0100
0100
0000
,  // measure 41
1000
1000
1000
0000
,  // measure 42
0000
0001
0001
0000
,  // measure 43
0001
0001
0001
0000
,  // measure 44
0010
0010
0010
0000
,  // measure 45
0010
0010
0010
0010
,  // measure 46
0010
0010
0010
0010
,  // measure 47
0010
0010
0010
0010
,  // measure 48
0010
0010
0010
0000
,  // measure 49
1000
0000
0001
0000
,  // measure 50
0100
0000
0010
0000
,  // measure 51
1000
0000
0010
0000
,  // measure 52
0001
0000
0100
0000
,  // measure 53
1000
0000
1000
0000
,  // measure 54
0001
0000
0001
0000
,  // measure 55
1000
0000
1000
0000
,  // measure 56
0010
0010
0010
0010
,  // measure 57
0100
0000
0100
0000
,  // measure 58
0001
0000
0001
0000
,  // measure 59
1000
0000
1000
0000
,  // measure 60
0010
0000
0010
0000
,  // measure 61
0100
0000
0100
0000
,  // measure 62
0001
0000
0001
0000
,  // measure 63
0010
0000
0010
0000
,  // measure 64
1000
0000
1000
0000
,  // measure 65
0001
0001
0001
0000
,  // measure 66
0100
0000
0010
0000
,  // measure 67
1000
1000
1000
0000
,  // measure 68
0010
0000
0100
0000
,  // measure 69
0001
0001
0001
0000
,  // measure 70
1000
0000
0001
0000
,  // measure 71
1000
1000
1000
0000
,  // measure 72
0001
0000
1000
0000
,  // measure 73
0002
0000
0000
0000
,  // measure 74
0000
0000
0000
0003
,  // measure 75
2000
0000
0000
0000
,  // measure 76
0000
0000
0000
3000
,  // measure 77
0020
0000
0000
0000
,  // measure 78
0000
0000
0000
0030
,  // measure 79
0200
0000
0000
0000
,  // measure 80
0000
0000
0000
0300
,  // measure 81
0100
0000
0000
0000
,  // measure 82
0000
0000
0000
0000
,  // measure 83
0100
0000
0000
0000
,  // measure 84
0000
0000
0000
0000
,  // measure 85
0100
0000
0000
0000
,  // measure 86
0000
0000
0000
0000
,  // measure 87
0100
0000
0000
0000
,  // measure 88
0000
0000
0000
0000
,  // measure 89
0010
0000
0000
0000
,  // measure 90
0000
0000
0000
0000
,  // measure 91
0010
0000
0000
0000
,  // measure 92
0000
0000
0000
0000
,  // measure 93
0010
0000
0000
0000
,  // measure 94
0000
0000
0000
0000
,  // measure 95
0010
0000
0000
0000
,  // measure 96
0000
0000
0000
0000
,  // measure 97
1001
0000
0000
0000
;

//---------------dance-single - Chewphoria~----------------
#NOTES:
     dance-single:
     Chewphoria~:
     Challenge:
     15:
     0.881,0.913,0.799,0.019,0.147: // measure 1
0000
0000
0000
0000
,  // measure 2
0010
0010
0010
0010
,  // measure 3
0110
0101
1100
0000
,  // measure 4
0000
1000
0100
0010
0001
0010
0100
1000
,  // measure 5
1010
0101
1010
1001
,  // measure 6
0010
0100
0010
0100
1001
0000
0000
0000
,  // measure 7
0011
0110
1100
0000
,  // measure 8
0000
1000
0100
0010
0001
0100
0010
1000
,  // measure 9
1001
1100
1001
0011
,  // measure 10
0010
0100
0010
0100
0010
0100
1001
0000
,  // measure 11
0011
0000
1100
0000
0101
0000
0100
0010
,  // measure 12
1000
0010
0100
0001
0010
0100
1000
0000
,  // measure 13
1001
1100
1001
1100
,  // measure 14
0010
0001
0010
0001
0010
0100
1000
0010
,  // measure 15
0101
1001
1100
0110
,  // measure 16
1000
0001
0010
0100
0010
0000
0011
0000
,  // measure 17
1100
0101
1010
1001
,  // measure 18
1000
0000
0100
0000
1000
0001
0100
0000
1000
0000
0000
0000
1001
0000
0000
0000
,  // measure 19
0010
0100
1000
0001
1000
0010
1000
0001
,  // measure 20
0100
0000
0010
0100
0010
0000
0100
0000
0001
0000
0000
0000
0000
0000
0000
0000
,  // measure 21
1000
0100
0010
0001
0010
0100
1000
0010
,  // measure 22
0100
0000
0001
0100
0001
0000
0100
0000
0010
0000
0000
0000
0000
0000
0000
0000
,  // measure 23
1000
0010
0100
0001
0010
0100
1000
0001
,  // measure 24
1000
0000
0010
1000
0010
0000
1000
0000
0001
0000
0000
0000
1100
0000
0000
0000
,  // measure 25
0010
0001
0010
0100
1000
0010
0100
0001
,  // measure 26
0100
0000
0010
0001
1000
0000
0001
0000
2002
0000
0000
0000
3003
0000
0000
0000
,  // measure 27
1000
0000
0010
0100
0001
0001
0001
0000
,  // measure 28
0010
0000
0100
1000
0001
0001
0001
0000
,  // measure 29
1000
0000
0010
0100
0010
0010
0010
0000
,  // measure 30
1000
0001
0000
0001
1000
0000
0000
0000
0001
0100
0000
0100
0010
0000
0000
0000
,  // measure 31
1000
0000
0001
0000
1000
0000
0010
1000
0010
0000
0100
0000
0100
0000
0000
0000
,  // measure 32
1000
0000
0100
0000
1000
0000
0001
1000
0100
0000
0010
0000
1001
0000
0000
0000
,  // measure 33
0100
0000
0010
0000
0100
0000
0001
0010
0100
0000
0000
0000
1000
0000
0001
0000
,  // measure 34
1000
0100
0000
0100
1000
0000
0000
0000
0001
1000
0000
1000
0010
0000
0000
0000
,  // measure 35
0001
0000
0100
0000
0100
0000
0010
1000
0001
0000
0001
0000
1000
0000
0100
0000
,  // measure 36
1000
0000
1000
0100
0010
0000
0001
0000
0010
0000
0001
0000
0010
0000
0001
0000
,  // measure 37
0011
0000
0000
0000
0010
0100
1000
0000
1000
0000
0001
0000
1000
0000
0010
0000
,  // measure 38
0100
0010
0000
0000
0010
0100
0000
0000
0100
0001
0000
0000
0001
0100
0000
0000
,  // measure 39
0001
0000
1000
0000
0100
0000
0001
0000
1000
0010
0100
0000
1000
0000
0000
0000
,  // measure 40
1001
0000
1100
0000
1000
0001
1000
0000
,  // measure 41
1010
0101
1010
0101
,  // measure 42
1000
0100
0010
0001
1000
0100
0010
0001
,  // measure 43
0011
1100
0101
1010
,  // measure 44
1000
0010
1000
0010
1000
0010
1000
0000
,  // measure 45
1001
0110
1001
0110
,  // measure 46
0001
0100
0001
0100
0001
0100
0001
0000
,  // measure 47
0101
1100
1010
0011
,  // measure 48
0010
0100
0010
0100
0010
0000
0110
0000
,  // measure 49
0010
0001
0100
1000
0100
0001
0010
0000
,  // measure 50
0010
0001
0100
1000
0100
0001
0010
0000
,  // measure 51
0010
0001
0100
1000
0010
0001
1000
0000
,  // measure 52
0001
0010
1000
0100
0001
0010
0100
0000
,  // measure 53
0010
0001
0010
0100
1000
0001
0100
0010
,  // measure 54
0100
0001
1000
0100
0010
0001
0010
0100
,  // measure 55
1000
1000
0001
0001
1000
1000
0010
0010
,  // measure 56
0100
0000
0100
0000
0001
0000
0001
0000
0100
0000
0001
0100
0001
0000
0000
0000
,  // measure 57
1000
0010
1000
0001
1000
0100
1000
0001
,  // measure 58
0001
1000
0100
1000
0001
0010
0001
0010
,  // measure 59
0010
0100
0010
0001
0010
0100
0010
0001
,  // measure 60
0001
1000
0100
1000
0001
1000
0100
0010
,  // measure 61
1000
0001
0100
0010
1000
0001
0010
0100
,  // measure 62
0010
0001
1000
0010
0100
0001
0010
0100
,  // measure 63
1000
1000
0100
0100
0010
0010
0001
0001
,  // measure 64
0010
0000
0100
0010
0100
0000
1000
0000
0100
0000
1000
0100
1000
0000
0000
0000
,  // measure 65
1001
0000
1010
0000
0101
0000
0100
0010
,  // measure 66
1000
0010
0100
0001
0010
0100
1000
0001
,  // measure 67
1000
0000
1100
0000
0010
0000
0011
0001
,  // measure 68
0000
0000
0001
0100
0010
1000
0000
0000
1001
0000
0000
0000
0100
0000
0001
0000
,  // measure 69
0010
0010
0100
1000
0001
0000
1000
0010
,  // measure 70
0100
0000
0010
0000
0100
0000
0001
0000
0100
0000
0010
1000
0010
0100
0000
0000
,  // measure 71
1001
0000
1100
0000
1001
0000
0010
0001
,  // measure 72
0010
0001
0010
0100
1000
0000
1001
0000
,  // measure 73
0100
0010
0100
0001
0100
0000
0010
1000
,  // measure 74
0001
1000
0010
0000
1000
0100
0010
0001
,  // measure 75
0010
0000
0100
0000
1000
0000
0100
1000
,  // measure 76
0010
1000
0100
0000
1000
0100
0010
0001
,  // measure 77
0010
0000
0100
0000
0010
0000
0001
0010
,  // measure 78
0100
0010
0001
0000
0100
0000
0010
0000
,  // measure 79
1000
0000
0001
0000
0100
0000
0010
0100
,  // measure 80
0001
0100
0010
0000
1010
0000
0101
0000
,  // measure 81
1010
0000
0101
0000
,  // measure 82
1010
0000
0101
0000
,  // measure 83
1100
0000
0011
0000
,  // measure 84
1100
0000
0011
0000
,  // measure 85
1000
0100
1000
0000
,  // measure 86
0001
0100
0001
0000
,  // measure 87
0100
0010
0100
0010
,  // measure 88
0100
0010
0100
0000
,  // measure 89
1010
0000
0101
0000
,  // measure 90
1010
0000
0101
0000
,  // measure 91
0011
0000
1100
0000
,  // measure 92
0011
0000
1100
0000
,  // measure 93
0010
0100
0010
0000
,  // measure 94
0100
0010
0100
0000
,  // measure 95
0010
0001
0100
1000
,  // measure 96
0010
1000
0100
0001
,  // measure 97
0010
0000
0000
0000
;
