#TITLE:7 Things (DAISHI DANCE Remix);
#SUBTITLE:;
#ARTIST:Miley Cyrus;
#TITLETRANSLIT:;
#SUBTITLETRANSLIT:;
#ARTISTTRANSLIT:;
#GENRE:Dance/Electronic;
#CREDIT:chewi;
#BANNER:7 Things (DAISHI DANCE Remix).png;
#BACKGROUND:7 Things (DAISHI DANCE Remix)-bg.png;
#LYRICSPATH:;
#CDTITLE:cdtitle.png;
#MUSIC:7 Things (DAISHI DANCE Remix).ogg;
#OFFSET:-0.140000;
#SAMPLESTART:54.515999;
#SAMPLELENGTH:15.000000;
#SELECTABLE:YES;
#BPMS:0.000000=128.000000
;
#STOPS:
;
#BGCHANGES:;
#KEYSOUNDS:;
#ATTACKS:;

//---------------dance-single - ----------------
#NOTES:
     dance-single:
     :
     Beginner:
     1:
     0.087356,0.235228,0.029588,0.019726,0.000000,62.000000,59.000000,3.000000,2.000000,0.000000,0.000000,0.087356,0.235228,0.029588,0.019726,0.000000,62.000000,59.000000,3.000000,2.000000,0.000000,0.000000:
0000
0000
0000
0000
,
0000
0000
0000
0000
,
0000
0000
0000
0000
,
0000
0000
0000
0000
,
2000
0000
0000
3000
,
1000
0000
0000
0000
,
0002
0000
0000
0003
,
0001
0000
0000
0000
,
1001
0000
0000
0000
,
0100
0000
0000
0000
,
0010
0000
0000
0000
,
0100
0000
0000
0000
,
0001
0000
0000
0000
,
1000
0000
0000
0000
,
0001
0000
0000
0000
,
1000
0000
0000
0000
,
0110
0000
0000
0000
,
0100
0000
0000
0000
,
0010
0000
0000
0000
,
0001
0000
0000
0000
,
0000
0000
0000
0000
,
0001
0000
0000
0000
,
0010
0000
0000
0000
,
1000
0000
0000
0000
,
0100
0000
0000
0000
,
0001
0000
0000
0000
,
0010
0000
0000
0000
,
1000
0000
0000
0000
,
0100
0000
0000
0000
,
0001
0000
0001
0000
,
0001
0000
0000
0000
,
1000
0000
1000
0000
,
1000
0000
0000
0000
,
0010
0000
0010
0000
,
0010
0000
0000
0000
,
0100
0000
0100
0000
,
0100
0000
0000
0000
,
0100
0000
0000
0000
,
0100
0000
0000
0000
,
0100
0100
0100
0100
,
0100
0100
0100
0100
,
0100
0000
0000
0000
,
0010
0000
0000
0000
,
1000
0000
0000
0000
,
0001
0000
0000
0000
,
0001
0000
0000
0000
,
0010
0000
0000
0000
,
0100
0000
0000
0000
,
1000
0000
0000
0000
,
0001
0000
0000
0000
,
0100
0000
0000
0000
,
0010
0000
0000
0000
,
1000
0000
0000
0000
,
1001
0000
0000
0000
;

//---------------dance-single - ----------------
#NOTES:
     dance-single:
     :
     Easy:
     4:
     0.147942,0.235228,0.049314,0.098628,0.000000,105.000000,100.000000,5.000000,10.000000,0.000000,0.000000,0.147942,0.235228,0.049314,0.098628,0.000000,105.000000,100.000000,5.000000,10.000000,0.000000,0.000000:
0000
0000
0000
0000
,
0000
0000
0000
0000
,
0000
0000
0000
0000
,
0000
0000
0000
0000
,
2000
0000
0000
3000
,
0200
0000
0000
0300
,
0020
0000
0000
0030
,
0002
0000
0000
0003
,
1000
0000
0100
0000
,
0010
0000
0001
0000
,
1000
0000
0010
0000
,
0100
0000
0001
0000
,
1000
0000
0100
0000
,
0010
0000
0100
0000
,
0010
0000
0001
0000
,
0100
0000
0001
0000
,
0100
0000
0010
0000
,
1000
0000
0001
0000
,
1000
0000
0001
0000
,
0010
0000
0100
0000
,
0000
0000
0000
0000
,
0100
0100
0100
0000
,
0100
0100
0100
0000
,
0010
0010
0010
0000
,
0010
0010
0010
0000
,
0001
0001
0001
0000
,
0001
0001
0001
0000
,
1000
1000
1000
0000
,
1000
1000
1000
0000
,
1000
0000
0001
0000
,
1000
0001
1000
0000
,
1001
0000
0000
0000
,
0110
0000
0000
0000
,
0010
0100
0010
0000
,
0100
0010
0100
0000
,
0110
0000
0000
0000
,
1001
0000
0000
0000
,
1000
0000
0000
0000
,
0001
0000
0000
0000
,
1000
0001
1000
0001
,
1000
0001
1000
0001
,
2000
0000
0000
3000
,
0020
0000
0000
0030
,
0200
0000
0000
0300
,
0002
0000
0000
0003
,
2000
3000
1000
0000
,
1000
0100
1000
0000
,
0100
0000
0010
0000
,
0001
0000
1000
0000
,
0002
0003
0001
0000
,
0001
0100
0001
0000
,
0100
0000
0010
0000
,
1000
0000
0001
0000
,
1001
0000
0000
0000
;

//---------------dance-single - ----------------
#NOTES:
     dance-single:
     :
     Medium:
     7:
     0.283204,0.365910,0.108491,0.286021,0.069040,201.000000,190.000000,11.000000,29.000000,0.000000,0.000000,0.283204,0.365910,0.108491,0.286021,0.069040,201.000000,190.000000,11.000000,29.000000,0.000000,0.000000:
0000
0000
0000
0000
,
0000
0000
0000
0000
,
0000
0000
0000
0000
,
0000
0000
0000
0000
,
2000
0000
0000
3200
0000
0000
0320
0000
,
0002
0000
0000
0033
,
0002
0000
0000
0203
0000
0000
0020
0330
,
0100
0000
0000
0100
0000
0000
0000
0000
0010
0000
0000
0010
0000
0000
0000
0000
,
1000
1000
0001
0001
,
1000
0100
0010
0001
1000
0000
0000
0000
,
0001
0001
0100
0100
,
0010
1000
0001
1000
0001
0000
0000
0000
,
0001
0010
1000
0010
,
0001
0100
1000
0100
,
0001
0010
0100
1000
,
1002
0103
1002
0013
,
0100
0010
0001
1000
,
0010
0100
0001
1000
,
0010
0100
0010
1000
,
1002
0000
0013
0000
1002
0000
0103
0200
,
0000
0000
0000
0300
,
0010
0000
0000
0010
0000
0000
0000
0000
0010
0000
0000
0010
0000
0000
0000
0000
,
0100
0000
0000
0100
0000
0000
0000
0000
0100
0000
0000
0100
0000
0000
0000
0000
,
0001
0000
0000
0001
0000
0000
0000
0000
0001
0000
0000
0001
0000
0000
0000
0000
,
1000
0000
0000
1000
0000
0000
0000
0000
1000
0000
0000
1000
0000
0000
0000
0000
,
1000
0100
0010
0001
,
1000
0010
0100
0001
,
1000
0100
0010
0000
0001
0000
0100
0000
,
0001
0100
0010
0000
1000
0000
0010
0000
,
0100
0100
0100
0000
0010
0000
1000
0000
,
0001
0000
1000
0000
0100
0100
0100
0000
,
0010
0011
0001
0101
,
0100
0110
0010
1010
,
0100
0100
0100
0000
0010
0000
0100
0000
,
1000
0000
0001
0000
1000
1000
1000
0000
,
1000
1100
0100
0110
,
0010
0000
0011
0000
0001
0100
0010
1000
,
0002
0000
0000
0000
,
2003
0000
0000
0000
,
3001
0100
0010
0000
1000
0000
0010
0000
,
1000
0100
0010
0000
0100
0000
1000
0000
,
0001
0000
0000
0001
0000
0000
0000
0000
1000
0000
0000
1000
0000
0000
0000
0000
,
0001
1000
0001
0000
0100
0010
0100
0000
,
0010
0000
0000
0010
0000
0000
0000
0000
0100
0000
0000
0100
0000
0000
0000
0000
,
0010
1000
0010
0000
1000
0010
1000
0000
,
2000
0000
0000
3200
0000
0000
0320
0000
,
0002
0000
0000
0033
,
0002
0000
0000
0023
0000
0000
0230
0000
,
2000
0000
0000
3300
1000
0100
0010
0001
,
0200
0000
0000
0320
0000
0000
2030
0000
,
0002
0000
0000
3003
,
0020
0000
0000
0230
0000
0000
2300
0000
,
0000
0000
0000
3000
0010
0100
0001
1000
,
0010
0000
0000
0000
;

//---------------dance-single - ----------------
#NOTES:
     dance-single:
     :
     Hard:
     12:
     0.462143,0.444320,0.078902,0.000000,0.246570,328.000000,320.000000,8.000000,0.000000,0.000000,0.000000,0.462143,0.444320,0.078902,0.000000,0.246570,328.000000,320.000000,8.000000,0.000000,0.000000,0.000000:
// measure 0
0000
0000
0000
0000
,  // measure 1
0000
0000
0000
0000
,  // measure 2
0000
0000
0000
0000
,  // measure 3
0000
0000
0000
0000
,  // measure 4
1000
0000
0010
0100
0000
0010
1000
0100
,  // measure 5
0010
0011
0001
0101
,  // measure 6
0100
0000
0010
0100
0000
0100
0001
0010
,  // measure 7
0100
0000
0000
1000
0000
1000
0000
0000
0100
0000
0000
0010
0000
0010
0000
0000
,  // measure 8
0001
0010
0100
0010
0001
0100
0010
0000
,  // measure 9
0100
0010
1000
0100
0010
0100
1000
0000
,  // measure 10
0010
0100
0001
1000
0100
0010
0001
0000
,  // measure 11
1000
0010
0100
0010
1000
0100
0010
0000
,  // measure 12
0001
0000
0000
1000
0000
0100
0000
0000
1000
0000
0000
0001
0000
0100
0000
0000
,  // measure 13
0001
0000
0000
0010
0000
0100
0000
0000
1000
0000
0000
0010
0000
0100
0000
0000
,  // measure 14
0001
0000
0000
0100
0000
0010
0000
0000
1000
0000
0000
0001
0000
0010
0000
0000
,  // measure 15
1100
0000
0000
0010
0000
0010
0000
0000
0101
0000
0000
0010
0000
0010
0000
0000
,  // measure 16
1000
0100
0010
0100
1000
1000
0001
0001
,  // measure 17
0100
0010
0100
0001
0010
0010
0100
0100
,  // measure 18
1000
0001
0100
0010
0100
0100
0001
0001
,  // measure 19
1000
0100
0010
0001
1000
0100
0010
0001
,  // measure 20
0000
0000
0000
0000
0100
0001
0100
0001
,  // measure 21
0100
0000
0000
1000
0100
1000
0000
0100
,  // measure 22
0001
0100
0000
0001
0010
0001
0000
0010
,  // measure 23
1000
0010
0000
1000
0100
1000
0000
0100
,  // measure 24
0001
0100
0000
0001
0100
0010
0001
0010
,  // measure 25
0100
0010
0100
0010
0100
0010
0100
0010
,  // measure 26
0001
1000
0001
1000
0001
1000
0001
1000
,  // measure 27
1000
0010
0100
0001
0010
0100
1000
0010
,  // measure 28
1000
0100
0010
0100
1000
0001
0100
0010
,  // measure 29
1000
0000
1000
0000
1000
0000
0100
0000
0100
0000
1000
0000
1000
0000
0010
1000
,  // measure 30
0000
0000
0010
0000
0100
0000
0001
0000
0100
0001
0000
0001
0000
0000
0000
0001
,  // measure 31
1000
0000
1000
0001
0000
0000
0000
1000
0001
0000
0001
1000
0000
0000
1000
0000
,  // measure 32
0010
0000
0100
0000
0001
0000
0000
0000
0100
0000
0010
1000
0000
0000
0000
0000
,  // measure 33
0000
0000
0001
0000
0001
0000
1000
0000
1000
0000
0010
1000
0010
0100
0000
0001
,  // measure 34
0000
0000
1000
0000
0001
1000
0000
0001
0000
0000
0000
0000
0000
0000
1000
0000
,  // measure 35
0001
0000
1000
0001
0000
0000
0000
0000
1000
0000
0010
1000
0000
0010
0000
0000
,  // measure 36
0100
0000
0000
0000
0001
0010
0100
1000
,  // measure 37
0010
0000
1000
0001
0000
0000
0000
1000
,  // measure 38
0100
0000
0001
0100
0000
1000
0010
0100
,  // measure 39
0001
0001
0100
0100
0010
0010
1000
1000
,  // measure 40
0100
0100
0010
0010
0100
0100
1000
1000
,  // measure 41
0001
0000
0000
1000
0000
0100
0000
0000
1000
0000
0000
0001
0000
0100
0000
0000
,  // measure 42
0001
0000
0000
0010
0000
0100
0000
0000
1000
0000
0000
0010
0000
0100
0000
0000
,  // measure 43
0001
0000
0000
0100
0000
0010
0000
0000
1000
0000
0000
0001
0000
0010
0000
0000
,  // measure 44
0100
0000
0000
1000
0000
0010
0000
0000
0100
0000
0100
0000
0001
0000
0001
0000
,  // measure 45
1000
0000
0010
0100
0000
0010
1000
0100
,  // measure 46
0010
0011
0001
0101
,  // measure 47
0100
0000
0010
0100
0000
0100
0001
0010
,  // measure 48
0001
1000
0100
0000
1000
0001
0100
0001
,  // measure 49
0010
0000
0001
1000
0000
0001
0010
0100
,  // measure 50
1000
1100
0001
0101
,  // measure 51
0100
0000
0010
0100
0000
0100
0010
1000
,  // measure 52
0001
0001
1000
0000
0001
0010
1000
0100
,  // measure 53
0001
0000
0000
0000
;
