#TITLE:5AM (Nervo Radio Edit);
#SUBTITLE:;
#ARTIST:Tommie Sunshine feat. Oh Snap!!;
#TITLETRANSLIT:;
#SUBTITLETRANSLIT:;
#ARTISTTRANSLIT:;
#GENRE:;
#CREDIT:Chewi☆;
#MENUCOLOR:;
#METERTYPE:DDR X;
#BANNER:5AM (Nervo Radio Edit).png;
#BACKGROUND:5AM (Nervo Radio Edit)-bg.png;
#LYRICSPATH:;
#CDTITLE:;
#MUSIC:5AM (Nervo Radio Edit).mp3;
#OFFSET:-0.081;
#SAMPLESTART:38.174;
#SAMPLELENGTH:15.000;
#SELECTABLE:YES;
#LISTSORT:;
#BPMS:0.000=126.000;
#STOPS:;
#BGCHANGES:;
#ATTACKS:;

//---------------dance-single - Chewi----------------
#NOTES:
     dance-single:
     Chewi:
     Beginner:
     2:
     0.119,0.178,0.045,0.000,0.000:
0000
0000
0000
0000
,
0000
0000
0000
0000
,
0000
0000
0000
0000
,
0000
0000
0000
0000
,
1000
0000
0000
0000
,
0001
0000
0000
0000
,
1000
0000
0000
0000
,
0001
0000
0000
0000
,
0001
0000
0000
0000
,
0010
0000
0000
0000
,
1000
0000
0000
0000
,
0010
0000
0000
0000
,
0001
0000
0000
0000
,
0100
0000
0000
0000
,
1000
0000
0000
0000
,
0100
0000
0000
0000
,
1001
0000
0000
0000
,
0010
0010
0000
0000
,
0110
0000
0000
0000
,
0001
0001
0000
0000
,
1000
0000
1000
0000
,
1000
0000
1000
0000
,
0001
0000
0001
0000
,
0001
0000
0001
0000
,
1000
0000
1000
0000
,
1000
0000
1000
0000
,
0001
0000
0001
0000
,
0001
0000
0001
0000
,
0010
0000
0010
0000
,
0010
0000
0010
0000
,
0100
0000
0100
0000
,
0100
0000
0100
0000
,
0010
0000
0010
0000
,
0010
0000
0010
0000
,
0100
0000
0100
0000
,
0100
0000
0100
0000
,
0010
0000
0010
0000
,
0100
0000
0100
0000
,
0010
0000
0010
0000
,
0100
0000
0100
0000
,
1000
0000
1000
0000
,
0001
0000
0001
0000
,
1000
0000
1000
0000
,
0001
0000
0001
0000
,
1000
0000
0000
0000
,
0001
0000
0000
0000
,
1000
0000
0000
0000
,
0001
0000
0000
0000
,
0100
0000
0000
0000
,
0010
0000
0000
0000
,
0100
0000
0000
0000
,
0010
0000
0000
0000
,
1001
0000
0000
0000
,
0100
0100
0000
0000
,
0110
0000
0000
0000
,
0001
0001
0000
0000
,
1000
0000
1000
0000
,
1000
0000
1000
0000
,
0001
0000
0001
0000
,
0001
0000
0001
0000
,
0010
0000
0010
0000
,
0010
0000
0010
0000
,
0100
0000
0100
0000
,
0100
0000
0100
0000
,
0110
0000
0000
0000
,
0010
0010
0010
0000
,
0110
0000
0000
0000
,
0100
0100
0100
0100
;

//---------------dance-single - Chewi----------------
#NOTES:
     dance-single:
     Chewi:
     Easy:
     4:
     0.196,0.255,0.083,0.331,0.000: // measure 1
0000
0000
0000
0000
,  // measure 2
0000
0000
0000
0000
,  // measure 3
0000
0000
0000
0000
,  // measure 4
0000
0000
0000
0000
,  // measure 5
2000
0000
0000
3000
,  // measure 6
0001
0001
0001
0000
,  // measure 7
0002
0000
0000
0003
,  // measure 8
1000
1000
1000
0000
,  // measure 9
0010
1000
0100
0000
,  // measure 10
0010
0001
0100
0000
,  // measure 11
0010
1000
0100
0000
,  // measure 12
0010
0001
0100
0000
,  // measure 13
0200
0000
0000
0300
,  // measure 14
0100
0000
0010
0000
,  // measure 15
0020
0000
0000
0030
,  // measure 16
0010
0000
0100
0000
,  // measure 17
2002
0000
0000
3003
,  // measure 18
1000
0001
0001
1000
,  // measure 19
0220
0000
0000
0330
,  // measure 20
0010
0100
0100
0010
,  // measure 21
0020
0000
2030
0000
,  // measure 22
3001
0001
0001
0000
,  // measure 23
2002
0000
0000
3003
,  // measure 24
0000
0000
0000
0000
,  // measure 25
0020
0000
0032
0000
,  // measure 26
1003
1000
1000
0000
,  // measure 27
2002
0000
0000
3003
,  // measure 28
0000
0000
0000
0000
,  // measure 29
2000
0100
3020
0000
,  // measure 30
0130
0100
0100
0000
,  // measure 31
0220
0000
0000
0330
,  // measure 32
0000
0000
0000
0000
,  // measure 33
0002
0100
0023
0000
,  // measure 34
0130
0100
0100
0000
,  // measure 35
0220
0000
0000
0330
,  // measure 36
0000
0000
0000
0000
,  // measure 37
2000
0000
0000
3000
,  // measure 38
0001
1000
0001
0000
,  // measure 39
0002
0000
0000
0003
,  // measure 40
0001
1000
0001
0000
,  // measure 41
0200
0000
0000
0300
,  // measure 42
0010
0100
0010
0000
,  // measure 43
0020
0000
0000
0030
,  // measure 44
0100
0010
0100
0000
,  // measure 45
1000
0000
0100
0000
,  // measure 46
0010
0000
1000
0000
,  // measure 47
0100
0000
0001
0000
,  // measure 48
0100
0000
0001
0000
,  // measure 49
0010
0000
0100
0000
,  // measure 50
0001
0000
0010
0000
,  // measure 51
1000
0000
0010
0000
,  // measure 52
1000
0000
1000
0000
,  // measure 53
2002
0000
0000
3003
,  // measure 54
1000
0001
0001
1000
,  // measure 55
0220
0000
0000
0330
,  // measure 56
0010
0100
0100
0010
,  // measure 57
0020
0000
2030
0000
,  // measure 58
3001
0001
0001
0000
,  // measure 59
2002
0000
0000
3003
,  // measure 60
0000
0000
0000
0000
,  // measure 61
0020
0000
0032
0000
,  // measure 62
1003
1000
1000
0000
,  // measure 63
2002
0000
0000
3003
,  // measure 64
0000
0000
0000
0000
,  // measure 65
2000
0010
0020
3030
,  // measure 66
0100
0000
0100
0000
,  // measure 67
0200
0001
0002
0303
,  // measure 68
0001
0000
0001
1001
;

//---------------dance-double - Chewi----------------
#NOTES:
     dance-double:
     Chewi:
     Easy:
     4:
     0.185,0.255,0.030,0.150,0.000:
00000000
00000000
00000000
00000000
,
00000000
00000000
00000000
00000000
,
00000000
00000000
00000000
00000000
,
00000000
00000000
00000000
00000000
,
10000000
00000000
00100000
00000000
,
01000000
00000000
00010000
00000000
,
00001000
00000000
00000100
00000000
,
00000010
00000000
00000001
00000000
,
00000001
00000000
00000100
00000000
,
00000010
00000000
00001000
00000000
,
00010000
00000000
01000000
00000000
,
00100000
00000000
10000000
00000000
,
10000000
10000000
10000000
00000000
,
00010000
00010000
00010000
00000000
,
00100000
01000000
00100000
00000000
,
00010000
00100000
00010000
00000000
,
02020000
00000000
03030000
00000000
,
01000000
00010000
00001000
00000010
,
00002020
00000000
00003030
00000000
,
00000010
00000010
00000010
00000000
,
00000020
00000000
00002030
00000000
,
00003010
00001000
00000010
00000000
,
00010000
00000000
00000000
00000000
,
00001000
00000000
00000000
00000000
,
00200000
00000000
00320000
00000000
,
00130000
00010000
00100000
00000000
,
00010000
00000000
00000000
00000000
,
00001000
00000000
00000000
00000000
,
00000020
00000000
00000230
00000000
,
00000310
00001000
00000010
00000000
,
00010000
00000000
00000000
00000000
,
10000000
00000000
00000000
00000000
,
20000000
00000000
30020000
00000000
,
00130000
00100000
00100000
00000000
,
00001000
00000000
00000000
00000000
,
00000001
00000000
00000000
00000000
,
00001000
00001000
00001000
00000000
,
00001000
00010000
00001000
00000000
,
00010000
00010000
00010000
00000000
,
10010000
00000000
00000000
00000000
,
10000000
00010000
10000000
00000000
,
00001000
00010000
00001000
00000000
,
00001000
00001000
00001000
00000000
,
00000001
00001000
00000001
00000000
,
00000020
00000000
00000000
00000030
,
00001000
00001000
00010000
00010000
,
02000000
00000000
00000000
03000000
,
00010000
00010000
00001000
00001000
,
00000200
00000000
00000000
00000300
,
00000010
00000010
00000001
00000001
,
00002000
00000000
00000000
00003000
,
00001000
00010000
00010000
00001000
,
01010000
00000000
00100000
00000000
,
00100000
00010000
00001000
00000000
,
00010000
00001000
00010000
00000000
,
00010000
00001000
00000010
00000010
,
00000020
00000000
00002030
00000000
,
00003010
00001000
00000010
00000000
,
00010000
00000000
00000000
00000000
,
10000000
00000000
00000000
00000000
,
00200000
00000000
00320000
00000000
,
00130000
00010000
00100000
00000000
,
00010000
00000000
00000000
00000000
,
00001000
00000000
00000000
00000000
,
10000000
01000000
00100000
00010000
,
00010000
00001000
00000010
00000001
,
00000100
00000100
00000100
00000000
,
00001000
00000010
00000010
00000010
;

//---------------dance-single - Chewi----------------
#NOTES:
     dance-single:
     Chewi:
     Medium:
     7:
     0.319,0.382,0.211,0.165,0.023:
0000
0000
0000
0000
,
0000
0000
0000
0000
,
0000
0000
0000
0000
,
0000
0000
0000
0000
,
1000
0010
0001
0010
,
1000
0100
0001
0100
,
0010
0100
0010
0000
0100
0010
0100
0000
,
0001
1000
0001
0000
1000
0001
1000
0000
,
1000
0010
0001
0010
,
1000
0100
0001
0100
,
0100
0010
0100
0000
0010
0100
0010
0000
,
0010
1000
0010
0000
0100
0001
0100
0000
,
2000
3001
0002
1003
,
1010
0011
1100
0101
,
0200
0310
0020
0130
,
1010
0101
0011
1100
,
1000
1000
1000
0000
0001
0000
0000
0000
,
0001
0001
0001
0000
1000
0000
0000
0000
,
0010
0100
0001
1000
,
0100
0010
0001
1000
,
0102
0203
0302
0103
,
0010
1000
0001
0010
,
0100
0000
0000
0100
0000
0000
0100
0000
0000
0000
0000
0000
0000
0000
0000
0000
,
0110
0000
0000
0000
,
2100
3200
2300
3010
,
0100
0000
0001
0000
0010
0000
0100
0010
,
0000
0000
0010
0100
0000
0000
0000
0000
,
0110
1001
0110
0000
,
2010
3020
2030
3010
,
0100
0001
0010
0100
,
0010
0000
0000
0010
0000
0000
0010
0000
0000
0000
0000
0000
0000
0000
0000
0000
,
1001
0000
0000
0000
,
0021
0000
0000
0000
0032
0000
0000
0003
0020
0000
0000
0000
0031
0000
0000
0000
,
0100
0000
1000
0000
0010
0000
0100
0010
,
0000
0000
0010
0100
0000
0000
0000
0000
,
1001
0000
0000
0000
,
1000
0100
0001
0010
,
1000
0010
0001
0100
,
1000
0001
0100
0010
,
0010
0100
0001
1000
0000
0000
0000
0000
,
1000
0100
0001
0010
,
1000
0100
0010
1000
,
0100
0001
0010
0100
,
0010
0100
0001
1000
0100
0010
0000
0000
,
0011
0100
1010
0100
,
0001
1000
0001
0000
1000
0001
1000
0000
,
0010
0100
0010
0100
,
1000
0001
1000
0001
,
0010
1000
0100
0010
,
0010
0001
0100
0010
,
0001
1000
0010
0100
,
0100
0010
1000
1001
,
1000
1000
1000
0000
0001
0000
0000
0000
,
0001
0001
0001
0000
1000
0000
0000
0000
,
0010
0100
0001
1000
,
0100
0010
0001
1000
,
0102
0203
0302
0103
,
0010
1000
0001
0010
,
0100
0000
0000
0100
0000
0000
0100
0000
0000
0000
0000
0000
0000
0000
0000
0000
,
0110
0000
0000
0000
,
2100
3200
2300
3010
,
0100
0000
0001
0000
0010
0000
0100
0010
,
0000
0000
0010
0100
0000
0000
0000
0000
,
0110
1001
0110
0000
,
0010
0000
0000
0010
0000
0000
0010
0000
0000
0000
0000
0000
0000
0000
0000
0000
,
1000
0000
0100
0000
0001
0000
0010
0100
,
0000
0100
0000
0000
0100
0000
0000
0000
0000
0000
0000
0000
0000
0000
0010
0000
,
0000
0010
0000
0000
0010
0000
0000
0000
1000
0000
0000
0000
1001
0000
0000
0000
;

//---------------dance-single - Chewi----------------
#NOTES:
     dance-single:
     Chewi:
     Hard:
     10:
     0.406,0.459,0.241,0.196,0.019:
0000
0000
0000
0000
,
0000
0000
0000
0000
,
0000
0000
0000
0000
,
0000
0000
0000
0000
,
1100
0000
0001
0000
1000
0010
0001
0000
,
0101
0000
1000
0000
1000
0100
0001
0000
,
0010
0100
1000
0001
0100
0010
0100
0000
,
2000
3010
0002
0013
,
1000
0001
0100
0010
1000
0001
1001
0000
,
0001
1000
0100
0010
0001
1000
0001
0000
,
0010
1000
0100
0010
1000
0100
0110
0000
,
0010
0001
0100
0010
0001
0100
0010
0000
,
1000
0010
0100
0001
0100
0100
0001
0000
,
1001
0000
0110
0000
1000
0001
0010
0000
,
0100
0000
0110
0000
0010
0001
0100
0000
,
0010
1000
0100
1000
0010
0100
0010
0000
,
0010
0010
0020
0030
1000
1000
1001
0000
,
1000
0001
0010
0100
1000
0001
0100
0010
,
1000
0001
1000
0001
0010
0100
0010
0100
,
0010
0001
0100
0001
0010
0100
1000
0010
,
0102
0000
2003
0000
3020
0000
1030
0001
,
0010
0100
1000
0000
0100
0000
0010
0001
,
1000
0000
0000
0001
0000
0000
1001
0000
0000
0000
0000
0000
0000
0000
0000
0000
,
0000
0000
0000
0000
,
1200
0000
0302
0000
0023
0000
1030
0010
,
0100
0001
0010
0000
0110
0000
1001
0100
,
0000
0000
0100
0010
0000
0000
0000
0000
,
0001
0010
1000
0100
,
0012
0000
2003
0000
3020
0000
0130
0001
,
0010
0000
0100
0000
1000
0000
0010
0010
,
0100
0000
0000
0100
0000
0000
0110
0000
0000
0000
0000
0000
0000
0000
0000
0000
,
1000
0000
0000
1001
0000
0000
0000
0000
,
2100
0000
3200
0000
0302
0000
0103
1000
,
0010
0001
0010
1000
0100
0010
0001
1001
,
0000
0000
0001
1000
0000
0000
0000
0000
,
1000
0010
0001
0100
,
1000
0000
0100
0000
1000
0001
0100
0000
,
0001
0000
0100
0000
0001
1000
0100
0000
,
0010
0000
0100
0000
0010
0001
1000
0000
,
2002
0000
0000
3003
,
1000
0000
0100
0000
0001
1000
0100
0000
,
0001
0000
0100
0000
1000
0001
0100
0000
,
0010
0000
0100
0000
1000
0010
0100
0000
,
2200
0000
0000
3300
,
1000
0000
0100
0000
0001
0010
1000
0000
,
0100
0000
0010
0000
0100
0010
0100
0000
,
0010
0000
1000
0000
0100
0001
0010
0000
,
0100
0000
0010
0000
0100
0010
0100
0000
,
1001
0000
0110
0000
0010
0010
0010
0000
,
0110
0000
1001
0000
1000
1000
1000
0000
,
0001
0000
0100
0000
1000
0010
0001
0000
,
0001
0000
0010
0000
1000
0100
0001
0000
,
0010
0010
0020
0030
1000
1000
1001
0000
,
1000
0001
0010
0100
1000
0001
0100
0010
,
1000
0001
1000
0001
0010
0100
0010
0100
,
0010
0001
0100
0001
0010
0100
1000
0010
,
0102
0000
2003
0000
3020
0000
1030
0001
,
0010
0100
1000
0000
0100
0000
0010
0001
,
1000
0000
0000
0001
0000
0000
1001
0000
0000
0000
0000
0000
0000
0000
0000
0000
,
0000
0000
0000
0000
,
1200
0000
0302
0000
0023
0000
1030
0010
,
0100
0001
0010
0000
0110
0000
1001
0100
,
0000
0000
0100
0010
0000
0000
0000
0000
,
0001
0010
1000
0100
,
0010
0000
0000
0010
0000
0000
0010
0000
0000
0000
0000
0000
0000
0000
0000
0000
,
1000
0100
0010
0001
1000
0000
0001
0100
,
0000
0100
0000
0000
0100
0000
0000
0000
0010
0000
0000
0000
0110
0000
0000
0000
,
1000
0000
0001
0000
0001
1000
1001
0000
;

//---------------dance-double - Chewi----------------
#NOTES:
     dance-double:
     Chewi:
     Hard:
     10:
     0.415,0.433,0.241,0.165,0.023:
00000000
00000000
00000000
00000000
,
00000000
00000000
00000000
00000000
,
00000000
00000000
00000000
00000000
,
00000000
00000000
00000000
00000000
,
11000000
00000000
00010000
00000000
10000000
00100000
00010000
00000000
,
01010000
00000000
10000000
00000000
10000000
01000000
00010000
00000000
,
00100000
00001000
00010000
00000100
00001000
00000001
00000100
00000000
,
00000200
00000301
00000002
00000013
,
00000010
00000100
00001000
00000001
00000100
00000010
00001010
00000000
,
00001000
00000100
00010000
00001000
00100000
00010000
01000000
00000000
,
00100000
01000000
00010000
10000000
01000000
00100000
00110000
00000000
,
10000000
01000000
00100000
00010000
01000000
00010000
00100000
00000000
,
00100000
00000000
00101000
00000000
00001000
00010000
00001000
00000000
,
00010000
00000000
00010100
00000000
00000100
00001000
00000001
00000000
,
00000100
00000110
00000010
00000110
,
00000010
00001000
00000010
00000000
00000010
00000001
00000010
00000000
,
00000010
00000010
00000020
00000030
00000001
00000010
00000100
00000000
,
00001000
00000100
00001000
00000100
00010000
00000100
00010000
00000000
,
00001000
00010000
00001000
00010000
01000000
01000000
10000000
00000000
,
00100000
00010000
00100000
10000000
00100000
00100000
01000000
01000000
,
01020000
00000000
00230000
00000000
02300000
00000000
13000000
01000000
,
00100000
00010000
01000000
00000000
00100000
00000000
01000000
00010000
,
00100000
00000000
00000000
00010000
00000000
00000000
00001000
00000000
00000000
00000000
00000000
00000000
00000000
00000000
00000000
00000000
,
00010000
00001000
00010000
00000000
00001000
00000000
00011000
00000000
,
00002010
00000000
00003002
00000000
00000023
00000000
00000031
00000010
,
00000001
00000100
00000010
00000000
00001010
00000000
00000100
00000100
,
00000000
00000000
00000100
00010000
00000000
00000000
00000000
00000000
,
00001000
00010000
00001000
00000000
00001000
00010000
01000000
00000000
,
21000000
00000000
30200000
00000000
02300000
00000000
03010000
01000000
,
00100000
10000000
00010000
00000000
00100000
00000000
01000000
00100000
,
00100000
00000000
00000000
00100000
00000000
00000000
01100000
00000000
00000000
00000000
00000000
00000000
00000000
00000000
00000000
00000000
,
00010000
00000000
00000000
00001000
00000000
00000000
00010000
00000000
00000000
00000000
00000000
00000000
00000000
00000000
00000000
00000000
,
00210000
00000000
00302000
00000000
00023000
00000000
00031000
00000010
,
00000001
00000100
00001000
00000000
00001000
00000000
00001000
00000010
,
00000000
00000000
00001000
00000001
00000000
00000000
00000010
00000010
,
00000000
00000010
00001000
00000100
,
00000001
00000000
00000010
00000000
00001000
00000100
00001000
00000000
,
00000100
00000000
00010000
00000000
00001000
00010000
00001000
00000000
,
00100000
00000000
10000000
00000000
01000000
00010000
01000000
00000000
,
10100000
00110000
11000000
01010000
,
10000000
00000000
01000000
00000000
00100000
00010000
01000000
00000000
,
00010000
00000000
00100000
00000000
00001000
00010000
00001000
00000000
,
00001000
00000000
00000010
00000000
00000001
00000100
00001000
00000000
,
00000011
00001010
00000011
00001010
,
00000100
00000000
00000001
00000000
00001000
00000001
00000100
00000000
,
00000001
00000000
00000100
00000000
00001000
00010000
00000100
00000000
,
00010000
00000000
01000000
00000000
10000000
01000000
00100000
00000000
,
00010000
00000000
10000000
00000000
01000000
00100000
00010000
00000000
,
00001000
00000000
00010000
00000000
00010000
00001000
00010000
00000000
,
00001000
00000000
00000010
00000000
00001000
00000010
00001000
00000000
,
00000001
00000000
00001000
00000000
00000100
00010000
00001000
00000000
,
00010000
00001000
00001010
00000011
,
00000010
00000010
00000020
00000030
00000001
00000010
00000100
00000000
,
00001000
00000100
00001000
00000100
00010000
00000100
00010000
00000000
,
00001000
00010000
00001000
00010000
01000000
01000000
10000000
00000000
,
00100000
00010000
00100000
10000000
00100000
00100000
01000000
01000000
,
01020000
00000000
00230000
00000000
02300000
00000000
13000000
01000000
,
00100000
00010000
01000000
00000000
00100000
00000000
01000000
00010000
,
00100000
00000000
00000000
00010000
00000000
00000000
00001000
00000000
00000000
00000000
00000000
00000000
00000000
00000000
00000000
00000000
,
00010000
00001000
00010000
00000000
00001000
00000000
00011000
00000000
,
00002010
00000000
00003002
00000000
00000023
00000000
00000031
00000010
,
00000001
00000100
00000010
00000000
00001010
00000000
00000100
00000100
,
00000000
00000000
00000100
00010000
00000000
00000000
00000000
00000000
,
00001000
00010000
00001000
00000000
00001000
00010000
01000000
00000000
,
01000000
00000000
00000000
01000000
00000000
00000000
01000000
00000000
00000000
00000000
00000000
00000000
00000000
00000000
00000000
00000000
,
10000000
01000000
00100000
00010000
00001000
00000100
00000010
00000001
,
00000000
00000001
00000000
00000000
00000001
00000000
00000000
00000000
00000000
00000000
00000000
00000000
00000110
00000000
00000000
00000000
,
00000010
00000000
00001100
00000000
00001000
00000100
00011000
00000000
;

//---------------dance-double - Chewi----------------
#NOTES:
     dance-double:
     Chewi:
     Medium:
     8:
     0.352,0.408,0.263,0.196,0.019:
00000000
00000000
00000000
00000000
,
00000000
00000000
00000000
00000000
,
00000000
00000000
00000000
00000000
,
00000000
00000000
00000000
00000000
,
10000000
00100000
00010000
00100000
,
10000000
01000000
00010000
01000000
,
00010000
01000000
00010000
00000000
00100000
00010000
00100000
00000000
,
00001000
00010000
00001000
00000010
,
00000001
00000100
00001000
00000100
,
00000001
00000010
00001000
00000010
,
00001000
00000100
00010000
00001000
,
00010000
00001000
00010000
00000000
00010000
01000000
00010000
00000000
,
11000000
00100000
01010000
00100000
,
10000000
00010000
10000000
00000000
00010000
10000000
00010000
00000000
,
10000000
01000000
00100000
00010000
,
00001000
00000100
00000010
00000001
,
00001000
00000001
00001000
00000000
00000000
00000000
00000000
00000000
,
00000110
00001010
00000101
00000011
,
00000100
00001000
00000100
00000000
00010000
00000100
00010000
00000000
,
00011000
01010000
00110000
01100000
,
21000000
32000000
23000000
30100000
,
01000000
00010000
00100000
00001000
,
00011000
00000000
00000000
00010000
00000000
00000000
00001000
00000000
00000000
00000000
00000000
00000000
00000000
00000000
00000000
00000000
,
00001000
00001000
00000010
00000010
,
00000102
00000203
00000302
00000103
,
00000010
00000000
00001000
00000000
00000001
00000000
00000010
00000100
,
00000000
00000000
00000100
00000010
00000000
00000000
00000000
00000000
,
00000011
00001100
00000100
00001000
,
00020100
00032000
00023000
01030000
,
10000000
00100000
00010000
00100000
,
01000000
00000000
00000000
01000000
00000000
00000000
01000000
00000000
00000000
00000000
00000000
00000000
00000000
00000000
00000000
00000000
,
10000000
00000000
00000000
10000000
00000000
00000000
10000000
00000000
00000000
00000000
00000000
00000000
00000000
00000000
00000000
00000000
,
12000000
03020000
02030000
13000000
,
00100000
00000000
01000000
00000000
00010000
00000000
00100000
00001000
,
00000000
00000000
00001000
00010000
00000000
00000000
00010000
00001000
,
00000000
00000000
00001000
00000010
00000000
00000000
00000000
00000000
,
00002010
00003002
00000203
00000320
,
00001030
00000001
00001000
00000000
00000001
00001000
00000001
00000000
,
00000010
00000100
00010000
00001000
,
00010000
01000000
10000000
00100000
,
00210000
00320000
00230000
00320000
,
00130000
01000000
10000000
00100000
,
01000000
00010000
00100000
00000000
00001000
00010000
00001000
00000000
,
00001010
00000001
00000100
00001000
,
00000001
00000000
00000100
00000000
00000010
00000100
00000010
00000000
,
00001000
00000000
00000100
00000000
00010000
00001000
00010000
00000000
,
00001000
00000000
01000000
00000000
00010000
00100000
00010000
00000000
,
01000000
00000000
00100000
00000000
10000000
00010000
10000000
00000000
,
01000000
00100000
00010000
01010000
,
00100000
00001000
00010000
00011000
,
00001000
00000010
00000100
00000110
,
00000100
00000001
00000010
00000011
,
00000001
00001000
00000001
00000000
00001000
00000000
00000100
00000000
,
00010000
00001000
00010000
00000000
00001000
00000000
00011000
00000000
,
00010000
01000000
10000000
00000000
01000000
00000000
01100000
00000000
,
00110000
10100000
00110000
10100000
,
00120000
00230000
00320000
00130000
,
00100000
00001000
00010000
00000100
,
00000010
00000000
00000000
00000010
00000000
00000000
00000010
00000000
00000000
00000000
00000000
00000000
00000000
00000000
00000000
00000000
,
00000110
00000000
00000000
00000000
,
00002001
00003002
00002003
00003010
,
00001000
00000000
00000100
00000000
00010000
00000000
00001000
00010000
,
00000000
00000000
00010000
00001000
00000000
00000000
00010000
01000000
,
00000000
10000000
00100000
00000000
00000000
00000000
00000000
00000000
,
10000000
00000000
00000000
01000000
00000000
00000000
10000000
00000000
00100000
00000000
00000000
00000000
00010000
00000000
00000000
00000000
,
01000000
00010000
00100000
00000000
00001000
00000000
00010000
00000000
,
00011000
00001000
00001010
00000100
,
00000001
00000100
00000010
00000000
00001000
00000000
00000100
00000000
;
