#TITLE:532nm;
#SUBTITLE:;
#ARTIST:Ryu☆;
#TITLETRANSLIT:;
#SUBTITLETRANSLIT:;
#ARTISTTRANSLIT:Ryu;
#CREDIT:Chewi☆ & TaroNuke;
#BANNER:532nm.png;
#BACKGROUND:532nm-bg.png;
#LYRICSPATH:;
#CDTITLE:;
#MUSIC:532nm.mp3;
#OFFSET:-1.548;
#SAMPLESTART:12.356;
#SAMPLELENGTH:15.000;
#SELECTABLE:YES;
#BPMS:0.000=177.000;
#STOPS:;
#BGCHANGES:;

//---------------dance-single - Chewi----------------
#NOTES:
     dance-single:
     Chewi:
     Easy:
     6:
     0.272,0.345,0.051,0.122,0.000: // measure 1
0000
0000
0000
0000
,  // measure 2
0000
0000
0000
0000
,  // measure 3
0000
0000
0000
0000
,  // measure 4
0000
0000
0000
0000
,  // measure 5
2000
0000
0000
3000
,  // measure 6
0200
0000
0000
0300
,  // measure 7
0002
0000
0000
0003
,  // measure 8
0020
0000
0000
0030
,  // measure 9
1000
1000
1000
1000
,  // measure 10
0010
0010
0010
0010
,  // measure 11
0001
0001
0001
0001
,  // measure 12
0010
0010
0010
0010
,  // measure 13
0100
0100
0100
0100
,  // measure 14
0001
0001
0001
0001
,  // measure 15
1000
1000
1000
1000
,  // measure 16
0100
0100
0100
0100
,  // measure 17
0010
0100
0010
0100
,  // measure 18
1000
0001
1000
0001
,  // measure 19
0100
0010
0100
0010
,  // measure 20
1000
0010
1000
0010
,  // measure 21
2000
0000
0000
3000
,  // measure 22
0002
0000
0000
0003
,  // measure 23
0020
0000
0000
0030
,  // measure 24
0200
0000
0000
0300
,  // measure 25
0110
0000
0010
0000
,  // measure 26
0100
0010
0001
1000
,  // measure 27
0001
0000
1001
0000
,  // measure 28
1000
1001
0001
1001
,  // measure 29
2000
0000
0000
3000
,  // measure 30
0002
0000
0000
0003
,  // measure 31
0200
0000
0000
0300
,  // measure 32
0020
0000
0000
0030
,  // measure 33
0010
0000
0000
0000
,  // measure 34
0000
0000
0000
0000
,  // measure 35
0000
0000
0000
0000
,  // measure 36
0000
0000
0000
0000
,  // measure 37
0000
0000
0000
0000
,  // measure 38
0000
0000
0000
0000
,  // measure 39
0000
0000
0000
0000
,  // measure 40
0000
0000
0000
0000
,  // measure 41
0000
0000
0000
0000
,  // measure 42
0000
0000
0000
0000
,  // measure 43
0010
0010
0010
0010
,  // measure 44
1000
1000
1000
1000
,  // measure 45
0010
0010
0010
0010
,  // measure 46
0100
0100
0100
0100
,  // measure 47
0001
0001
0001
0001
,  // measure 48
1000
1000
1000
1000
,  // measure 49
0001
0001
0010
0010
,  // measure 50
0100
0100
1000
1000
,  // measure 51
1001
0000
0000
0000
,  // measure 52
0000
0000
0000
0000
,  // measure 53
1000
0010
1000
0010
,  // measure 54
0100
0001
0100
0001
,  // measure 55
1000
0100
1000
0100
,  // measure 56
0010
0001
0010
0001
,  // measure 57
0010
0100
0010
0100
,  // measure 58
1000
0001
1000
0001
,  // measure 59
0100
0010
0100
0010
,  // measure 60
0100
0001
0100
0001
,  // measure 61
0100
0100
0010
0010
,  // measure 62
1000
0100
0010
0001
,  // measure 63
1000
0100
1000
0100
,  // measure 64
0001
0010
0001
0010
,  // measure 65
0001
0010
0100
1000
,  // measure 66
0001
0010
0100
1000
,  // measure 67
0010
1000
0100
1000
,  // measure 68
0010
1000
0100
1000
,  // measure 69
0010
0000
0000
0000
;

//---------------dance-single - TaroNuke----------------
#NOTES:
     dance-single:
     TaroNuke:
     Hard:
     13:
     0.682,0.874,0.588,0.497,0.365:
0000
0000
0000
0000
,
0000
0000
0000
0000
,
0000
0000
0000
0000
,
0000
0000
0000
0000
,
0001
0000
0000
0100
0000
0000
1000
0000
0000
0100
0000
0000
0001
0000
1000
0000
,
0001
0000
0000
0010
0000
0000
1000
0000
0000
0010
0000
0000
0001
0000
0100
0000
,
0010
0000
0000
1000
0000
0000
0001
0000
0000
0100
0000
0000
0010
0000
1000
0000
,
0100
0000
0000
0010
0000
0000
0001
0000
0000
1000
0000
0000
0110
0000
0000
0000
,
0001
0000
0000
0001
0100
0000
0000
0100
0010
0000
0000
0010
1000
0000
0000
1000
,
0100
0000
0000
0100
1000
0000
0000
1000
0001
0000
0100
0000
0010
0000
0100
0000
,
0001
0000
0000
0001
0010
0000
0000
0010
0100
0000
0000
0100
1000
0000
0000
1000
,
0010
0000
0000
0010
0100
0000
0000
0100
0001
0000
0010
0000
1000
0000
0010
0000
,
0100
0000
0000
0100
1000
0000
0000
1000
0010
0000
0000
0010
0001
0000
0000
0001
,
0010
0000
0000
0010
0100
0000
0000
0100
0001
0000
1000
0000
0010
0000
0100
0000
,
0001
0010
0100
0010
0001
0010
0100
0010
,
0001
0100
1000
0100
0001
0100
0110
0000
,
1000
0000
1000
0010
0000
0010
1000
0000
1000
0001
0000
0001
0100
0000
0010
0000
,
1000
0000
1000
0010
0000
0010
0100
0000
0100
0001
0000
0001
0010
0000
0100
0000
,
1000
0000
1000
0100
0000
0100
0010
0000
0010
0001
0000
0001
1000
0000
0010
0000
,
1000
0000
1000
0001
0000
0001
0010
0000
0010
0100
0000
0100
1000
0000
0001
0000
,
0101
0000
0000
0110
0000
0000
1010
0000
0000
0110
0000
0000
0001
0000
1000
0000
,
1100
0000
0000
0110
0000
0000
0011
0000
0000
0110
0000
0000
1000
0000
0001
0000
,
1001
0000
0000
0101
0000
0000
1010
0000
0000
0101
0000
0000
1000
0000
0010
0000
,
0100
0001
1000
0010
0100
0001
1001
0000
,
2000
3000
0001
0020
0030
0011
0000
1000
,
0200
1300
0200
0310
0200
1300
1100
0000
,
0001
0000
1000
0200
0300
1100
0000
0001
,
0200
0310
0110
0000
0020
0130
0110
0000
,
2000
0000
0000
3200
0000
0000
0302
0000
0000
2003
0000
0000
3020
0000
0032
0000
,
0203
0000
0000
2300
0000
0000
3002
0000
0000
0023
0000
0000
2030
0000
3200
0000
,
1300
0000
1000
0010
0000
0010
0100
0000
0001
0010
0000
0010
0100
0000
0000
0000
,
2000
3010
0200
0310
0002
0013
0200
0310
,
1000
0000
0000
0000
,
0000
0000
0000
0000
,
2000
0000
3020
0000
,
0230
0302
0023
0032
,
2003
0000
3020
0230
,
0302
0023
0230
0320
,
0032
0000
2003
0000
,
3020
0230
0302
2003
,
3200
0000
0320
0000
,
0032
0000
0000
0000
,
1003
0000
0000
0000
0000
0000
0000
0000
0000
0000
0000
0000
0001
0100
0001
0100
,
0001
0000
0000
0000
0000
0000
0000
0000
0000
0000
0000
0000
1000
0100
1000
0100
,
1000
0000
0000
0000
0000
0000
0000
0000
0000
0000
0000
0000
0010
0100
0010
0100
,
0010
0000
0000
0000
0000
0000
0000
0000
0000
0000
0000
0000
0100
0001
0100
0001
,
0100
0000
0000
0010
0000
0000
1000
0000
1001
0000
0000
0001
0000
0000
0010
0000
,
0011
0000
0000
0001
0000
0000
0100
0000
0110
0000
0000
0010
0000
0000
1000
0000
,
1100
0101
0011
1010
,
1100
0110
0011
1001
,
0020
0000
0000
0000
,
0000
0000
0000
0000
,
1030
1010
0000
0101
0000
0001
0010
0100
,
1000
0100
0001
0100
0010
0001
0100
0010
,
1010
0000
0001
0100
0000
0100
0001
1000
,
0100
0010
0001
1000
0010
0100
0010
1000
,
0001
0011
0000
1100
0000
1000
0010
0100
,
0001
0010
1000
0010
0100
1000
0001
0100
,
0101
0000
1000
0010
0000
0010
1000
0000
,
0001
0000
1000
0100
0000
0010
0000
0001
,
1000
0000
0010
0110
0000
0101
0000
1100
,
0000
0110
0000
0011
0000
0001
1000
0000
,
0001
0100
0010
0100
0001
1000
0100
0001
,
0100
0010
1000
0001
0100
1000
0010
0100
,
0101
0000
0000
1100
0000
0000
0101
0000
0000
1100
0000
0000
1001
0000
0000
0000
,
0011
0000
0000
1010
0000
0000
0011
0000
0000
1010
0000
0000
1001
0000
0000
0000
,
0101
0000
1100
0000
0101
0000
1000
0001
,
0000
1010
0000
0101
0000
1010
0000
2000
,
0002
3000
0000
0000
,
0003
0000
0000
0000
;

//---------------dance-single - TaroNuke----------------
#NOTES:
     dance-single:
     TaroNuke:
     Medium:
     10:
     0.468,0.530,0.233,0.223,0.193:
0000
0000
0000
0000
,
0000
0000
0000
0000
,
0000
0000
0000
0000
,
0000
0000
0000
0000
,
1000
0000
0000
1000
0000
0000
1000
0000
0000
1000
0000
0000
2000
0000
0000
0000
,
3100
0000
0000
0100
0000
0000
0100
0000
0000
0100
0000
0000
0200
0000
0000
0000
,
1300
0000
0000
1000
0000
0000
1000
0000
0000
1000
0000
0000
2000
0000
0000
0000
,
3001
0000
0000
0001
0000
0000
0001
0000
0000
0001
0000
0000
0002
0000
0000
0000
,
0103
0101
0001
0101
,
0001
1000
0100
0000
1000
0001
0100
0000
,
1000
1100
0001
0011
,
0010
0100
1000
0000
0010
0100
0001
0000
,
0100
0110
0010
1010
,
1000
0010
0100
0000
0001
0100
0010
0000
,
1000
1000
1000
0000
0001
0001
0001
0000
,
1000
0100
0010
0001
1000
0100
0010
0001
,
1000
1100
0001
0101
,
1000
0010
1000
0000
0010
1000
0010
0000
,
1000
1010
0001
0011
,
0001
0010
0001
0000
0010
0001
0010
0000
,
0010
0000
0000
0010
0000
0000
0010
0000
0000
0010
0000
0000
0020
0000
0000
0000
,
0130
0000
0000
0100
0000
0000
0100
0000
0000
0100
0000
0000
0200
0000
0000
0000
,
0310
0000
0000
0010
0000
0000
0010
0000
0000
0010
0000
0000
0020
0000
0000
0000
,
0031
0000
0000
0001
0000
0000
0001
0000
0000
0001
0000
0000
0002
0000
0000
0000
,
1003
0000
1000
0001
0000
1000
0000
0010
,
0000
0100
0000
0010
0000
1000
1010
0000
,
1000
0000
0001
1000
0000
0001
0000
0010
,
0000
0100
0000
0010
0000
0001
0011
0000
,
0001
0000
0000
0001
0000
0000
0001
0000
0000
0001
0000
0000
0002
0000
0000
0000
,
1003
0000
0000
1000
0000
0000
1000
0000
0000
1000
0000
0000
2000
0000
0000
0000
,
3100
0000
0000
0100
0000
0000
0100
0000
0000
0100
0000
0000
0200
0000
0000
0000
,
0300
0011
0000
0001
0000
1001
0000
1000
,
2002
0000
0000
0000
,
0000
0000
0000
0000
,
3003
0000
0000
0000
,
0000
0000
0000
0000
,
0000
0000
0000
0000
,
0000
0000
0000
0000
,
0000
0000
0000
0000
,
0000
0000
0000
0000
,
0000
0000
0000
0000
,
0000
0000
0000
0000
,
1000
0000
0000
1000
0000
0000
1000
0000
0000
1000
0000
0000
2000
0000
0000
0000
,
3100
0000
0000
0100
0000
0000
0100
0000
0000
0100
0000
0000
0200
0000
0000
0000
,
0310
0000
0000
0010
0000
0000
0010
0000
0000
0010
0000
0000
0020
0000
0000
0000
,
0031
0000
0000
0001
0000
0000
0001
0000
0000
0001
0000
0000
0002
0000
0000
0000
,
0013
0000
0000
0010
0000
0000
0010
0000
0100
0000
0000
0100
0000
0000
0100
0000
,
1000
0000
0000
1000
0000
0000
1000
0000
0001
0000
0000
0001
0000
0000
0001
0000
,
1000
1000
1000
0000
0010
0010
0010
0000
,
1000
0010
0100
0001
1000
0010
0100
0001
,
2000
0000
0000
0000
,
0002
0000
0000
3003
,
1000
0100
1000
0000
0100
0000
1100
0000
,
0001
0100
0001
0000
0100
0000
0101
0000
,
0100
0010
0100
0000
0010
0100
0010
0000
,
0100
0010
0100
0000
0010
0100
0010
0000
,
1000
0010
0100
0000
0001
0000
0101
0000
,
0001
0010
0100
0000
1000
0000
1100
0000
,
1000
0001
0100
0000
0001
1000
0100
0000
,
1000
0001
0100
0000
0001
1000
0100
0000
,
1000
0010
0100
0001
1000
0000
1001
0000
,
0001
0010
0100
1000
0001
0000
1001
0000
,
1000
0100
1000
0000
0001
0010
0001
0000
,
0001
0010
0100
1000
,
0001
0000
0000
0001
0000
0000
0001
0000
0000
0001
0000
0000
0002
0000
0000
0000
,
1003
0000
0000
1000
0000
0000
1000
0000
0000
1000
0000
0000
2000
0000
0000
0000
,
3100
0100
0100
0000
0010
0010
0010
0001
,
0000
0011
0000
1000
0000
1010
0000
0001
,
2000
0000
0000
0000
,
0000
0000
0000
3000
;

//---------------dance-single - Chewi----------------
#NOTES:
     dance-single:
     Chewi:
     Beginner:
     3:
     0.142,0.207,0.030,0.000,0.000: // measure 1
0000
0000
0000
0000
,  // measure 2
0000
0000
0000
0000
,  // measure 3
0000
0000
0000
0000
,  // measure 4
0000
0000
0000
0000
,  // measure 5
1000
0000
0000
0000
,  // measure 6
0100
0000
0000
0000
,  // measure 7
0001
0000
0000
0000
,  // measure 8
0010
0000
0000
0000
,  // measure 9
1000
0000
1000
0000
,  // measure 10
0010
0000
0010
0000
,  // measure 11
0001
0000
0001
0000
,  // measure 12
0010
0000
0010
0000
,  // measure 13
0100
0000
0100
0000
,  // measure 14
0001
0000
0001
0000
,  // measure 15
1000
0000
1000
0000
,  // measure 16
0100
0000
0100
0000
,  // measure 17
0010
0000
0010
0000
,  // measure 18
1000
0000
1000
0000
,  // measure 19
0100
0000
0100
0000
,  // measure 20
1000
0000
1000
0000
,  // measure 21
1000
0000
0000
0000
,  // measure 22
0001
0000
0000
0000
,  // measure 23
0010
0000
0000
0000
,  // measure 24
0100
0000
0000
0000
,  // measure 25
0110
0000
0010
0000
,  // measure 26
0100
0000
0001
0000
,  // measure 27
0001
0000
1001
0000
,  // measure 28
1000
0000
0001
0000
,  // measure 29
1000
0000
0000
0000
,  // measure 30
0001
0000
0000
0000
,  // measure 31
0100
0000
0000
0000
,  // measure 32
0010
0000
0000
0000
,  // measure 33
0010
0000
0000
0000
,  // measure 34
0000
0000
0000
0000
,  // measure 35
0000
0000
0000
0000
,  // measure 36
0000
0000
0000
0000
,  // measure 37
0000
0000
0000
0000
,  // measure 38
0000
0000
0000
0000
,  // measure 39
0000
0000
0000
0000
,  // measure 40
0000
0000
0000
0000
,  // measure 41
0000
0000
0000
0000
,  // measure 42
0000
0000
0000
0000
,  // measure 43
0010
0000
0010
0000
,  // measure 44
1000
0000
1000
0000
,  // measure 45
0010
0000
0010
0000
,  // measure 46
0100
0000
0100
0000
,  // measure 47
0001
0000
0001
0000
,  // measure 48
1000
0000
1000
0000
,  // measure 49
0001
0000
0010
0000
,  // measure 50
0100
0000
1000
0000
,  // measure 51
1001
0000
0000
0000
,  // measure 52
0000
0000
0000
0000
,  // measure 53
1000
0000
1000
0000
,  // measure 54
0100
0000
0100
0000
,  // measure 55
1000
0000
1000
0000
,  // measure 56
0010
0000
0010
0000
,  // measure 57
0010
0000
0010
0000
,  // measure 58
1000
0000
1000
0000
,  // measure 59
0100
0000
0100
0000
,  // measure 60
0100
0000
0100
0000
,  // measure 61
0100
0000
0010
0000
,  // measure 62
1000
0000
0010
0000
,  // measure 63
1000
0000
1000
0000
,  // measure 64
0001
0000
0001
0000
,  // measure 65
0001
0000
0100
0000
,  // measure 66
0001
0000
0100
0000
,  // measure 67
0010
0000
0100
0000
,  // measure 68
0010
0000
0100
0000
,  // measure 69
0010
0000
0000
0000
;
