#TITLE:4 Walls;
#SUBTITLE:;
#ARTIST:f(x);
#TITLETRANSLIT:;
#SUBTITLETRANSLIT:;
#ARTISTTRANSLIT:;
#GENRE:Pop;
#CREDIT:chewi;
#BANNER:4 Walls.png;
#BACKGROUND:4 Walls-bg.png;
#LYRICSPATH:;
#CDTITLE:cdtitle.png;
#MUSIC:4 Walls.ogg;
#OFFSET:-2.160000;
#SAMPLESTART:31.354008;
#SAMPLELENGTH:15.000000;
#SELECTABLE:YES;
#DISPLAYBPM:126.000000;
#BPMS:0.000000=126.000000
;
#STOPS:
;
#BGCHANGES:;
#KEYSOUNDS:;
#ATTACKS:;

//---------------dance-single - ----------------
#NOTES:
     dance-single:
     :
     Beginner:
     3:
     0.111388,0.150783,0.015289,0.061154,0.000000,102.000000,100.000000,2.000000,8.000000,0.000000,0.000000,0.111388,0.150783,0.015289,0.061154,0.000000,102.000000,100.000000,2.000000,8.000000,0.000000,0.000000:
// measure 0
0000
0000
0000
0000
,  // measure 1
0000
0000
0000
0000
,  // measure 2
0000
0000
0000
0000
,  // measure 3
0000
0000
0000
0000
,  // measure 4
0000
1000
0000
1000
,  // measure 5
0000
1000
0000
0000
,  // measure 6
0000
0001
0000
0001
,  // measure 7
0000
0001
0000
0000
,  // measure 8
0020
0000
0000
0030
,  // measure 9
0010
0000
0000
0000
,  // measure 10
0200
0000
0000
0300
,  // measure 11
0100
0000
0000
0000
,  // measure 12
2000
0000
0000
3000
,  // measure 13
1000
0000
0000
0000
,  // measure 14
0002
0000
0000
0003
,  // measure 15
0001
0000
0000
0000
,  // measure 16
0001
0000
0001
0000
,  // measure 17
0001
0000
0001
0000
,  // measure 18
1000
0000
1000
0000
,  // measure 19
1000
0000
1000
0000
,  // measure 20
0010
0000
0010
0000
,  // measure 21
0010
0000
0010
0000
,  // measure 22
0100
0000
0100
0000
,  // measure 23
0100
0000
0100
0000
,  // measure 24
0000
1000
0000
1000
,  // measure 25
0000
1000
0000
0000
,  // measure 26
0000
0001
0000
0001
,  // measure 27
0000
0001
0000
0000
,  // measure 28
0000
0010
0000
0010
,  // measure 29
0000
0010
0000
0000
,  // measure 30
0000
0100
0000
0100
,  // measure 31
0000
0100
0000
0000
,  // measure 32
2000
0000
0000
3000
,  // measure 33
1000
1000
1000
0000
,  // measure 34
0002
0000
0000
0003
,  // measure 35
0001
0001
0001
0000
,  // measure 36
0200
0000
0000
0300
,  // measure 37
0100
0100
0100
0000
,  // measure 38
0020
0000
0000
0030
,  // measure 39
0010
0010
0010
0000
,  // measure 40
0000
0010
0000
0010
,  // measure 41
0000
0010
0000
0000
,  // measure 42
0000
1000
0000
1000
,  // measure 43
0000
1000
0000
0000
,  // measure 44
0000
0100
0000
0100
,  // measure 45
0000
0100
0000
0000
,  // measure 46
0000
0001
0000
0001
,  // measure 47
0000
0001
0000
0000
,  // measure 48
0000
0010
0010
0010
,  // measure 49
0010
0000
0000
0000
,  // measure 50
0010
0000
0000
0000
,  // measure 51
0010
0000
0010
0000
,  // measure 52
0100
0000
0000
0000
,  // measure 53
0100
0000
0100
0000
,  // measure 54
1000
0000
0000
0000
,  // measure 55
1000
0000
1000
0000
,  // measure 56
0001
0000
0000
0000
,  // measure 57
0001
0000
0001
0000
,  // measure 58
0000
1001
0000
0000
,  // measure 59
0000
0000
1000
1000
,  // measure 60
0000
0000
0001
0000
,  // measure 61
1000
0000
0001
0000
,  // measure 62
0000
0110
0000
0000
,  // measure 63
0100
0000
0100
0100
,  // measure 64
0000
0100
0000
0010
,  // measure 65
0000
1000
0000
0001
;

//---------------dance-single - ----------------
#NOTES:
     dance-single:
     :
     Hard:
     10:
     0.382213,0.402088,0.099375,0.122308,0.022933,350.000000,337.000000,13.000000,16.000000,0.000000,0.000000,0.382213,0.402088,0.099375,0.122308,0.022933,350.000000,337.000000,13.000000,16.000000,0.000000,0.000000:
// measure 0
0000
0000
0000
0000
,  // measure 1
0000
0000
0000
0000
,  // measure 2
0000
0000
0000
0000
,  // measure 3
0000
0000
0000
0000
,  // measure 4
0000
1000
0000
0100
0000
0010
0100
1000
,  // measure 5
0000
0010
0000
0100
0000
0001
0100
0010
,  // measure 6
0000
1000
0000
0001
0000
1000
0100
0010
,  // measure 7
0000
0000
0010
0000
0001
0000
0000
0010
0000
0010
0000
0000
0001
0000
0000
0000
,  // measure 8
1000
0100
1000
0000
0100
0010
0100
0000
,  // measure 9
0010
0001
0010
0000
0011
0000
0101
0000
,  // measure 10
0001
0100
0001
0000
0100
0010
0100
0000
,  // measure 11
0010
1000
0010
0000
1000
0001
1000
0001
,  // measure 12
0010
0100
1000
0000
0010
0100
0001
0000
,  // measure 13
0100
0001
0100
0000
0010
0100
0010
0100
,  // measure 14
0001
0010
1000
0000
0001
0100
1000
0000
,  // measure 15
1001
0000
0000
0000
,  // measure 16
1000
0100
0020
0000
0130
1000
0020
0000
,  // measure 17
0130
0001
0100
0000
0001
0100
0001
0000
,  // measure 18
0100
0010
2000
0000
3010
0100
0002
0000
,  // measure 19
1003
0100
0010
0100
1000
0001
0010
0100
,  // measure 20
0010
0001
0020
0000
0031
0010
0002
0000
,  // measure 21
0013
0100
1000
0010
1000
0100
1000
0010
,  // measure 22
1000
0010
2000
0000
3010
1000
0020
0000
,  // measure 23
1030
0010
0100
0001
1000
0010
0100
0001
,  // measure 24
0000
1000
1100
0001
,  // measure 25
0101
0000
1000
0000
1100
0010
0001
0000
,  // measure 26
0001
0011
1000
1010
,  // measure 27
0010
0000
0100
0000
0001
0000
0000
0100
0000
0100
0000
0000
0001
0000
0000
0000
,  // measure 28
0001
0100
0010
0010
0100
0001
0010
0010
,  // measure 29
0001
0100
0010
0010
0100
0001
0100
0000
,  // measure 30
1000
0100
0010
0010
0100
1000
0010
0010
,  // measure 31
1000
0100
0010
0000
0000
0000
0000
0000
,  // measure 32
0001
0000
0101
0000
,  // measure 33
0100
0000
0010
1000
0100
0000
0000
0000
,  // measure 34
1000
0000
1100
0000
,  // measure 35
0100
0000
0010
0001
0100
0000
0000
0000
,  // measure 36
0010
0000
0110
0000
,  // measure 37
0010
0100
0001
0000
1000
0000
0000
0000
,  // measure 38
1000
0001
0100
0000
,  // measure 39
0001
0000
0000
0000
1000
0000
0000
0100
0000
0100
0000
0000
0010
0000
0000
0000
,  // measure 40
0001
0001
0100
0000
0001
0100
0001
0000
,  // measure 41
0100
0100
0010
0000
1000
0010
1000
0000
,  // measure 42
1000
0100
0010
0001
1000
0000
1000
0000
,  // measure 43
0001
0010
0100
1000
0001
0000
0001
0000
,  // measure 44
0100
0100
0100
0000
0010
0000
1010
0000
,  // measure 45
1000
0100
0010
0001
1000
0000
0001
0000
,  // measure 46
0001
0001
0001
0000
0010
0000
0011
0000
,  // measure 47
0001
0010
0100
1000
0001
1000
0001
0000
,  // measure 48
1000
1000
0010
0010
0100
0100
0001
0001
,  // measure 49
0100
0000
0000
0000
,  // measure 50
0001
0010
0200
0000
0310
0001
0200
0000
,  // measure 51
0310
1000
0010
0000
1000
0010
1000
0000
,  // measure 52
0010
0100
0002
0000
0103
0010
2000
0000
,  // measure 53
3001
0010
0100
0010
0001
1000
0100
0010
,  // measure 54
0100
1000
0200
0000
1300
0100
2000
0000
,  // measure 55
3100
0010
0001
0100
0001
0010
0001
0100
,  // measure 56
0001
0100
0002
0000
0103
0001
0200
0000
,  // measure 57
0301
0100
0010
1000
0001
0100
0010
1000
,  // measure 58
0000
0000
1000
0100
0001
0000
0001
0100
,  // measure 59
1000
0000
0010
0000
0100
0001
0100
0000
,  // measure 60
0001
0100
1000
0000
1000
0100
0001
0000
,  // measure 61
0010
1000
0100
0001
,  // measure 62
0010
0000
1000
0010
0001
0000
0001
0010
,  // measure 63
1000
0000
0010
0000
0100
0001
0100
0000
,  // measure 64
0010
1000
0100
0001
,  // measure 65
0010
0010
0100
0100
;

//---------------dance-single - ----------------
#NOTES:
     dance-single:
     :
     Easy:
     5:
     0.137597,0.227035,0.022933,0.122308,0.000000,126.000000,123.000000,3.000000,16.000000,0.000000,0.000000,0.137597,0.227035,0.022933,0.122308,0.000000,126.000000,123.000000,3.000000,16.000000,0.000000,0.000000:
// measure 0
0000
0000
0000
0000
,  // measure 1
0000
0000
0000
0000
,  // measure 2
0000
0000
0000
0000
,  // measure 3
0000
0000
0000
0000
,  // measure 4
2000
0000
0000
3000
,  // measure 5
0002
0000
0000
0003
,  // measure 6
0200
0000
0000
0300
,  // measure 7
0020
0000
0000
0030
,  // measure 8
0100
0100
0100
0000
,  // measure 9
0100
0010
1000
0000
,  // measure 10
1000
1000
1000
0000
,  // measure 11
0010
0100
0001
0000
,  // measure 12
0001
0001
0001
0000
,  // measure 13
0001
0010
0100
0000
,  // measure 14
1000
1000
1000
0000
,  // measure 15
1001
0000
0000
0000
,  // measure 16
1000
0000
0100
0000
,  // measure 17
0001
0000
0100
0000
,  // measure 18
1000
0000
0100
0000
,  // measure 19
0001
0000
0100
0000
,  // measure 20
1000
0000
0010
0000
,  // measure 21
0001
0000
0010
0000
,  // measure 22
1000
0000
0010
0000
,  // measure 23
0001
0000
0010
0000
,  // measure 24
0020
0000
0000
0030
,  // measure 25
0002
0000
0000
0003
,  // measure 26
0010
0001
0010
0000
,  // measure 27
0001
0010
0001
0000
,  // measure 28
0002
0000
0000
0003
,  // measure 29
0200
0000
0000
0300
,  // measure 30
0001
0100
0001
0000
,  // measure 31
0100
0001
0100
0000
,  // measure 32
0110
0000
0000
0000
,  // measure 33
0010
0000
0000
0000
,  // measure 34
1000
0000
0000
0000
,  // measure 35
1000
0000
0000
0000
,  // measure 36
1001
0000
0000
0000
,  // measure 37
0001
0000
0000
0000
,  // measure 38
1000
0000
0000
0000
,  // measure 39
1000
0000
0000
0000
,  // measure 40
0002
0000
0000
0003
,  // measure 41
0020
0000
0000
0030
,  // measure 42
0200
0000
0000
0300
,  // measure 43
2000
0000
0000
3000
,  // measure 44
2000
0000
0000
3000
,  // measure 45
0200
0000
0000
0300
,  // measure 46
0020
0000
0000
0030
,  // measure 47
0002
0000
0000
0003
,  // measure 48
1000
1000
0001
0001
,  // measure 49
1000
1000
0001
0001
,  // measure 50
1000
0000
0001
0000
,  // measure 51
1000
1000
0100
0000
,  // measure 52
1000
0000
0001
0000
,  // measure 53
0001
0001
0100
0000
,  // measure 54
0100
0000
0010
0000
,  // measure 55
1000
0001
1000
0000
,  // measure 56
0100
0000
0010
0000
,  // measure 57
0100
0010
0100
0000
,  // measure 58
0000
1000
0000
1000
,  // measure 59
0000
1000
1000
1000
,  // measure 60
0000
0001
0000
0001
,  // measure 61
0000
0001
0001
0001
,  // measure 62
0000
0100
0000
0100
,  // measure 63
0000
0100
0100
0100
,  // measure 64
0000
0010
0000
0010
,  // measure 65
0000
0010
0010
0010
,  // measure 66
0010
0000
0000
0000
;

//---------------dance-single - ----------------
#NOTES:
     dance-single:
     :
     Medium:
     7:
     0.265365,0.302713,0.084087,0.168174,0.000000,243.000000,232.000000,11.000000,22.000000,0.000000,0.000000,0.265365,0.302713,0.084087,0.168174,0.000000,243.000000,232.000000,11.000000,22.000000,0.000000,0.000000:
// measure 0
0000
0000
0000
0000
,  // measure 1
0000
0000
0000
0000
,  // measure 2
0000
0000
0000
0000
,  // measure 3
0000
0000
0000
0000
,  // measure 4
0000
1000
0000
0010
0000
1000
0000
1100
,  // measure 5
0000
0010
0000
0001
0000
0100
0000
0101
,  // measure 6
0000
0100
0000
0010
0000
1000
0000
1010
,  // measure 7
0000
0010
0000
0100
0000
0001
0000
0101
,  // measure 8
0001
0001
1000
1000
,  // measure 9
0100
0000
0100
0000
0010
0010
0010
0000
,  // measure 10
0100
0100
1000
1000
,  // measure 11
0001
0000
0001
0000
0010
0010
0010
0000
,  // measure 12
0001
0001
0100
0100
,  // measure 13
0010
0000
0010
0000
1000
1000
1000
0000
,  // measure 14
0010
0010
0100
0100
,  // measure 15
1001
0000
0000
0000
,  // measure 16
1000
0100
0001
0010
,  // measure 17
1000
0100
0001
0100
,  // measure 18
1000
0010
0001
0100
,  // measure 19
1000
0100
0001
0100
,  // measure 20
1000
0010
1000
0100
,  // measure 21
1000
0001
1000
0010
,  // measure 22
1000
0001
0010
0001
,  // measure 23
0100
0001
0010
0001
,  // measure 24
0002
0010
1000
0103
,  // measure 25
0001
1000
0001
1000
,  // measure 26
2000
0100
0001
3010
,  // measure 27
0010
0000
0100
0000
0010
0010
0010
0000
,  // measure 28
0100
0001
0010
0100
,  // measure 29
1000
0010
0100
0001
,  // measure 30
0100
0010
1000
0001
,  // measure 31
1000
0100
0010
0001
,  // measure 32
0020
0000
0031
0000
,  // measure 33
0010
0001
0011
0000
,  // measure 34
0002
0000
1003
0000
,  // measure 35
1000
0001
1001
0000
,  // measure 36
0200
0000
0310
0000
,  // measure 37
0100
0010
0110
0000
,  // measure 38
0020
0000
1030
0000
,  // measure 39
0010
1000
1010
0000
,  // measure 40
2000
0100
0000
0100
,  // measure 41
3200
0010
0000
0010
,  // measure 42
0320
0001
0000
0001
,  // measure 43
0032
1000
0000
1000
,  // measure 44
0103
0100
0010
0010
,  // measure 45
1000
1000
0001
0001
,  // measure 46
0010
0010
0100
0100
,  // measure 47
1000
1000
0001
0001
,  // measure 48
1000
0001
1000
0001
,  // measure 49
2002
0000
0000
3003
,  // measure 50
1000
0100
0001
0010
,  // measure 51
1000
0100
0001
0100
,  // measure 52
1000
0010
0001
0100
,  // measure 53
1000
0100
0001
0100
,  // measure 54
1000
0010
1000
0100
,  // measure 55
1000
0001
1000
0010
,  // measure 56
1000
0001
0010
0001
,  // measure 57
0100
0000
0001
0000
0010
0010
0010
0010
,  // measure 58
0000
0011
0010
0100
,  // measure 59
1000
0010
0100
0001
,  // measure 60
0200
0320
2030
3002
,  // measure 61
2003
0100
0001
3010
,  // measure 62
1000
0010
0100
0010
,  // measure 63
1000
0100
0010
0001
,  // measure 64
0002
0023
0230
2300
,  // measure 65
3002
1000
0100
1000
,  // measure 66
1003
0000
0000
0000
;

//---------------dance-single - ----------------
#NOTES:
     dance-single:
     :
     Challenge:
     13:
     0.599529,0.604279,0.473945,0.015289,0.412790,549.000000,487.000000,62.000000,2.000000,8.000000,0.000000,0.599529,0.604279,0.473945,0.015289,0.412790,549.000000,487.000000,62.000000,2.000000,8.000000,0.000000:
// measure 0
0000
0000
0000
0000
,  // measure 1
0000
0000
0000
0000
,  // measure 2
0000
0000
0000
0000
,  // measure 3
0000
0000
0000
0000
0000
0000
0000
0000
0000
0000
0000
0000
0001
1000
0000
0010
,  // measure 4
0000
0100
0000
0010
0000
1000
0000
0100
0000
0010
0000
0100
0000
1000
0000
0001
,  // measure 5
0000
0010
0000
0100
0000
0010
0000
0001
0000
0000
0000
0000
0010
0000
0000
0001
,  // measure 6
0000
0100
0000
0000
0010
0000
0000
1000
0000
0100
0000
0000
0000
0000
0000
0000
,  // measure 7
0010
0000
0000
0000
0100
0000
0000
1100
0000
1100
0000
0000
1001
0000
0000
0000
,  // measure 8
1000
0010
0100
0010
1000
0010
0100
0010
,  // measure 9
1000
0000
0100
0000
0010
0000
0001
0000
1000
0001
1000
0001
1000
0000
0001
0000
,  // measure 10
1000
0010
0100
0010
1000
0010
0100
0010
,  // measure 11
1000
0000
0100
0000
0010
0000
0100
0000
1000
0100
1000
0100
1000
0100
1000
0000
,  // measure 12
0001
0010
0100
0010
0001
0100
0010
0100
,  // measure 13
0001
0000
0010
0000
0100
0000
0010
0000
0001
0010
0001
0010
0001
0000
0010
0000
,  // measure 14
0100
1000
1010
0000
0100
0001
0011
0000
,  // measure 15
1001
0000
0000
0000
,  // measure 16
1000
0000
0010
0000
0100
0001
0100
0001
0100
0000
0010
0000
1000
0010
1000
0010
,  // measure 17
1000
0000
0010
0000
0000
0100
0000
0000
0001
0000
0100
0000
0001
0000
0010
0000
,  // measure 18
0001
0000
1000
0000
0001
0100
0001
0100
0001
0000
0100
0000
0010
0100
0010
0100
,  // measure 19
0010
0000
0100
0000
0000
0001
0000
1000
0001
0000
1001
0000
1001
0000
0010
0000
,  // measure 20
0001
0000
1000
0000
0100
1000
0100
1000
0100
0000
0010
0000
0001
0100
0001
0100
,  // measure 21
0001
0000
0010
0000
0000
0100
0000
0000
1000
0000
0001
0000
0100
0000
0010
0000
,  // measure 22
1000
0000
0001
0000
0100
0010
0100
0010
0100
0000
0001
0000
1000
0001
1000
0001
,  // measure 23
1000
0100
1000
0000
0100
1000
0100
1000
,  // measure 24
0010
0000
0000
0000
0100
0001
0100
0000
0010
0000
1000
0000
0100
1000
0100
0000
,  // measure 25
1000
0010
0100
0001
0011
0101
0011
0000
,  // measure 26
0001
0010
1100
0000
0010
1000
0100
0000
,  // measure 27
1000
0000
0010
0000
0101
0000
0000
1010
0000
1010
0000
0000
0110
0000
0010
0000
,  // measure 28
1000
0001
1001
0010
0100
0010
1001
0100
,  // measure 29
0010
0100
1001
0010
0100
1000
0010
1000
,  // measure 30
0100
0010
0100
0000
1000
0000
0010
0000
0100
0001
0100
0000
0010
0000
1000
0000
,  // measure 31
1002
0010
1000
0103
,  // measure 32
1000
0000
0010
0000
0100
0000
0001
0000
0101
0000
0000
0101
0000
0000
0101
0000
,  // measure 33
0000
0000
0010
0000
1000
0000
0001
0000
0011
0000
0000
0011
0000
0000
0011
0000
,  // measure 34
0000
0000
0001
0000
0010
0000
0100
0000
1001
0000
0000
1001
0000
0000
1001
0000
,  // measure 35
0000
0000
1000
0000
0001
0000
0100
0000
0110
0000
0000
0110
0000
0000
0110
0000
,  // measure 36
0000
0000
0100
0000
0010
0000
1000
0000
1010
0000
0000
0101
0000
0000
0011
0000
,  // measure 37
0000
0000
0001
0000
0010
0000
0100
0000
1100
0000
0000
0011
0000
0000
1001
0000
,  // measure 38
0000
0000
0000
0110
0000
0000
0000
0000
,  // measure 39
1000
0000
0000
0000
0001
0000
0000
0100
0000
0100
0000
0000
0010
0000
0000
0000
,  // measure 40
1010
0000
0000
1010
0000
0000
1010
0000
0000
1010
0000
0000
1100
0000
0000
0110
,  // measure 41
0000
0000
0011
0000
0000
0000
0000
0000
1000
0100
0010
0001
1000
0100
0010
0000
,  // measure 42
0011
0000
0000
0011
0000
0000
0011
0000
0000
0011
0000
0000
0110
0000
0000
1100
,  // measure 43
0000
0000
1001
0000
0000
0000
0000
0000
0100
0001
0000
0001
0000
0000
0000
0000
,  // measure 44
0100
0010
0100
0010
1000
0001
1000
0001
,  // measure 45
1000
0100
0010
0001
1000
0100
0010
0001
,  // measure 46
1000
1000
0001
1000
0001
0100
0001
0100
,  // measure 47
0001
0001
0100
0010
1000
0001
0010
0100
,  // measure 48
0010
0010
0010
0010
0010
0010
0010
0010
,  // measure 49
0020
0000
0000
0000
0000
0000
0030
MMMM
,  // measure 50
0001
0000
0100
0000
0010
1000
0010
1000
0010
0000
0100
0000
0001
0100
0001
0100
,  // measure 51
0001
0000
0100
0000
0000
0010
0000
0000
1000
0000
0010
0000
1000
0000
0100
0000
,  // measure 52
1000
0000
0001
0000
1000
0010
1000
0010
1000
0000
0010
0000
0100
0010
0100
0010
,  // measure 53
0100
0010
1000
0010
1000
0001
1000
0100
,  // measure 54
1000
0000
0001
0000
0010
0001
0010
0001
0010
0000
0100
0000
1000
0010
1000
0010
,  // measure 55
1000
0000
0100
0000
0000
0010
0000
0000
0001
0000
1000
0000
0010
0000
0100
0000
,  // measure 56
0001
0000
1000
0000
0010
0100
0010
0100
0010
0000
1000
0000
0001
1000
0001
1000
,  // measure 57
0001
0010
0001
0000
0010
0001
0010
0001
,  // measure 58
0100
0000
MMMM
0000
0001
0100
0001
0100
0001
0000
0010
0000
0100
1000
0100
1000
,  // measure 59
0100
1000
0100
0010
0011
1000
0101
0100
,  // measure 60
0010
0000
1000
0000
0100
0010
0100
0010
0100
0000
1000
0000
0001
1000
0001
1000
,  // measure 61
0001
1000
0010
0100
0101
0001
1001
1000
,  // measure 62
0100
0000
0010
0000
0100
1000
0100
1000
0100
0000
1000
0000
0001
0100
0001
0100
,  // measure 63
0001
0100
0010
1000
1010
1000
1100
0010
,  // measure 64
0001
0000
0010
0000
0100
0010
0100
0010
0100
0000
1000
0000
0010
0100
0010
0100
,  // measure 65
0010
0000
0100
0000
0001
0000
0000
0101
0000
0101
0000
0000
1001
0000
1000
0000
;
