#TITLE:3y3s;
#SUBTITLE:;
#ARTIST:青龍;
#TITLETRANSLIT:;
#SUBTITLETRANSLIT:;
#ARTISTTRANSLIT:SEIRYU;
#GENRE:;
#CREDIT:Chewi☆;
#MENUCOLOR:#00FF00;
#METERTYPE:DDR X;
#BANNER:3y3s.png;
#BACKGROUND:3y3s-bg.png;
#LYRICSPATH:;
#CDTITLE:;
#MUSIC:3y3s.mp3;
#OFFSET:-0.525;
#SAMPLESTART:67.121;
#SAMPLELENGTH:15.000;
#SELECTABLE:YES;
#LISTSORT:;
#DISPLAYBPM:191.000;
#BPMS:0.000=191.000;
#STOPS:;
#BGCHANGES:;
#ATTACKS:;

//---------------dance-single - Chewi----------------
#NOTES:
     dance-single:
     Chewi:
     Beginner:
     3:
     0.187,0.253,0.147,0.000,0.000:
0000
0000
0000
0000
,
0000
0000
0000
0000
,
0000
0000
0000
0000
,
0000
0000
0000
0000
,
1000
0000
1000
0000
,
0001
0000
0001
0000
,
0001
0000
0001
0000
,
1000
0000
1000
0000
,
0010
0000
0000
0000
,
0010
0000
0100
0000
,
0100
0000
0100
0000
,
0100
0000
0010
0000
,
0010
0000
0100
0000
,
0110
0000
0010
0000
,
1001
0000
0001
0000
,
1000
0000
0010
0000
,
1001
0000
0000
0000
,
0001
0000
0010
0000
,
0001
0000
0100
0000
,
0001
0000
0010
0000
,
0001
0000
0100
0000
,
1001
0000
1000
0000
,
0110
0000
0100
0000
,
0100
0000
0001
0000
,
1000
0000
0010
0000
,
1000
0000
0000
0000
,
0001
0000
0000
0000
,
0100
0000
0000
0000
,
0010
0000
0000
0000
,
0100
0000
0000
0000
,
0001
0000
0000
0000
,
0010
0000
1000
0000
,
1000
0000
0000
0000
,
0001
0000
0001
0000
,
0001
0000
0001
0000
,
1000
0000
1000
0000
,
1000
0000
1000
0000
,
0010
0000
0010
0000
,
0010
0000
0010
0000
,
0010
0000
0010
0000
,
0010
0000
0010
0000
,
1001
0000
0010
0000
,
1000
0000
1000
0000
,
0110
0000
1000
0000
,
0100
0000
0000
0000
,
1001
0000
0000
0000
,
0110
0000
0000
0000
,
0010
0000
0000
0000
,
0100
0000
0000
0000
,
0010
0000
0010
0000
,
0010
0000
0000
0000
,
0000
0000
0000
0000
,
0000
0001
0000
0000
0000
0000
0000
0000
,
0001
0000
0100
0000
,
0001
0000
0001
0000
,
1000
0000
0100
0000
,
0100
0000
0100
0000
,
0110
0000
0010
0000
,
1001
0000
1000
0000
,
1000
0000
0001
0000
,
1000
0000
0000
0000
,
0001
0000
0010
0000
,
0001
0000
0100
0000
,
0001
0000
0010
0000
,
0001
0000
0100
0000
,
0110
0000
0010
0000
,
1001
0000
0001
0000
,
0001
0000
1000
0000
,
0001
0000
0000
0000
,
0110
0000
0000
0000
;

//---------------dance-single - Chewi----------------
#NOTES:
     dance-single:
     Chewi:
     Easy:
     7:
     0.415,0.546,0.461,0.304,0.000:
0000
0000
0000
0000
,
0000
0000
0000
0000
,
0000
0000
0000
0000
,
0000
0000
0000
0000
,
1000
0100
1000
0100
,
0001
0100
0001
0100
,
0001
0010
0001
0010
,
1000
0010
1000
0010
,
0020
0000
0000
0000
,
0130
0010
0100
0001
,
0100
0010
0100
1000
,
0100
0001
0010
1000
,
0010
0001
0100
1000
,
0110
0110
0110
0110
,
1001
1001
1001
1001
,
1000
0100
0010
0001
,
2002
0000
0000
3003
,
0001
0100
0010
1000
,
0001
0010
0100
1000
,
0001
0100
0010
1000
,
0001
0010
0100
1000
,
1001
1001
1001
1001
,
0110
0110
0110
0110
,
0100
0010
0001
0100
,
1000
0100
0010
0001
,
2000
0000
0000
0000
,
3002
0000
0000
0000
,
0203
0000
0000
0000
,
0320
0000
0000
0000
,
0230
0000
0000
0000
,
0302
0000
0000
0000
,
0023
0230
2300
3002
,
2003
0000
0000
0000
,
3001
0010
0001
0100
,
0001
1000
0001
1000
,
1000
0010
1000
0100
,
1000
0001
1000
0001
,
0010
0100
0010
0001
,
0010
0100
0010
0100
,
0010
1000
0010
0100
,
0010
0100
0010
0100
,
0011
0011
0011
0011
,
1000
0100
1000
0100
,
1100
1100
1100
1100
,
0100
1000
0001
1000
,
2002
0000
0000
3003
,
0220
0000
0000
0330
,
0020
0000
0000
0000
,
0230
0000
0000
0000
,
0310
0010
0010
0010
,
0020
0000
0000
0000
,
0000
0000
0000
0000
,
0000
0031
0000
1000
0000
0010
0000
0000
,
0001
0010
0100
1000
,
0001
1000
0001
1000
,
1000
0010
0100
0001
,
0100
0010
0100
0010
,
0110
0110
0110
0110
,
1001
1001
1001
1001
,
2000
0000
3002
0000
,
2003
0000
3000
0000
,
0001
0100
0010
1000
,
0001
0010
0100
1000
,
0001
1000
0010
0100
,
0001
1000
0100
0010
,
0110
0110
0110
0110
,
1001
1001
1001
1001
,
0002
0000
2003
0000
,
3002
0000
0003
0000
,
0220
0000
0000
0000
,
0000
0000
0000
0000
,
0000
0000
0000
0000
,
0000
0000
0000
0000
,
0000
0000
0000
0000
,
0000
0000
0330
0000
;

//---------------dance-single - Chewi----------------
#NOTES:
     dance-single:
     Chewi:
     Medium:
     9:
     0.458,0.663,0.230,0.503,0.000:
0000
0000
0000
0000
,
0000
0000
0000
0000
,
0000
0000
0000
0000
,
0000
0000
0000
0000
0000
0000
1000
0100
,
0000
0001
0100
0000
0000
0000
0010
0000
,
0100
0000
0010
0000
0100
0000
0010
0010
,
0000
0000
0000
0100
0100
0000
0000
0001
,
0001
0000
0000
0000
0000
1000
0001
2000
,
0000
0000
0000
0000
,
3001
0000
0001
0000
0010
0100
0010
0000
,
1000
0000
1000
0000
0010
0100
0010
0000
,
0100
0000
0100
0000
0001
0100
0001
0000
,
0010
0000
0010
0000
0010
0100
0010
0000
,
0002
0203
0320
2030
,
3002
0203
0320
2030
,
3002
0023
0230
2300
,
3002
0023
0230
2300
,
3001
1000
0001
0000
1000
0000
0001
0000
,
1000
0001
1000
0000
0001
0000
1000
0000
,
0010
0100
0010
0000
0100
0000
0010
0000
,
0100
0010
0100
0000
0010
0000
0100
0000
,
0010
1000
0100
0001
,
0010
0001
0100
1000
,
0001
1000
0100
1000
,
1000
0001
0100
0001
,
0120
0000
0000
0000
,
2030
0000
0000
0000
,
3002
0000
0000
0000
,
0023
0000
0000
0000
,
0230
0000
0000
0000
,
0320
0000
0000
0000
,
0032
2003
3200
0302
,
0023
0000
0000
0000
,
0130
0000
0010
0000
0100
0010
0100
0010
,
0000
0100
0001
0010
,
0100
0000
0010
0000
0100
0010
0100
0010
,
0000
0001
0010
0100
,
1000
0000
0010
0000
1000
0010
1000
0010
,
0000
1000
0010
0100
,
0001
0000
1000
0000
0001
1000
0001
1000
,
0000
0001
0010
0100
,
1000
0100
0001
0100
,
1000
0010
0001
0010
,
1000
1100
0001
0011
,
0100
0010
0100
0010
,
0202
0000
0000
0303
,
2020
0000
0000
3030
,
2002
0000
0000
3003
,
0020
2030
3200
0302
,
0023
0230
0320
0032
,
2003
0000
0000
0000
,
0000
0000
0000
0000
,
3000
1000
0000
1000
0001
1000
0001
0000
,
1000
0100
0010
0001
,
1100
0101
0011
1010
,
1000
0001
1000
0001
,
1010
0011
0101
1100
,
1000
0100
1000
0100
,
1100
0011
0101
1010
,
0001
0100
0001
0100
,
0101
1010
0011
1100
,
1000
0100
1000
0000
0001
0000
0100
0000
,
0010
0010
0100
0100
,
0001
0100
0001
0000
0100
0000
0010
0000
,
1000
1000
0001
0001
,
2000
0100
0001
0010
,
3002
0100
1000
0010
,
0023
0100
0001
0100
,
0230
1000
0010
1000
,
2300
0000
0000
0000
,
0000
0000
0000
0000
,
0000
0000
0000
0000
,
0000
0000
0000
0000
,
0000
0000
0000
0000
,
0000
0000
0000
0000
0000
0000
0000
0000
0000
0000
0000
0000
0000
0000
0000
0000
0000
0000
0000
0000
0000
0000
0000
0000
0000
0000
0000
0000
0000
0000
0000
0000
0000
0000
0000
0000
0000
0000
0000
0000
0000
0000
0000
0000
0000
0000
0000
0000
0000
0000
0000
0000
0000
0000
0000
0000
0000
0000
0000
0000
0000
0000
0000
0000
0000
0000
0000
0000
0000
0000
0000
0000
0000
0000
0000
0000
0000
0000
0000
0000
0000
0000
0000
0000
0000
0000
0000
0000
0000
0000
0000
0000
0000
0000
0000
0000
0000
3000
0000
0000
0000
0000
0000
0000
0000
0000
0000
0000
0000
0000
0000
0000
0000
0000
0000
0000
0000
0000
0000
0000
0000
0000
0000
0000
0000
0000
0000
0000
0000
0000
0000
0000
0000
0000
0000
0000
0000
0000
0000
0000
0000
0000
0000
0000
0000
0000
0000
0000
0000
0000
0000
0000
0000
0000
0000
0000
0000
0000
0000
0000
0000
0000
0000
0000
0000
0000
0000
0000
0000
0000
0000
0000
0000
0000
0000
0000
0000
0000
0000
0000
0000
0000
0000
0000
0000
0000
0000
0000
0000
0000
0000
0000
;

//---------------dance-single - Chewi----------------
#NOTES:
     dance-single:
     Chewi:
     Hard:
     12:
     0.576,0.741,0.388,0.440,0.052:
0000
0000
0000
0000
,
0000
0000
0000
0000
,
0000
0000
0000
0000
,
0000
0000
0000
0000
0000
0000
0010
0100
,
0000
0001
0010
0100
0000
1000
0100
0010
,
0002
0000
2003
0000
3020
0000
0130
0100
,
0000
0000
0000
0010
0110
0000
0000
0010
,
1010
0000
0000
0000
0000
0001
0010
0200
,
0000
0000
0000
0000
,
0310
0001
0010
0000
0001
0100
0001
0000
,
0100
0010
0100
0000
0010
1000
0010
0000
,
1000
0100
1000
0000
0010
1000
0010
0000
,
0100
0010
0100
0000
0001
0100
0001
0000
,
0011
0101
0011
0101
,
1001
1100
1001
1100
,
1010
1100
1010
1100
,
2002
0000
0000
3003
,
0001
0010
0100
0000
1000
0000
1100
0000
,
1000
0001
0100
0000
0010
0000
0110
0000
,
0001
1000
0010
0000
1000
0000
1001
0000
,
1000
0100
0010
0000
0001
0000
0101
0000
,
0010
0100
0010
0100
0001
0100
0001
0000
,
1000
0100
1000
0100
0010
0100
0010
0000
,
0001
0010
0001
0010
0100
1000
0100
1000
,
0001
1000
0100
0000
1000
0001
0100
0000
,
0220
0000
0000
0300
,
2000
0000
0000
0030
,
0002
0000
0000
3000
,
0020
0000
0000
0003
,
0200
0000
0000
0030
,
0020
0000
0000
0330
,
0002
0203
2300
3010
,
0101
0000
0101
0000
0100
0010
0100
0000
,
0000
0000
0000
0000
0001
0010
0100
1000
,
0000
0000
0000
0000
0001
1000
1001
0000
,
0000
0000
0000
0000
1000
0010
0100
0001
,
0000
0100
0000
0100
0010
0100
0110
0000
,
0000
0000
0000
0000
0010
0100
0001
1000
,
0000
0000
0000
0000
0010
0100
0110
0000
,
0000
0000
0000
0000
0100
0010
0001
1000
,
0000
0100
0000
0100
1000
0001
0101
0000
,
0010
0100
0010
0100
0000
0001
0010
0100
,
1000
1001
0100
0110
,
0010
0100
0001
0100
0000
0010
1000
0001
,
0010
0110
0010
0011
,
0001
0010
0000
0001
0010
0000
0001
0010
0000
0001
0010
0000
0001
0010
0000
0000
,
1000
0010
0000
1000
0010
0000
1000
0010
0000
1000
0010
0000
1000
0010
0000
0000
,
0001
1000
0001
1000
0010
0100
0010
0100
,
0001
0100
0010
1000
0001
0100
0010
1000
,
0001
0002
0010
0023
0100
0230
1000
2300
,
0000
0000
0000
0000
,
0000
0000
0000
0000
,
0000
3010
0000
0100
0010
0100
0110
0000
,
1000
0100
0010
0001
0000
1000
0100
0001
,
0200
2300
3020
0130
,
0001
0100
0010
1000
0000
0001
0010
1000
,
0020
0000
0032
0000
2003
0000
3010
0100
,
0000
0100
0010
0100
0000
0001
0010
0100
,
0020
0000
0032
0000
0203
0000
1300
0010
,
0000
0000
0000
0100
0110
0000
0000
0001
,
0022
0000
0000
0000
0033
0001
0010
0100
,
1000
0001
0100
1000
0000
0100
0001
0010
,
0200
2300
3020
0130
,
0001
0100
0010
1000
0000
0001
0010
0100
,
0020
0000
0032
0000
0023
0000
0130
1000
,
0000
0001
0100
0010
0000
0100
0001
0010
,
0200
0000
0320
0000
0032
0000
1003
1010
,
0000
0000
0000
0001
0011
0000
0000
1000
,
1100
0000
0000
0000
0000
0001
0100
0010
,
2002
0000
0000
0000
,
0000
0000
0000
0000
,
0000
0000
0000
0000
,
0000
0000
0000
0000
,
0000
0000
0000
0000
,
0000
0000
3003
0000
;

//---------------dance-double - Chewi----------------
#NOTES:
     dance-double:
     Chewi:
     Easy:
     5:
     0.374,0.468,0.251,0.178,0.000: // measure 1
00000000
00000000
00000000
00000000
,  // measure 2
00000000
00000000
00000000
00000000
,  // measure 3
00000000
00000000
00000000
00000000
,  // measure 4
00000000
00000000
00000000
00100000
,  // measure 5
00000000
01000000
00000000
10000000
,  // measure 6
01000000
00100000
00010000
00001000
,  // measure 7
00000000
00000000
00000100
00000000
,  // measure 8
00000010
00000000
00000000
00000100
,  // measure 9
00000000
00000000
00000000
00000000
,  // measure 10
00000001
00000010
00000100
00001000
,  // measure 11
00000010
00000010
00000100
00000100
,  // measure 12
00000001
00000001
00001000
00001000
,  // measure 13
00001000
00001000
00000100
00000100
,  // measure 14
00011000
00011000
00010000
00010000
,  // measure 15
01010000
01010000
10000000
10000000
,  // measure 16
01000000
00100000
00010000
01000000
,  // measure 17
10000000
00010000
01000000
10000000
,  // measure 18
00010000
00100000
01000000
00100000
,  // measure 19
01000000
00010000
00100000
00001000
,  // measure 20
00010000
00000100
00001000
00001000
,  // measure 21
00000010
00000100
00000001
00000010
,  // measure 22
00000011
00000100
00000010
00001000
,  // measure 23
00001100
00001000
00000010
00000100
,  // measure 24
00000001
00000001
00001000
00001000
,  // measure 25
00001000
00010000
00001000
00001000
,  // measure 26
00021000
00000000
00000000
00000000
,  // measure 27
00032000
00000000
00000000
00000000
,  // measure 28
00203000
00000000
00000000
00000000
,  // measure 29
00320000
00000000
00000000
00000000
,  // measure 30
02030000
00000000
00000000
00000000
,  // measure 31
23000000
00000000
00000000
00000000
,  // measure 32
30200000
02300000
23000000
30020000
,  // measure 33
10030000
10000000
01000000
00100000
,  // measure 34
00010000
10000000
01000000
01000000
,  // measure 35
00000000
00000000
00100000
01000000
,  // measure 36
00000000
00000000
00010000
00001000
,  // measure 37
00000000
00000000
00000100
00010000
,  // measure 38
00000000
00000000
00010000
00010000
,  // measure 39
00000000
00000000
00001000
00001000
,  // measure 40
00000000
00000000
00000010
00000010
,  // measure 41
00000000
00000001
00000001
00000001
,  // measure 42
00000001
00000010
00000100
00001000
,  // measure 43
00001010
00000100
00000101
00000010
,  // measure 44
00000100
00001000
00010000
00001000
,  // measure 45
00010000
00011000
00001000
00001000
,  // measure 46
02020000
00000000
00000000
03030000
,  // measure 47
20020000
00000000
00000000
30030000
,  // measure 48
00100000
10000000
01000000
00010000
,  // measure 49
00100000
00100000
00010000
00010000
,  // measure 50
10000000
00010000
00100000
01000000
,  // measure 51
10000000
00000000
00000000
00000000
,  // measure 52
00000000
00000000
00000000
00000000
,  // measure 53
10000000
00000000
10000000
10000000
,  // measure 54
00100000
01000000
00010000
00100000
,  // measure 55
00110000
00100000
00001000
00010000
,  // measure 56
00010000
00001000
00000010
00000100
,  // measure 57
00000001
00001001
00001000
00001001
,  // measure 58
00000001
00000010
00000100
00001000
,  // measure 59
00000010
00001010
00001000
00001100
,  // measure 60
00000100
00010000
00001000
00100000
,  // measure 61
00010000
00110000
00100000
10100000
,  // measure 62
00100000
01000000
00010000
00100000
,  // measure 63
01000000
10010000
00100000
10010000
,  // measure 64
10000000
01000000
00100000
00010000
,  // measure 65
00100000
00101000
00010000
00010100
,  // measure 66
00000100
00001000
00000100
00001000
,  // measure 67
00000010
00000100
00000010
00000100
,  // measure 68
00000001
00000001
00001000
00001000
,  // measure 69
00000001
00001000
00000001
00000000
00001000
00000000
00011000
00000000
,  // measure 70
00002000
00000000
00000000
00000000
,  // measure 71
00000000
00000000
00000000
00000000
,  // measure 72
00023000
00000000
00000000
00000000
,  // measure 73
00000000
00000000
00000000
00000000
,  // measure 74
00032000
00000000
00000000
00000000
,  // measure 75
00000000
00000000
00000000
00000000
00000000
00000000
00000000
00000000
00000000
00000000
00000000
00000000
00000000
00000000
00000000
00000000
00000000
00000000
00000000
00000000
00000000
00000000
00000000
00000000
00000000
00000000
00000000
00000000
00000000
00000000
00000000
00000000
00000000
00000000
00000000
00000000
00000000
00000000
00000000
00000000
00000000
00000000
00000000
00000000
00000000
00000000
00000000
00000000
00000000
00000000
00000000
00000000
00000000
00000000
00000000
00000000
00000000
00000000
00000000
00000000
00000000
00000000
00000000
00000000
00000000
00000000
00000000
00000000
00000000
00000000
00000000
00000000
00000000
00000000
00000000
00000000
00000000
00000000
00000000
00000000
00000000
00000000
00000000
00000000
00000000
00000000
00000000
00000000
00000000
00000000
00000000
00000000
00000000
00000000
00000000
00000000
00000000
00000000
00003000
00000000
00000000
00000000
00000000
00000000
00000000
00000000
00000000
00000000
00000000
00000000
00000000
00000000
00000000
00000000
00000000
00000000
00000000
00000000
00000000
00000000
00000000
00000000
00000000
00000000
00000000
00000000
00000000
00000000
00000000
00000000
00000000
00000000
00000000
00000000
00000000
00000000
00000000
00000000
00000000
00000000
00000000
00000000
00000000
00000000
00000000
00000000
00000000
00000000
00000000
00000000
00000000
00000000
00000000
00000000
00000000
00000000
00000000
00000000
00000000
00000000
00000000
00000000
00000000
00000000
00000000
00000000
00000000
00000000
00000000
00000000
00000000
00000000
00000000
00000000
00000000
00000000
00000000
00000000
00000000
00000000
00000000
00000000
00000000
00000000
00000000
00000000
00000000
00000000
00000000
00000000
00000000
00000000
;

//---------------dance-double - Chewi----------------
#NOTES:
     dance-double:
     Chewi:
     Medium:
     9:
     0.430,0.546,0.241,0.178,0.000: // measure 1
00000000
00000000
00000000
00000000
,  // measure 2
00000000
00000000
00000000
00000000
,  // measure 3
00000000
00000000
00000000
00000000
,  // measure 4
00000000
00000000
00000000
00000000
00000000
00000000
00100000
01000000
,  // measure 5
00000000
00000000
01000000
00100000
00000000
00000000
10000000
00000000
,  // measure 6
01000000
00000000
00100000
00000000
00010000
00000000
00001000
00000100
,  // measure 7
00000000
00000000
00000000
00000001
00000100
00000000
00000000
00001000
,  // measure 8
00000010
00000000
00000000
00000000
00000000
00000010
00000100
00000010
,  // measure 9
00000000
00000000
00000000
00000000
,  // measure 10
00000001
00000010
00000100
00001000
,  // measure 11
00000010
00000010
00000100
00000100
,  // measure 12
00000001
00001000
00000001
00000000
00001000
00000001
00001000
00000000
,  // measure 13
00001000
00000100
00001000
00000000
00000100
00010000
00000100
00000000
,  // measure 14
00011000
00011000
00010000
00010000
,  // measure 15
01010000
01010000
10000000
10000000
,  // measure 16
01000000
00000000
00100000
00000000
00010000
10000000
01000000
00000000
,  // measure 17
10000000
00000000
00010000
00000000
01000000
00100000
10000000
00000000
,  // measure 18
00010000
00000000
00100000
00000000
01000000
10000000
00100000
00000000
,  // measure 19
01000000
00010000
00100000
00001000
,  // measure 20
00010000
00000000
00000100
00000000
00001000
00000010
00001000
00000000
,  // measure 21
00000010
00000100
00000001
00000010
,  // measure 22
00000011
00000100
00000010
00001000
,  // measure 23
00001100
00001000
00000010
00000100
,  // measure 24
00000001
00001000
00000001
00000000
00001000
00000001
00001000
00000000
,  // measure 25
00001000
00000100
00010000
00000000
00001000
00010000
00001000
00000000
,  // measure 26
00021000
00000000
00000000
00000000
,  // measure 27
00032000
00000000
00000000
00000000
,  // measure 28
00203000
00000000
00000000
00000000
,  // measure 29
00320000
00000000
00000000
00000000
,  // measure 30
02030000
00000000
00000000
00000000
,  // measure 31
23000000
00000000
00000000
00000000
,  // measure 32
30200000
02300000
23000000
30020000
,  // measure 33
10030000
10000000
01000000
00100000
,  // measure 34
00010000
00000000
10000000
00000000
01000000
10000000
01000000
10000000
,  // measure 35
00000000
00000000
00100000
01000000
,  // measure 36
00000000
00000000
00000000
00000000
00010000
00100000
00001000
00010000
,  // measure 37
00000000
00010000
00000000
00001000
00000100
00001000
00010000
00000000
,  // measure 38
00000000
00000000
00000000
00000000
00010000
00001000
00010000
00001000
,  // measure 39
00000000
00000000
00000000
00000000
00001000
00000010
00001000
00000000
,  // measure 40
00000000
00000000
00000000
00000000
00000010
00000100
00000010
00000100
,  // measure 41
00000000
00000001
00000000
00000001
00000000
00000000
00000001
00000000
,  // measure 42
00000001
00000010
00000100
00001000
,  // measure 43
00001010
00000100
00000101
00000010
,  // measure 44
00000100
00001000
00010000
00001000
,  // measure 45
00010000
00011000
00001000
00001000
,  // measure 46
02020000
00000000
00000000
03030000
,  // measure 47
20020000
00000000
00000000
30030000
,  // measure 48
00100000
10000000
01000000
00010000
,  // measure 49
00100000
01000000
00100000
00000000
00010000
10000000
00010000
00000000
,  // measure 50
10000000
00010000
00100000
01000000
,  // measure 51
10000000
00000000
00000000
00000000
,  // measure 52
00000000
00000000
00000000
00000000
,  // measure 53
00000000
10000000
00000000
00010000
10000000
00010000
10000000
00000000
,  // measure 54
00100000
01000000
00010000
00100000
,  // measure 55
00110000
00100000
00001000
00010000
,  // measure 56
00010000
00001000
00000010
00000100
,  // measure 57
00000001
00001001
00001000
00001001
,  // measure 58
00000001
00000010
00000100
00001000
,  // measure 59
00000010
00001010
00001000
00001100
,  // measure 60
00000100
00010000
00001000
00100000
,  // measure 61
00010000
00110000
00100000
10100000
,  // measure 62
00100000
01000000
00010000
00100000
,  // measure 63
01000000
10010000
00100000
10010000
,  // measure 64
10000000
01000000
00100000
00010000
,  // measure 65
00100000
00101000
00010000
00010100
,  // measure 66
00000100
00001000
00000100
00001000
,  // measure 67
00000010
00000100
00000010
00000100
,  // measure 68
00000001
00000100
00000001
00000000
00001000
00000010
00001000
00000000
,  // measure 69
00000001
00001000
00000001
00000000
00001000
00001000
00001000
00000000
,  // measure 70
00002000
00000000
00000000
00000000
,  // measure 71
00000000
00000000
00000000
00000000
,  // measure 72
00023000
00000000
00000000
00000000
,  // measure 73
00000000
00000000
00000000
00000000
,  // measure 74
00032000
00000000
00000000
00000000
,  // measure 75
00000000
00000000
00000000
00000000
00000000
00000000
00000000
00000000
00000000
00000000
00000000
00000000
00000000
00000000
00000000
00000000
00000000
00000000
00000000
00000000
00000000
00000000
00000000
00000000
00000000
00000000
00000000
00000000
00000000
00000000
00000000
00000000
00000000
00000000
00000000
00000000
00000000
00000000
00000000
00000000
00000000
00000000
00000000
00000000
00000000
00000000
00000000
00000000
00000000
00000000
00000000
00000000
00000000
00000000
00000000
00000000
00000000
00000000
00000000
00000000
00000000
00000000
00000000
00000000
00000000
00000000
00000000
00000000
00000000
00000000
00000000
00000000
00000000
00000000
00000000
00000000
00000000
00000000
00000000
00000000
00000000
00000000
00000000
00000000
00000000
00000000
00000000
00000000
00000000
00000000
00000000
00000000
00000000
00000000
00000000
00000000
00000000
00000000
00003000
00000000
00000000
00000000
00000000
00000000
00000000
00000000
00000000
00000000
00000000
00000000
00000000
00000000
00000000
00000000
00000000
00000000
00000000
00000000
00000000
00000000
00000000
00000000
00000000
00000000
00000000
00000000
00000000
00000000
00000000
00000000
00000000
00000000
00000000
00000000
00000000
00000000
00000000
00000000
00000000
00000000
00000000
00000000
00000000
00000000
00000000
00000000
00000000
00000000
00000000
00000000
00000000
00000000
00000000
00000000
00000000
00000000
00000000
00000000
00000000
00000000
00000000
00000000
00000000
00000000
00000000
00000000
00000000
00000000
00000000
00000000
00000000
00000000
00000000
00000000
00000000
00000000
00000000
00000000
00000000
00000000
00000000
00000000
00000000
00000000
00000000
00000000
00000000
00000000
00000000
00000000
00000000
00000000
;

//---------------dance-double - Chewi----------------
#NOTES:
     dance-double:
     Chewi:
     Hard:
     12:
     0.542,0.663,0.220,0.157,0.042:
00000000
00000000
00000000
00000000
,
00000000
00000000
00000000
00000000
,
00000000
00000000
00000000
00000000
,
00000000
00000000
00000000
00000000
00000000
00000000
10000000
00100000
,
00000000
01000000
00010000
00100000
00000000
01000000
00100000
00010000
,
00100000
00000000
01000000
00000000
10000000
00000000
00100000
01000000
,
00000000
00000000
00000000
00010000
00100000
00000000
00000000
00001000
,
00010000
00000000
00000000
00000000
00000000
00001000
00000100
00000010
,
00000000
00000000
00000000
00000000
,
00000001
00001000
00000001
00000000
00000100
00000010
00000100
00000000
,
00000010
00001000
00000010
00000000
00001000
00000001
00001000
00000000
,
00000001
00000100
00000010
00000000
00001000
00000100
00010000
00000000
,
00001000
00100000
00010000
00000000
01000000
00100000
10000000
00010000
,
10000000
11000000
00010000
00110000
,
00100000
01100000
10010000
01100000
,
01000000
01010000
00100000
00101000
,
00022000
00000000
00000000
00033000
,
00010000
00001000
00000010
00000000
00001000
00000010
00001000
00000000
,
00000001
00000100
00000010
00000000
00001000
00000001
00001000
00000000
,
00000001
00000010
00000100
00000000
00001000
00000100
00001000
00000000
,
00000100
00010000
00001000
00000000
00001000
00010000
01000000
00000000
,
01000000
00100000
01000000
00000000
00010000
10000000
01000000
00000000
,
10000000
00010000
00100000
00000000
01000000
00100000
01000000
00000000
,
00100000
00010000
00100000
00010000
00100000
00001000
00100000
00001000
,
00010000
00001000
00010000
00001000
00001000
00000010
00001000
00000010
,
00002000
00000000
00000001
00000010
,
00003002
00000000
00000100
00001000
,
00002003
00000000
00000100
00000010
,
00003200
00000000
00010000
00001000
,
00020300
00000000
00001000
00001000
,
00032000
00000000
00010000
00100000
,
00203000
00320000
20030000
30200000
,
01300000
00010000
01000000
00100000
10000000
00100000
10000000
00000000
,
00000000
00000000
00000000
00000000
00010000
00100000
01000000
10000000
,
00000000
00000000
00000000
00000000
00100000
01000000
00100000
00000000
,
00000000
00000000
00000000
00000000
10000000
01000000
00100000
00010000
,
00000000
00010000
00000000
00001000
00010000
00000010
00001000
00000000
,
00000000
00000000
00000000
00000000
00000001
00000100
00000010
00001000
,
00000000
00000000
00000000
00000000
00000001
00001000
00000001
00000000
,
00000000
00000000
00000000
00000000
00000001
00000010
00000100
00001000
,
00000000
00000010
00000000
00000010
00001000
00000100
00001000
00010000
,
00001000
00010000
00001000
00010000
00000000
00001000
00010000
01000000
,
00100000
10000000
00010000
00100000
,
10000000
01000000
00100000
00010000
00000000
00100000
00001000
00010000
,
00000010
00001000
00000001
00000100
,
00000010
00000100
00000000
00000010
00000100
00000000
00000010
00000100
00000000
00000010
00000100
00000000
00000000
00000000
00000000
00000000
,
00000001
00001000
00000000
00000001
00001000
00000000
00000001
00001000
00000000
00000001
00001000
00000000
00000000
00000000
00000000
00000000
,
00000001
00000010
00000100
00001000
00000001
00000010
00000100
00001000
,
00000010
00001000
00000100
00010000
00001000
00100000
00010000
01000000
,
00100000
10000000
00010000
00100000
01000000
10000000
00010000
10000000
,
10000000
00000000
00000000
00000000
,
00000000
00000000
00000000
00000000
,
00000000
10100000
00000000
01000000
01000000
00010000
00100000
01000000
,
00100000
00010000
01000000
00100000
00000000
01000000
00010000
00100000
,
00010000
00110000
00101000
00011000
,
00010000
00001000
00000010
00000001
00000000
00000010
00001000
00000100
,
00000001
00000000
00000110
00000000
00001010
00000000
00000001
00000100
,
00000000
00000010
00001000
00000100
00000000
00000100
00010000
00001000
,
00100000
00000000
00010000
00000000
00100000
00000000
01000000
10000000
,
00000000
00000000
00000000
10000000
00100000
00000000
00000000
01000000
,
00010000
00000000
00000000
00000000
00000000
00100000
01000000
00100000
,
00010000
00100000
00001000
00010000
00000000
00010000
00000100
00001000
,
00001001
00001010
00000101
00001010
,
00001000
00000001
00000100
00000010
00000000
00000010
00001000
00000100
,
00001000
00000000
00001100
00000000
00010100
00000000
00011000
00010000
,
00000000
00001000
00010000
01000000
00000000
00010000
00100000
01000000
,
10000000
00000000
00100000
00000000
01000000
00000000
00010000
10000000
,
00000000
00000000
00000000
01000000
00100000
00000000
00000000
00010000
,
00100000
00000000
00000000
00000000
00000000
01000000
00100000
00010000
,
00200000
00000000
00000000
00000000
,
00000000
00000000
00000000
00000000
,
00302000
00000000
00000000
00000000
,
00000000
00000000
00000000
00000000
,
00023000
00000000
00000000
00000000
,
00000000
00000000
00000000
00000000
00000000
00000000
00000000
00000000
00000000
00000000
00000000
00000000
00000000
00000000
00000000
00000000
00000000
00000000
00000000
00000000
00000000
00000000
00000000
00000000
00000000
00000000
00000000
00000000
00000000
00000000
00000000
00000000
00000000
00000000
00000000
00000000
00000000
00000000
00000000
00000000
00000000
00000000
00000000
00000000
00000000
00000000
00000000
00000000
00000000
00000000
00000000
00000000
00000000
00000000
00000000
00000000
00000000
00000000
00000000
00000000
00000000
00000000
00000000
00000000
00000000
00000000
00000000
00000000
00000000
00000000
00000000
00000000
00000000
00000000
00000000
00000000
00000000
00000000
00000000
00000000
00000000
00000000
00000000
00000000
00000000
00000000
00000000
00000000
00000000
00000000
00000000
00000000
00000000
00000000
00000000
00000000
00000000
00030000
00000000
00000000
00000000
00000000
00000000
00000000
00000000
00000000
00000000
00000000
00000000
00000000
00000000
00000000
00000000
00000000
00000000
00000000
00000000
00000000
00000000
00000000
00000000
00000000
00000000
00000000
00000000
00000000
00000000
00000000
00000000
00000000
00000000
00000000
00000000
00000000
00000000
00000000
00000000
00000000
00000000
00000000
00000000
00000000
00000000
00000000
00000000
00000000
00000000
00000000
00000000
00000000
00000000
00000000
00000000
00000000
00000000
00000000
00000000
00000000
00000000
00000000
00000000
00000000
00000000
00000000
00000000
00000000
00000000
00000000
00000000
00000000
00000000
00000000
00000000
00000000
00000000
00000000
00000000
00000000
00000000
00000000
00000000
00000000
00000000
00000000
00000000
00000000
00000000
00000000
00000000
00000000
00000000
00000000
;
