#TITLE:300;
#SUBTITLE:;
#ARTIST:DETACH M-STYLE;
#TITLETRANSLIT:;
#SUBTITLETRANSLIT:;
#ARTISTTRANSLIT:;
#CREDIT:xRGTMx;
#BANNER:300.png;
#BACKGROUND:300-bg.png;
#LYRICSPATH:;
#CDTITLE:;
#MUSIC:300.mp3;
#OFFSET:-0.020;
#SAMPLESTART:67.340;
#SAMPLELENGTH:12.500;
#SELECTABLE:YES;
#DISPLAYBPM:*;
#BPMS:0.000=140.000,48.000=150.000,80.000=160.000,112.000=170.000,144.000=180.000,176.000=190.000,208.000=200.000,240.000=210.000,272.000=220.000,304.000=230.000,320.000=240.000,336.000=250.000,352.000=260.000,368.000=270.000,384.000=280.000,400.000=290.000,416.000=300.000,464.000=35.000;
#STOPS:;
#BGCHANGES:16.000=140-bg.png=1.000=1=0=1,
48.000=150-bg.png=1.000=0=0=1,
80.000=160-bg.png=1.000=0=0=1,
112.000=170-bg.png=1.000=0=0=1,
144.000=180-bg.png=1.000=0=0=1,
176.000=190-bg.png=1.000=0=0=1,
208.000=200-bg.png=1.000=0=0=1,
240.000=210-bg.png=1.000=0=0=1,
272.000=220-bg.png=1.000=0=0=1,
304.000=230-bg.png=1.000=0=0=1,
320.000=240-bg.png=1.000=0=0=1,
336.000=250-bg.png=1.000=0=0=1,
352.000=260-bg.png=1.000=0=0=1,
368.000=270-bg.png=1.000=0=0=1,
384.000=280-bg.png=1.000=0=0=1,
400.000=290-bg.png=1.000=0=0=1,
416.000=300-bg.png=1.000=0=0=1,
464.000=035-bg.png=1.000=1=0=1,
99999=-nosongbg-=1.000=0=0=0 // don't automatically add -songbackground-
;

//---------------dance-single - xRGTMx----------------
#NOTES:
     dance-single:
     xRGTMx:
     Hard:
     10:
     0.720,0.824,0.154,0.007,0.305:
0000
0000
0000
0000
,
0000
0000
0000
0000
,
0000
0000
0000
0000
,
0000
0000
0000
0000
,
1001
1000
1000
1000
,
0100
0000
0000
0000
0100
0000
0000
0000
0100
0000
0000
0000
0100
0000
0100
0010
,
0001
0001
0001
0001
,
0100
0000
0000
0000
0100
0000
0000
0000
0100
0000
0000
0000
0100
0001
1000
0010
,
1000
0000
0000
0000
1000
0000
0000
0000
1000
0000
0000
0000
0100
1000
0100
0010
,
0100
0000
0000
0000
0100
0000
0000
0000
0100
0000
0000
0000
0100
0010
0001
0000
,
0010
0000
0000
0000
0100
0010
0001
0000
0010
0000
0000
0000
0100
0010
0001
0000
,
0100
0000
0010
0000
1000
0000
0100
0000
0001
0000
0100
1000
0001
0000
0000
0000
,
1000
0110
0001
0110
,
1000
0000
0110
0000
0001
0000
0110
0100
,
1000
0110
0001
0110
,
1000
0000
0110
0000
0001
0000
0110
0100
,
1000
0100
1000
0000
0100
0000
0000
0000
1000
0100
1000
0000
0001
0000
0010
0000
,
1000
0010
1000
0000
0010
0000
0000
0000
0001
0010
0001
0000
1000
0000
0001
0000
,
1000
0100
1000
0000
0100
0000
0000
0000
1000
0100
1000
0000
0001
0000
0010
0000
,
1000
0010
1000
0000
0010
0000
0000
0000
0001
0010
0001
1000
0010
0000
0110
0000
,
0100
0100
0100
0100
,
0100
0000
0100
0000
0100
0000
0100
0100
,
0010
0010
0010
0010
,
0010
0000
0000
0000
0010
0000
0000
0000
0010
0000
0000
0100
0010
0000
0010
0000
,
1000
0000
0000
0010
0000
0000
0001
0000
1000
0000
0000
0100
0000
0000
0001
0000
,
1000
0000
0000
0010
0000
0000
0001
0000
1000
0000
0000
0100
0000
0000
0001
0000
,
1000
0000
0000
0100
0000
0000
0001
0000
1000
0000
0000
0010
0000
0000
0001
0000
,
1000
0000
0000
0100
0000
0000
0001
0000
1000
0000
0000
0010
0000
0000
0001
0000
,
1000
0100
0010
0100
1000
0100
1000
0000
,
0001
0100
0010
0100
0001
0100
0001
0000
,
1000
0010
0100
0010
1000
0010
1000
0000
,
0001
0010
0100
0010
0001
0010
0001
0000
,
1000
0100
0001
0100
1000
0001
0100
0000
,
0001
0100
1000
0100
0001
1000
0100
0000
,
1000
0010
0001
0010
1000
0001
0010
0000
,
0001
0010
1000
0010
0001
1000
0010
0100
,
0001
0110
1000
0110
,
0001
0000
0110
0000
1000
0000
0110
0010
,
0001
0000
0010
0100
0000
0000
0001
0000
1000
0000
0010
0100
0000
0000
1000
0000
,
0001
0000
0010
0100
0000
0000
0001
0000
1000
0000
0010
0100
0000
0000
1000
0000
,
0001
0000
0100
0010
0000
0000
1000
0000
0100
0000
0010
0000
0001
0000
1000
0000
,
0010
0000
0100
0001
0000
0000
1000
0000
0100
0000
0010
0000
0100
0000
1000
0000
,
0001
0000
0100
0010
0000
0000
1000
0000
0100
0000
0010
0000
0001
0000
1000
0000
,
0010
0000
0100
0001
0000
0000
1000
0000
0100
0000
0010
0000
0100
0000
1000
0000
,
0010
0100
0010
0100
,
0001
1000
1001
1001
,
1000
0000
0100
0010
0000
0100
1000
0000
0001
0000
0000
0000
1000
0000
0000
0000
,
0001
0000
0100
0010
0000
0100
0001
0000
1000
0000
0000
0000
0001
0000
0000
0000
,
1000
0100
0010
0100
0000
1000
0010
0100
,
0001
0000
0000
0110
0000
0000
1000
0000
0001
0000
0100
0000
1000
0000
0100
0000
,
0001
0010
0100
1000
0000
0001
0100
0010
,
1000
0000
0000
0110
0000
0000
0001
0000
1000
0000
0100
0000
1000
0000
0010
0000
,
0100
0010
1000
0001
,
1000
0000
0100
0000
0010
0000
0001
0010
,
0100
1000
0010
0100
,
0001
0000
0000
0000
1000
0000
0000
0000
0100
0000
0000
0010
0100
0000
0010
0000
,
0001
0100
1000
0100
0001
1000
0100
0010
,
0100
1000
0001
0100
1000
0100
0001
1000
,
0100
0010
0100
1000
0010
0100
0001
0010
,
0001
0010
0100
1000
0010
0100
0001
1000
,
0100
0000
0011
0000
0100
1000
0010
0000
,
0100
0000
1010
0000
0100
0001
0010
0010
,
0100
0000
0011
0000
0100
1000
1010
0000
,
0100
0000
0000
0000
1001
0000
0000
0000
0100
0000
0000
0100
0010
0000
0100
0000
,
1000
0001
1000
0100
0001
1000
0001
0100
,
1000
0001
1000
0010
0001
1000
0001
0010
,
1000
0100
1000
0010
0100
0001
0100
1000
,
0100
0001
1000
0100
0001
0100
1000
0001
,
0100
0000
0000
0001
0000
0000
0100
0000
0010
0000
0000
1000
0000
0000
0010
0000
,
0100
0000
0000
0001
0000
0000
1000
0000
0100
0000
0000
1000
0000
0000
0001
0000
,
0100
0000
0000
0010
0000
0000
0100
0000
0001
0000
0000
0010
0000
0000
0100
0000
,
1000
0000
0000
0100
0000
0000
0010
0000
0100
0000
0000
1000
0000
0000
0001
0000
,
0100
0000
0000
0010
0000
0000
0100
0000
0001
0000
0000
1000
0000
0000
0100
0000
,
0010
0000
0000
0100
0000
0000
1000
0000
0001
0000
0000
1000
0000
0000
0010
0000
,
0001
0000
0000
0010
0000
0000
1000
0000
0100
0000
0000
0001
0000
0000
0100
0000
,
1000
0000
0000
0010
0000
0000
0100
0000
0001
0000
0000
0100
0000
0000
0010
0000
,
1000
0100
0010
0000
0100
1000
0010
0000
,
0100
0010
1000
0000
0100
0010
0100
1000
,
0001
0100
0010
0000
0100
0001
0010
0000
,
0100
0010
0001
0000
0100
0010
0100
0001
,
1000
0000
0000
0100
0000
0000
0010
0000
0100
0000
0000
0001
0000
0000
0100
0000
,
1000
0000
0000
0010
0000
0000
0100
0000
0010
0000
0000
0001
0000
0000
0010
0000
,
1000
0000
0000
0100
0000
0000
0001
0000
0100
0000
0000
1000
0000
0000
0001
0000
,
1000
0000
0000
0010
0000
0000
0001
0000
0010
0000
0000
1000
0000
0000
0001
0000
,
1000
0100
0010
0000
0100
1000
0010
0000
,
0100
0010
1000
0000
0100
0010
0100
1000
,
0001
0100
0010
0000
0100
0001
0010
0000
,
0100
0010
0001
0000
0100
0010
0100
0001
,
1000
0000
0000
0100
0000
0000
0010
0000
0100
0000
0000
0001
0000
0000
0100
0000
,
1000
0000
0000
0010
0000
0000
0100
0000
0010
0000
0000
0001
0000
0000
0010
0000
,
1000
0000
0000
0100
0000
0000
0001
0000
0100
0000
0000
1000
0000
0000
0001
0000
,
1000
0000
0000
0010
0000
0000
0001
0000
0010
0000
0000
1000
0000
0000
0001
0000
,
1000
0100
0010
0000
0100
1000
0010
0000
,
0100
0010
1000
0000
0100
0010
0100
1000
,
0001
0100
0010
0000
0100
0001
0010
0000
,
0100
0010
0001
0000
0100
0010
0100
0001
,
1000
0000
0000
0100
0000
0000
0010
0000
0100
0000
0000
0001
0000
0000
0100
0000
,
1000
0000
0000
0010
0000
0000
0100
0000
0010
0000
0000
0001
0000
0000
0010
0000
,
1000
0000
0000
0100
0000
0000
0001
0000
0100
0000
0000
1000
0000
0000
0001
0000
,
1000
0000
0000
0010
0000
0000
0001
0000
0010
0000
0000
1000
0000
0000
0001
0000
,
1000
0100
0010
0000
0100
1000
0010
0000
,
0100
0010
1000
0000
0100
0010
0100
1000
,
0001
0100
0010
0000
0100
0001
0010
0000
,
0100
0010
0001
0000
0100
0010
0100
0001
,
1000
0000
0000
0100
0000
0000
0010
0000
0100
0000
0000
0001
0000
0000
0100
0000
,
1000
0000
0000
0010
0000
0000
0100
0000
0010
0000
0000
0001
0000
0000
0010
0000
,
1000
0000
0000
0100
0000
0000
0001
0000
0100
0000
0000
1000
0000
0000
0001
0000
,
1000
0000
0000
0010
0000
0000
0001
0000
0010
0000
0000
1000
0000
0000
0001
0000
,
1000
0010
1000
0010
1000
0001
1000
0001
,
1000
0100
1000
0100
1000
0001
1000
0000
,
0001
0010
0001
0010
0001
1000
0001
1000
,
0001
0100
0001
0100
0001
1000
0001
0000
,
1000
0100
1000
0100
0010
0100
0010
0100
,
0010
0001
0010
0001
1000
0001
1000
0001
,
0010
0100
0010
0001
1000
0010
0100
0001
,
0010
0100
1000
0001
0100
0010
0100
0000
,
0020
0000
0000
0000
,
0030
0000
0000
0000
;

//---------------dance-single - xRGTMx----------------
#NOTES:
     dance-single:
     xRGTMx:
     Medium:
     9:
     0.594,0.589,0.342,0.134,0.070:
0000
0000
0000
0000
,
0000
0000
0000
0000
,
0000
0000
0000
0000
,
0000
0000
0000
0000
,
1001
1000
1000
1000
,
0100
0000
0100
0000
0100
0000
0100
0010
,
0001
0001
0001
0001
,
0100
0000
0100
0000
0100
0000
0100
0010
,
1000
0000
1000
0000
1000
0000
0100
1000
,
0100
0000
0100
0000
0100
0000
0010
0001
,
0100
0000
0010
1000
0100
0000
0010
0100
,
1000
1000
0001
0001
0100
0010
0100
0000
,
0001
0110
1000
0110
,
0001
0000
0110
0000
1000
0000
0010
0100
,
0001
0110
1000
0110
,
0001
0000
0110
0000
1000
0000
0010
0100
,
0001
1000
0001
0000
1000
0100
0001
0100
,
1000
0001
1000
0000
0001
0010
1000
0010
,
0001
1000
0001
0000
1000
0010
0100
1000
,
0100
0001
1000
0000
0001
0010
0100
1000
,
0010
0010
0010
0010
,
0010
0000
0010
0000
0010
0000
0100
0010
,
0100
0100
0100
0100
,
0100
0000
0000
0000
0100
0000
0000
0000
0100
0000
0000
0010
0100
0000
0010
0000
,
1000
0000
0000
0001
0000
0000
1000
0000
0010
0000
0000
0100
0000
0000
0010
0000
,
1000
0000
0000
0001
0000
0000
1000
0000
0100
0000
0000
0010
0000
0000
0100
0000
,
1000
0000
0000
0001
0000
0000
1000
0000
0010
0000
0000
0100
0000
0000
0010
0000
,
1000
0000
0000
0001
0000
0000
1000
0000
0100
0000
0000
0010
0000
0000
0100
0000
,
1000
0000
1010
0000
0010
0100
0001
0000
,
1000
0000
1100
0000
0010
0001
0100
0000
,
1000
0000
1100
0000
0100
0001
1000
0000
,
0100
0000
0101
0000
0100
1000
0001
0000
,
1000
0010
0100
1000
0100
0010
0100
0000
,
0001
0100
0010
0001
0010
0100
0001
0000
,
1000
0100
0010
1000
0001
0100
1000
0000
,
0001
0100
0010
0001
1000
0100
0001
0000
,
1000
1000
1000
1000
,
0001
0001
0001
0001
,
0100
0100
0100
0100
,
0010
0010
0010
0010
,
1000
0000
0100
0010
0100
1000
0100
0000
,
0010
0000
0001
0100
0010
1000
0001
0000
,
0010
0000
0100
1000
0100
0001
0100
0000
,
1000
0000
0010
0100
0001
0010
0100
1000
,
0001
1000
0001
1000
,
0110
0110
1001
1001
,
1000
0000
0000
0100
0000
0000
0010
0000
0100
0000
1000
0000
0100
0000
1000
0000
,
0001
0000
0000
0100
0000
0000
0010
0000
0100
0000
0001
0000
0100
0000
0001
0000
,
1000
0100
0010
0100
0000
1000
0001
0100
,
0010
0000
0000
0010
0000
0000
0010
0000
0100
0000
0010
0000
0100
0000
0010
0000
,
0100
0001
1000
0100
0000
0010
0100
1000
,
0001
0000
0000
0001
0000
0000
0001
0000
2000
0000
0000
0000
3002
0000
0000
0000
,
1003
1000
1000
1000
,
0001
0001
0001
0001
,
0100
0100
0100
0100
,
0010
0010
0010
0010
,
1000
0011
0100
1010
,
0001
1100
0010
0101
,
1000
0110
0001
0110
,
1000
0011
1100
0011
,
1000
0010
1000
0001
,
0100
0000
0010
0000
1000
0000
0001
1000
,
0001
0010
0100
0110
,
0100
1000
0001
1001
,
1000
0100
0010
0100
1000
0100
0010
0000
,
0001
0010
0100
0010
0001
0010
0100
0000
,
1000
0010
0100
0010
1000
0010
0100
0000
,
0001
0100
0010
0100
0001
0100
0010
0000
,
1000
0000
0000
0001
0000
0000
1000
0000
0010
0000
0000
0000
1001
0000
0000
0000
,
0001
0000
0000
1000
0000
0000
0001
0000
0010
0000
0000
0000
1001
0000
0000
0000
,
1000
0000
0000
0001
0000
0000
1000
0000
0100
0000
0000
0000
1001
0000
0000
0000
,
0001
0000
0000
1000
0000
0000
0001
0000
0100
0000
0000
0000
1001
0000
0000
0000
,
1000
0000
0000
0100
0000
0000
0010
0000
0001
0000
0000
0000
1100
0000
0000
0000
,
0001
0000
0000
0010
0000
0000
0100
0000
1000
0000
0000
0000
0011
0000
0000
0000
,
1000
0000
0000
0010
0000
0000
0100
0000
0001
0000
0000
0000
1010
0000
0000
0000
,
0001
0000
0000
0100
0000
0000
0010
0000
1000
0000
0000
0000
0101
0000
0000
0000
,
1000
0000
0100
0000
0010
0100
1000
0000
,
0001
0000
1000
0000
0010
0100
0001
0000
,
1000
0000
0010
0000
0100
0010
1000
0000
,
0001
0000
0010
0000
0100
0010
0001
0000
,
2000
0000
3001
0110
,
2000
0000
3001
0110
,
2000
0000
3001
0110
,
2000
0000
3001
0110
,
1000
0000
0100
0000
0010
0100
1000
0000
,
0001
0000
1000
0000
0010
0100
0001
0000
,
1000
0000
0010
0000
0100
0010
1000
0000
,
0001
0000
0010
0000
0100
0010
0001
0000
,
2000
0000
3001
0110
,
2000
0000
3001
0110
,
2000
0000
3001
0110
,
2000
0000
3001
0110
,
1000
0000
0100
0000
0010
0100
1000
0000
,
0001
0000
1000
0000
0010
0100
0001
0000
,
1000
0000
0010
0000
0100
0010
1000
0000
,
0001
0000
0010
0000
0100
0010
0001
0000
,
2000
0000
3001
0110
,
2000
0000
3001
0110
,
2000
0000
3001
0110
,
2000
0000
3001
0110
,
1000
0000
0100
0000
0010
0100
1000
0000
,
0001
0000
1000
0000
0010
0100
0001
0000
,
1000
0000
0010
0000
0100
0010
1000
0000
,
0001
0000
0010
0000
0100
0010
0001
0000
,
2000
0000
3001
0110
,
2000
0000
3001
0110
,
2000
0000
3001
0110
,
2000
0000
3001
0110
,
1000
0001
1000
0010
,
0001
1000
0001
0010
,
1000
0001
1000
0100
,
0001
1000
0001
0100
,
1000
0001
1000
0000
0001
0000
0100
0000
,
1000
0001
1000
0000
0100
0000
0001
0000
,
1000
0001
1000
0000
0010
0000
0001
0000
,
1000
0001
1000
0000
0001
0000
0010
0000
,
2002
0000
0000
0000
,
3003
0000
0000
0000
;

//---------------dance-single - xRGTMx----------------
#NOTES:
     dance-single:
     xRGTMx:
     Easy:
     6:
     0.327,0.471,0.168,0.121,0.000:
0000
0000
0000
0000
,
0000
0000
0000
0000
,
0000
0000
0000
0000
,
0000
0000
0000
0000
,
1000
1000
1000
1000
,
0001
0001
0001
0001
,
0100
0100
0100
0100
,
0010
0010
0010
0020
,
1030
1000
1000
2000
,
3100
0100
0100
0020
,
0031
0200
0310
2000
,
3001
1000
0010
1001
,
1000
0100
0001
0100
,
1000
0100
0001
0000
,
1000
0010
0001
0010
,
1000
0010
0001
0000
,
1000
0100
0010
0100
,
1000
0010
0100
0000
,
1000
0100
0001
0100
,
1000
0001
0010
0000
,
1000
1000
1000
1000
,
1000
1000
1000
0000
,
0001
0001
0001
0001
,
0001
0001
0001
0000
,
0100
0100
0010
0010
,
1000
1000
0001
0001
,
0010
0010
0100
0100
,
1000
1000
0001
0000
,
1000
0000
1001
0000
,
0001
0000
0100
0010
,
1000
0000
1001
0000
,
0001
0000
1000
0100
,
0010
0010
0100
0100
,
0010
0010
0100
0000
,
1000
1000
0001
0001
,
1000
1000
0001
0000
,
1000
1000
1000
0000
,
0100
0100
0100
0000
,
0020
0000
0032
0000
,
0203
0000
0320
0000
,
1030
0000
1001
0000
,
0001
0000
1001
0000
,
1000
0001
1000
0000
,
0001
1000
0001
0000
,
0100
0100
0100
0100
,
0100
0000
0010
0000
,
1000
1000
0100
0000
,
0010
0010
0001
0000
,
0100
0000
0110
0000
,
0010
0010
0100
0100
,
0010
0000
0110
0000
,
0010
0010
0100
0100
,
0001
0000
1000
0000
,
0101
0000
1000
0001
,
1000
0000
0001
0000
,
1100
0000
0001
1000
,
0001
0000
0010
0000
,
0100
0000
1000
0001
,
1000
0000
0010
0000
,
0100
0000
0001
1000
,
0001
0000
0100
0000
,
1000
0000
0100
0001
,
1000
0000
0100
0000
,
0001
0000
0100
1000
,
0001
0000
0010
0000
,
1000
0000
0010
0001
,
1000
0000
0010
0000
,
0001
0000
0010
1000
,
0001
0000
0001
0000
,
0100
0000
0100
0000
,
0010
0000
0010
0000
,
1000
0000
1000
0000
,
0001
0000
0001
0000
,
0010
0000
0010
0000
,
0100
0000
0100
0000
,
1000
0000
1000
0000
,
0001
0000
1000
0000
,
0010
0100
0010
0000
,
1000
0000
0001
0000
,
0100
0010
0100
0000
,
0001
0000
0110
0000
,
1000
0000
0110
0000
,
0001
0000
0110
0000
,
1000
0000
0110
0000
,
0001
0000
1000
0000
,
0010
0100
0010
0000
,
1000
0000
0001
0000
,
0100
0010
0100
0000
,
0001
0000
0110
0000
,
1000
0000
0110
0000
,
0001
0000
0110
0000
,
1000
0000
0110
0000
,
0001
0000
1000
0000
,
0010
0100
0010
0000
,
1000
0000
0001
0000
,
0100
0010
0100
0000
,
0001
0000
0110
0000
,
1000
0000
0110
0000
,
0001
0000
0110
0000
,
1000
0000
0110
0000
,
0001
0000
1000
0000
,
0010
0100
0010
0000
,
1000
0000
0001
0000
,
0100
0010
0100
0000
,
0001
0000
0110
0000
,
1000
0000
0110
0000
,
0001
0000
0110
0000
,
1000
0000
0110
0000
,
0002
0000
0000
0000
,
0203
0000
0000
0000
,
0320
0000
0000
0000
,
2030
0000
0000
0000
,
3002
0000
0010
0000
,
0023
0000
0100
0000
,
0230
0000
1000
0000
,
2300
0000
0001
0000
,
3002
0000
0000
0000
,
0003
0000
0000
0000
;

//---------------dance-single - xRGTMx----------------
#NOTES:
     dance-single:
     xRGTMx:
     Beginner:
     3:
     0.240,0.311,0.034,0.000,0.000: // measure 1
0000
0000
0000
0000
,  // measure 2
0000
0000
0000
0000
,  // measure 3
0000
0000
0000
0000
,  // measure 4
0000
0000
0000
0000
,  // measure 5
1000
1000
1000
1000
,  // measure 6
1000
1000
1000
0000
,  // measure 7
0100
0100
0100
0100
,  // measure 8
0100
0100
0100
0000
,  // measure 9
0010
0010
0010
0010
,  // measure 10
0010
0010
0010
0000
,  // measure 11
0001
0001
0001
0001
,  // measure 12
0001
0001
0001
0000
,  // measure 13
1000
0000
1000
0000
,  // measure 14
0001
0000
0001
0000
,  // measure 15
0100
0000
0100
0000
,  // measure 16
0010
0000
0010
0000
,  // measure 17
1000
1000
1000
0000
,  // measure 18
0010
0010
0010
0000
,  // measure 19
0100
0100
0100
0000
,  // measure 20
0001
0001
0001
0000
,  // measure 21
1000
1000
1000
1000
,  // measure 22
1000
1000
1000
0000
,  // measure 23
0001
0001
0001
0001
,  // measure 24
0001
0001
0001
0000
,  // measure 25
0100
0000
0110
0000
,  // measure 26
0010
0000
0110
0000
,  // measure 27
0100
0000
0110
0000
,  // measure 28
0010
0000
0110
0000
,  // measure 29
0100
0100
0100
0100
,  // measure 30
0100
0100
0100
0000
,  // measure 31
0001
0001
0001
0001
,  // measure 32
0001
0001
0001
0000
,  // measure 33
1000
1000
1000
1000
,  // measure 34
1000
1000
1000
0000
,  // measure 35
0010
0010
0010
0010
,  // measure 36
0010
0010
0010
0000
,  // measure 37
1000
0000
1000
0000
,  // measure 38
0001
0000
0001
0000
,  // measure 39
1000
0000
0001
0000
,  // measure 40
0100
0000
0010
0000
,  // measure 41
1000
1000
1000
0000
,  // measure 42
0001
0001
0001
0000
,  // measure 43
1000
1000
1000
0000
,  // measure 44
0001
0001
0001
0000
,  // measure 45
0100
0000
0100
0000
,  // measure 46
0010
0000
0010
0000
,  // measure 47
1000
0000
0001
0001
,  // measure 48
0001
0000
1000
1000
,  // measure 49
1000
0000
1000
0000
,  // measure 50
0100
0100
0100
0100
,  // measure 51
0100
0000
0010
0000
,  // measure 52
0001
0001
0001
0001
,  // measure 53
0001
0000
1000
0000
,  // measure 54
0001
0000
1000
0000
,  // measure 55
0010
0000
0100
0000
,  // measure 56
0010
0000
0100
0000
,  // measure 57
0001
0001
0001
0000
,  // measure 58
1000
1000
1000
0000
,  // measure 59
0001
0001
0001
0000
,  // measure 60
1000
1000
1000
0000
,  // measure 61
0010
0000
0010
0000
,  // measure 62
0100
0000
0100
0000
,  // measure 63
0010
0000
0010
0000
,  // measure 64
0100
0000
0100
0000
,  // measure 65
0001
0000
1000
0000
,  // measure 66
0001
0000
1000
0000
,  // measure 67
0001
0000
1000
0000
,  // measure 68
0001
0000
1000
0000
,  // measure 69
0010
0000
0000
0000
,  // measure 70
1000
0000
0000
0000
,  // measure 71
0100
0000
0000
0000
,  // measure 72
0010
0000
0000
0000
,  // measure 73
0001
0000
0000
0000
,  // measure 74
1000
0000
0000
0000
,  // measure 75
0010
0000
0000
0000
,  // measure 76
0100
0000
0000
0000
,  // measure 77
0001
0000
0001
0000
,  // measure 78
1000
0000
1000
0000
,  // measure 79
0010
0000
0010
0000
,  // measure 80
0100
0000
0100
0000
,  // measure 81
0001
0000
0000
0000
,  // measure 82
0010
0000
0000
0000
,  // measure 83
0100
0000
0000
0000
,  // measure 84
1000
0000
0000
0000
,  // measure 85
0001
0000
0001
0000
,  // measure 86
1000
0000
1000
0000
,  // measure 87
0010
0000
0010
0000
,  // measure 88
0100
0000
0100
0000
,  // measure 89
0001
0000
0000
0000
,  // measure 90
0010
0000
0000
0000
,  // measure 91
0100
0000
0000
0000
,  // measure 92
1000
0000
0000
0000
,  // measure 93
0001
0000
0001
0000
,  // measure 94
1000
0000
1000
0000
,  // measure 95
0010
0000
0010
0000
,  // measure 96
0100
0000
0100
0000
,  // measure 97
0001
0000
0000
0000
,  // measure 98
0010
0000
0000
0000
,  // measure 99
0100
0000
0000
0000
,  // measure 100
1000
0000
0000
0000
,  // measure 101
0001
0000
0001
0000
,  // measure 102
1000
0000
1000
0000
,  // measure 103
0010
0000
0010
0000
,  // measure 104
0100
0000
0100
0000
,  // measure 105
0001
0000
0000
0000
,  // measure 106
0010
0000
0000
0000
,  // measure 107
0100
0000
0000
0000
,  // measure 108
1000
0000
0000
0000
,  // measure 109
0001
0000
0001
0000
,  // measure 110
0001
0000
0000
0000
,  // measure 111
0100
0000
0100
0000
,  // measure 112
0100
0000
0000
0000
,  // measure 113
0010
0000
0010
0000
,  // measure 114
0010
0000
0000
0000
,  // measure 115
1000
0000
1000
0000
,  // measure 116
1000
0000
0000
0000
,  // measure 117
1001
0000
0000
0000
;
