#TITLE:3 (toMOOSE's Menage a Trois Remix);
#SUBTITLE:;
#ARTIST:Britney Spears;
#TITLETRANSLIT:;
#SUBTITLETRANSLIT:;
#ARTISTTRANSLIT:;
#GENRE:;
#CREDIT:Chewphoria~;
#MENUCOLOR:;
#METERTYPE:DDR X;
#BANNER:3 (toMOOSE's Menage a Trois Remix).png;
#BACKGROUND:3 (toMOOSE's Menage a Trois Remix)-bg.png;
#LYRICSPATH:;
#CDTITLE:;
#MUSIC:3 (toMOOSE's Menage a Trois Remix).mp3;
#OFFSET:-9.208;
#SAMPLESTART:60.901;
#SAMPLELENGTH:15.000;
#SELECTABLE:YES;
#LISTSORT:;
#DISPLAYBPM:130.000;
#BPMS:0.000=129.990;
#STOPS:;
#BGCHANGES:;
#ATTACKS:;

//---------------dance-single - Chewphoria~----------------
#NOTES:
     dance-single:
     Chewphoria~:
     Beginner:
     2:
     0.150,0.163,0.032,0.095,0.000: // measure 1
2000
0000
0000
3000
,  // measure 2
1000
0000
0000
0000
,  // measure 3
0002
0000
0000
0003
,  // measure 4
0001
0000
0000
0000
,  // measure 5
0100
0000
0100
0000
,  // measure 6
0010
0000
0010
0000
,  // measure 7
1000
0000
1000
0000
,  // measure 8
0001
0000
0001
0000
,  // measure 9
2000
0000
0000
3000
,  // measure 10
1000
1000
1000
0000
,  // measure 11
0002
0000
0000
0003
,  // measure 12
0001
0001
0001
0000
,  // measure 13
1001
0000
1000
0000
,  // measure 14
0010
0010
0010
0000
,  // measure 15
0100
0100
0100
0000
,  // measure 16
0010
0000
0110
0000
,  // measure 17
0001
0001
0001
0000
,  // measure 18
0001
0001
0001
0000
,  // measure 19
1000
1000
1000
0000
,  // measure 20
1000
1000
1000
0000
,  // measure 21
2000
0000
0000
3000
,  // measure 22
1000
0000
0000
0000
,  // measure 23
0200
0000
0000
0300
,  // measure 24
0100
0000
0000
0000
,  // measure 25
0002
0000
0000
0003
,  // measure 26
0001
0000
0000
0000
,  // measure 27
0020
0000
0000
0030
,  // measure 28
0020
0000
0000
0030
,  // measure 29
0010
0010
0010
0000
,  // measure 30
0010
0000
0100
0000
,  // measure 31
1000
1000
1000
0000
,  // measure 32
1000
0000
0001
0000
,  // measure 33
0001
0001
0001
0000
,  // measure 34
0001
0000
1000
0000
,  // measure 35
0100
0100
0100
0000
,  // measure 36
0100
0000
0110
0000
,  // measure 37
1000
0000
0001
0000
,  // measure 38
1000
0000
0001
0000
,  // measure 39
0010
0000
0001
0000
,  // measure 40
0010
0000
0001
0000
,  // measure 41
0001
0000
1000
0000
,  // measure 42
0001
0000
1000
0000
,  // measure 43
0010
0000
1000
0000
,  // measure 44
0010
0000
1000
0000
,  // measure 45
0001
0000
0000
0000
;

//---------------dance-single - Chewphoria~----------------
#NOTES:
     dance-single:
     Chewphoria~:
     Easy:
     5:
     0.252,0.257,0.095,0.095,0.000: // measure 1
1000
0001
1000
0000
,  // measure 2
0100
0100
0100
0000
,  // measure 3
0001
1000
0001
0000
,  // measure 4
0010
0010
0010
0000
,  // measure 5
0001
0010
0100
1000
,  // measure 6
1000
1000
1000
0000
,  // measure 7
1000
0010
0100
0001
,  // measure 8
0001
0001
0001
0000
,  // measure 9
1001
0100
0100
0010
,  // measure 10
1000
0100
0001
0000
,  // measure 11
0010
0100
0010
0100
,  // measure 12
0002
0000
2000
3003
,  // measure 13
1000
0100
0001
0000
,  // measure 14
0001
0001
0001
0000
,  // measure 15
1000
1000
1000
0000
,  // measure 16
1001
0000
1001
0000
,  // measure 17
0010
1000
0100
0000
,  // measure 18
0001
0001
0001
0000
,  // measure 19
0010
0100
0010
0000
,  // measure 20
0110
0000
0110
0000
,  // measure 21
2000
0100
0200
3300
,  // measure 22
0001
0000
0001
0000
,  // measure 23
0002
0100
1000
0100
,  // measure 24
2003
0100
0001
3100
,  // measure 25
2000
0100
0200
3300
,  // measure 26
0001
0000
0100
0000
,  // measure 27
0010
1000
0100
0001
,  // measure 28
0020
0000
0000
0000
,  // measure 29
0130
0100
0100
0100
,  // measure 30
0010
0010
0010
0010
,  // measure 31
1000
1000
1000
1000
,  // measure 32
0001
0001
0001
0001
,  // measure 33
1001
1000
1000
1000
,  // measure 34
0100
0100
0100
0100
,  // measure 35
0010
0010
0010
0010
,  // measure 36
0001
0001
0001
0001
,  // measure 37
0110
0100
0100
0100
,  // measure 38
0010
0010
0010
0010
,  // measure 39
1000
1000
1000
1000
,  // measure 40
0100
0100
0100
0100
,  // measure 41
0110
0010
0010
0010
,  // measure 42
1000
1000
1000
1000
,  // measure 43
0001
0001
0001
0001
,  // measure 44
0100
0100
1000
0000
,  // measure 45
1001
0000
0000
0000
;

//---------------dance-single - Chewphoria~----------------
#NOTES:
     dance-single:
     Chewphoria~:
     Medium:
     8:
     0.353,0.350,0.414,0.021,0.000: // measure 1
1100
0000
0011
0000
0101
0000
0100
0010
,  // measure 2
0100
0000
0100
0000
0110
0000
0010
1000
,  // measure 3
0010
0000
1000
0000
1100
0000
0001
0100
,  // measure 4
0001
0100
0001
0000
1001
0000
0000
0000
,  // measure 5
1000
0100
0001
0010
,  // measure 6
0010
0001
0100
1000
,  // measure 7
1000
0100
0001
0010
,  // measure 8
0010
0001
0100
1000
,  // measure 9
1001
0000
0100
0000
0010
0000
1000
0001
,  // measure 10
1000
0001
1000
0000
1100
0000
0000
0000
,  // measure 11
1000
0010
0001
0100
,  // measure 12
1000
1000
0001
0001
1000
0000
0000
0000
,  // measure 13
0101
0000
0100
0010
0100
0000
0000
0000
,  // measure 14
0010
1000
0010
0000
1010
0000
0000
0000
,  // measure 15
1000
0001
1000
0000
1001
0000
0000
0000
,  // measure 16
1000
0100
0001
0010
,  // measure 17
0100
0000
0010
0100
0010
0000
0000
0000
,  // measure 18
0100
0001
0100
0000
0101
0000
0000
0000
,  // measure 19
1000
0100
1000
0000
1100
0000
0000
0000
,  // measure 20
1001
0010
0100
1000
,  // measure 21
1100
0001
0001
0100
,  // measure 22
1010
0000
0000
1010
0000
0000
0000
0000
,  // measure 23
0010
0100
1000
0100
,  // measure 24
0010
0001
0100
1000
,  // measure 25
0010
0100
0001
0000
,  // measure 26
1001
0000
0000
1001
0000
0000
0000
0000
,  // measure 27
1000
0100
1000
0000
0001
0100
0001
0000
,  // measure 28
0220
0000
0000
0330
,  // measure 29
1001
0000
1010
0000
0101
0000
0001
0100
,  // measure 30
0001
1000
0100
0010
,  // measure 31
0001
0100
1000
0000
0010
0000
0100
0000
,  // measure 32
0101
0000
0100
0000
0100
0000
0010
1000
,  // measure 33
1010
0000
1001
0000
0110
0000
0010
1000
,  // measure 34
0010
0000
1000
0000
1001
0000
0100
0010
,  // measure 35
0100
0000
0010
0000
0001
0000
1000
0100
,  // measure 36
0001
0100
1000
0000
1001
0000
0000
0000
,  // measure 37
0110
0000
1010
0000
0110
0000
0100
0001
,  // measure 38
0100
0000
0001
0000
1001
0000
1000
0100
,  // measure 39
0001
0000
0010
0000
0110
0000
0100
0010
,  // measure 40
0100
0000
0010
0000
1010
0000
1000
0001
,  // measure 41
1001
0000
0100
0000
1001
0000
0010
0100
,  // measure 42
0010
0000
1000
0000
1010
0000
0100
0001
,  // measure 43
0100
0010
1000
0000
0001
0000
1000
1000
,  // measure 44
1000
1000
1000
0000
1001
0000
0100
0010
,  // measure 45
1000
0000
0000
0000
;

//---------------dance-single - Chewphoria~----------------
#NOTES:
     dance-single:
     Chewphoria~:
     Hard:
     10:
     0.455,0.420,0.414,0.064,0.037: // measure 1
0010
0000
0000
0010
0100
0000
0000
0100
0001
0000
0000
0000
0100
0000
0001
0000
,  // measure 2
0100
0000
0101
0000
1100
0000
1000
0100
,  // measure 3
0010
0001
0100
0100
0100
0000
0010
1000
,  // measure 4
0001
0010
0001
0000
0011
0000
0001
1000
,  // measure 5
0001
1000
0100
0000
1000
0001
0100
0000
,  // measure 6
1010
0000
0101
0000
1000
0001
1000
0000
,  // measure 7
0100
0100
0100
0000
0010
0010
0010
0000
,  // measure 8
0001
0100
1000
0010
0010
1000
0100
0001
,  // measure 9
1001
0000
0101
0000
1100
0000
0100
0100
,  // measure 10
0001
0001
1000
0000
1001
0000
0000
0000
,  // measure 11
1000
0001
1000
0001
1000
0000
1001
0000
,  // measure 12
1000
0001
0010
1000
0100
0001
0010
1000
,  // measure 13
1001
0000
0100
0100
0100
0000
0000
0000
,  // measure 14
0010
0000
1000
0100
0001
0000
0000
0000
,  // measure 15
0010
1000
0010
0001
0100
0000
0000
0000
,  // measure 16
1000
0001
1001
0000
0101
0000
0000
0000
,  // measure 17
0100
0001
0010
1000
0100
0010
0011
0000
,  // measure 18
0001
1000
0001
0100
1000
0001
1001
0000
,  // measure 19
0100
0100
0100
0010
1000
0001
1001
0000
,  // measure 20
0001
0010
0100
1000
0001
0100
0010
1000
,  // measure 21
1002
0000
0100
0010
2000
0000
3003
0000
,  // measure 22
1100
0000
0000
0101
0000
0000
1001
0000
,  // measure 23
0010
1000
0100
0000
0010
0001
0100
0000
,  // measure 24
0001
0100
0010
1000
0100
0001
1000
0001
,  // measure 25
2100
0000
0001
0100
0020
0000
3030
0000
,  // measure 26
1100
0000
0000
0101
0000
0000
0000
0000
,  // measure 27
0001
0010
0001
0000
0100
0010
0100
0000
,  // measure 28
2020
0000
0000
3030
,  // measure 29
0011
0000
0000
0010
0001
0000
0000
0001
0010
0000
0000
0000
0100
0000
1000
0000
,  // measure 30
0100
0000
1001
0000
0101
0000
0001
1000
,  // measure 31
0001
0100
0001
0010
1000
0000
0100
1000
,  // measure 32
0100
0000
1100
0001
0101
0000
0001
0100
,  // measure 33
1010
0000
0000
0010
0100
0000
0000
0100
0001
0000
0000
0001
0100
0000
0001
0000
,  // measure 34
1000
0000
1001
0000
0101
0000
0001
0100
,  // measure 35
1000
0010
0001
1000
0100
0000
0010
0001
,  // measure 36
0010
0001
0001
0000
0011
0000
0000
0000
,  // measure 37
0010
1000
0100
0001
0100
0000
0101
0000
,  // measure 38
0001
1000
0100
0010
0100
0000
0110
0000
,  // measure 39
0010
0100
1000
0001
0100
0100
0010
0010
,  // measure 40
0001
1000
0001
1000
0010
0100
0001
1000
,  // measure 41
1001
0000
0101
0000
1100
0000
1000
0100
,  // measure 42
0010
0001
0010
0100
1000
0000
0001
0100
,  // measure 43
0010
1000
0100
0001
0010
0000
1000
0100
,  // measure 44
0001
1000
0001
0000
1001
0000
0001
0000
,  // measure 45
0100
0000
0000
0000
;
