#TITLE:20,NOVEMBER (D.D.R. version);
#SUBTITLE:;
#ARTIST:N.M.R feat. DJ nagureo;
#TITLETRANSLIT:;
#SUBTITLETRANSLIT:;
#ARTISTTRANSLIT:;
#GENRE:;
#CREDIT:chewi;
#BANNER:20,NOVEMBER (D.D.R. version).png;
#BACKGROUND:20,NOVEMBER (D.D.R. version)-bg.png;
#LYRICSPATH:;
#CDTITLE:cdtitle.png;
#MUSIC:20,NOVEMBER (D.D.R. version).ogg;
#OFFSET:-3.750000;
#SAMPLESTART:51.680000;
#SAMPLELENGTH:12.000000;
#SELECTABLE:YES;
#DISPLAYBPM:130.000000;
#BPMS:0.000000=130.100006
;
#STOPS:
;
#BGCHANGES:;
#KEYSOUNDS:;
#ATTACKS:;

//---------------dance-single - ----------------
#NOTES:
     dance-single:
     :
     Edit:
     11:
     0.510753,0.568264,0.174403,0.000000,0.319740,246.000000,234.000000,12.000000,0.000000,0.000000,0.000000,0.510753,0.568264,0.174403,0.000000,0.319740,246.000000,234.000000,12.000000,0.000000,0.000000,0.000000:
// measure 0
1000
0000
1000
0000
1000
0000
1000
0000
0000
1000
0000
0000
1000
0000
0000
0000
,  // measure 1
0001
1000
0001
0000
1000
0001
1000
0000
,  // measure 2
0101
0100
0010
1000
0001
0010
0100
1000
,  // measure 3
1100
1000
0100
0010
0001
0010
0100
1000
,  // measure 4
1001
1000
0010
0100
0001
0100
0010
1000
,  // measure 5
1010
1000
0010
0100
0001
0100
0010
1000
,  // measure 6
1001
0001
0010
0100
1000
0100
0010
0001
,  // measure 7
0101
0100
0010
1000
0001
0100
0010
1000
,  // measure 8
1001
1000
0100
0010
0001
0010
0100
0000
,  // measure 9
1000
0001
1000
0000
0001
1000
0001
0000
1000
0001
1000
0000
0001
1000
0001
0000
,  // measure 10
1010
1010
1010
0000
1000
0010
0100
0001
,  // measure 11
0100
0010
1000
0000
1001
0000
0101
0000
,  // measure 12
1000
1000
0001
0000
0000
0001
0010
0100
,  // measure 13
1000
0000
0000
1000
0000
0000
0000
0000
0001
0000
0000
0000
1000
0000
0000
0000
,  // measure 14
0001
0000
1000
0000
0001
1000
0000
0000
1000
0000
0010
0000
1000
0010
0000
0000
,  // measure 15
1000
0000
0010
0000
1000
0010
0000
0000
0010
0000
0100
0000
0001
0100
0000
0000
,  // measure 16
0001
0000
1000
0000
0001
1000
0000
0000
0001
0000
1000
0000
0001
1000
0000
0000
,  // measure 17
1000
0000
0010
0000
0010
1000
0000
0000
1000
0000
0010
0000
1000
0010
0000
0000
,  // measure 18
1000
0010
0100
0001
0100
0010
1000
0000
,  // measure 19
0001
0010
0001
0000
0010
0001
0010
0000
,  // measure 20
0001
0010
0100
1000
0010
0100
0001
0000
,  // measure 21
0100
0001
0100
0000
0001
0100
0001
0000
,  // measure 22
0001
0100
0010
1000
0001
0100
0010
1000
,  // measure 23
0001
0000
1000
0000
0001
1000
0001
0000
,  // measure 24
1000
0100
0010
0001
1000
0100
0010
0001
,  // measure 25
1000
1000
0001
0001
1000
1000
0001
0001
,  // measure 26
0001
0010
0000
0010
0000
0010
0000
0010
0000
0000
0000
0000
0000
0000
0000
0000
,  // measure 27
1000
0100
0000
0100
0000
0100
0000
0100
0000
0000
0000
0000
0000
0000
0000
0000
,  // measure 28
1000
0010
0000
0010
0000
0010
0000
0010
0000
0000
0000
0000
0000
0000
0000
0000
,  // measure 29
0100
0001
0000
0001
0000
0001
0000
0001
0000
0000
0000
0000
0000
0000
0000
0000
,  // measure 30
0001
1000
0000
1000
0000
1000
0000
1000
0000
0000
0000
0000
0000
0000
0000
0000
,  // measure 31
1000
0010
0000
0010
0000
0010
0000
0010
0000
0000
0000
0000
0000
0000
0000
0000
,  // measure 32
1000
0100
0000
0100
0000
0100
0000
0100
0000
0000
0000
0000
0000
0000
0000
0000
,  // measure 33
1000
0000
0010
0100
0001
0000
0100
0000
0010
0000
1000
0001
1000
0000
0100
0000
,  // measure 34
0010
0000
0000
0000
;
