#TITLE:1/6 billionth;
#SUBTITLE:;
#ARTIST:TЁЯRA;
#TITLETRANSLIT:;
#SUBTITLETRANSLIT:;
#ARTISTTRANSLIT:TERRA;
#GENRE:;
#CREDIT:Chewi☆;
#MENUCOLOR:#00FF00;
#METERTYPE:DDR X;
#BANNER:16 billionth.png;
#BACKGROUND:16 billionth-bg.png;
#LYRICSPATH:;
#CDTITLE:;
#MUSIC:16 billionth.mp3;
#OFFSET:-0.493;
#SAMPLESTART:41.879;
#SAMPLELENGTH:15.000;
#SELECTABLE:YES;
#LISTSORT:;
#DISPLAYBPM:145.000;
#BPMS:0.000=145.000;
#STOPS:;
#BGCHANGES:;
#ATTACKS:;

//---------------dance-single - Chewi----------------
#NOTES:
     dance-single:
     Chewi:
     Beginner:
     2:
     0.080,0.116,0.010,0.000,0.000:
0000
0000
0000
0000
,
0000
0000
0000
0000
,
0000
0000
0000
0000
,
0000
0000
0000
0000
,
1000
0000
0000
0000
,
0001
0000
0000
0000
,
0001
0000
0000
0000
,
1000
0000
0000
0000
,
0010
0000
0000
0000
,
0100
0000
0000
0000
,
0001
0000
0000
0000
,
1000
0000
0000
0000
,
0001
0000
0000
0000
,
1000
0000
0000
0000
,
0100
0000
0000
0000
,
0010
0000
0000
0000
,
0001
0000
0000
0000
,
1000
0000
0000
0000
,
1000
0000
0000
0000
,
0001
0000
0000
0000
,
0010
0000
0000
0000
,
0001
0000
0000
0000
,
0100
0000
0000
0000
,
0100
0000
0000
0000
,
0001
0000
0000
0000
,
1000
0000
0000
0000
,
0001
0000
0000
0000
,
0100
0000
0000
0000
,
0100
0000
0000
0000
,
0010
0000
0000
0000
,
0100
0000
0000
0000
,
0010
0000
0000
0000
,
0100
0000
0000
0000
,
0010
0000
0000
0000
,
0010
0000
0000
0000
,
0100
0000
0000
0000
,
0001
0000
0000
0000
,
0001
0000
0000
0000
,
0100
0000
0000
0000
,
0001
0000
0000
0000
,
0010
0000
0000
0000
,
0100
0000
0000
0000
,
0001
0000
0000
0000
,
1000
0000
0000
0000
,
0100
0000
0000
0000
,
0010
0000
0000
0000
,
1000
0000
0000
0000
,
1000
0000
0000
0000
,
1000
0000
0000
0000
,
0001
0000
0000
0000
,
0001
0000
0000
0000
,
1000
0000
0000
0000
,
1000
0000
0000
0000
,
0100
0000
0000
0000
,
0010
0000
0000
0000
,
1000
0000
0000
0000
,
1001
0000
0000
0000
,
0010
0000
0000
0000
,
0100
0000
0000
0000
,
0010
0000
0000
0000
;

//---------------dance-single - Chewi----------------
#NOTES:
     dance-single:
     Chewi:
     Easy:
     5:
     0.244,0.265,0.010,0.128,0.000:
0000
0000
0000
0000
,
0000
0000
0000
0000
,
0000
0000
0000
0000
,
0000
0000
0000
0000
,
1000
0100
1000
0100
,
0001
0010
0001
0010
,
0001
0100
0001
0100
,
1000
0010
1000
0010
,
0020
0000
0000
0000
,
0230
0000
0000
0000
,
0302
0000
0000
0000
,
2003
0000
0000
0000
,
3001
0001
0001
0001
,
1000
1000
1000
1000
,
0100
0100
0100
0100
,
0010
0010
0010
0010
,
0001
0010
0001
0010
,
1000
0100
1000
0100
,
1000
0100
1000
0100
,
0001
0100
0001
0100
,
0010
0100
0010
0100
,
0001
1000
0001
1000
,
0100
0010
0100
0010
,
0100
0010
0001
1000
,
0002
0000
0000
0000
,
1003
0000
1000
0000
,
0001
1000
0001
0000
,
0100
0000
0100
0000
,
0100
0010
0100
0000
,
0010
0000
0001
0000
,
0100
0000
1000
0000
,
0010
0000
1000
0000
,
0100
0000
0001
0000
,
0010
0000
0100
0000
,
0010
0000
0100
0100
,
0100
0000
1000
0000
,
0001
0000
0001
0001
,
0001
0010
0001
0010
,
0100
1000
0100
1000
,
0001
1000
0001
1000
,
0010
0100
0010
0100
,
0200
0000
0000
0000
,
0302
0000
0000
0000
,
2003
0000
0000
0000
,
3200
0000
0000
0000
,
0310
0001
0010
0001
,
1000
0001
1000
0001
,
1000
0100
1000
0100
,
1000
0001
1000
0001
,
0002
0000
0000
0003
,
0001
0001
0001
0001
,
2000
0000
0000
3000
,
1000
1000
1000
1000
,
0100
0010
1000
0001
,
0010
0100
1000
0001
,
1000
0000
0001
0000
,
1001
0000
0000
0000
,
0010
0001
0010
0001
,
0200
0000
0000
0000
,
0320
0000
0000
0000
,
0000
0000
0030
0000
0000
0000
0000
0000
0000
0000
0000
0000
0000
0000
0000
0000
0000
0000
0000
0000
0000
0000
0000
0000
0000
0000
0000
0000
0000
0000
0000
0000
0000
0000
0000
0000
0000
0000
0000
0000
0000
0000
0000
0000
0000
0000
0000
0000
0000
0000
0000
0000
0000
0000
0000
0000
0000
0000
0000
0000
0000
0000
0000
0000
0000
0000
0000
0000
0000
0000
0000
0000
0000
0000
0000
0000
0000
0000
0000
0000
0000
0000
0000
0000
0000
0000
0000
0000
0000
0000
0000
0000
0000
0000
0000
0000
0000
0000
0000
0000
0000
0000
0000
0000
0000
0000
0000
0000
0000
0000
0000
0000
0000
0000
0000
0000
0000
0000
0000
0000
0000
0000
0000
0000
0000
0000
0000
0000
0000
0000
0000
0000
0000
0000
0000
0000
0000
0000
0000
0000
0000
0000
0000
0000
0000
0000
0000
0000
0000
0000
0000
0000
0000
0000
0000
0000
0000
0000
0000
0000
0000
0000
0000
0000
0000
0000
0000
0000
0000
0000
0000
0000
0000
0000
0000
0000
0000
0000
0000
0000
0000
0000
0000
0000
0000
0000
0000
0000
0000
0000
0000
0000
;

//---------------dance-single - Chewi----------------
#NOTES:
     dance-single:
     Chewi:
     Medium:
     8:
     0.367,0.383,0.246,0.256,0.044:
0000
0000
0000
0000
,
0000
0000
0000
0000
,
0000
0000
0000
0000
,
0000
0000
0000
0000
,
2000
3100
0002
0103
,
0100
0010
0100
0010
,
2000
3010
0002
0013
,
0100
0010
0100
0010
,
0001
0000
0000
0001
0000
0000
0001
0000
0000
0000
0000
0000
0000
0000
0000
0000
,
1000
0000
0000
1000
0000
0000
1000
0000
0000
0000
0000
0000
0000
0000
0000
0000
,
0010
0000
0000
0010
0000
0000
0010
0000
0000
0000
0000
0000
0000
0000
0000
0000
,
0100
0000
0000
0100
0000
0000
0100
0000
0000
0000
0000
0000
0000
0000
0000
0000
,
0001
0101
1000
1100
,
0001
1001
1000
1001
,
0010
0110
0100
0110
,
1000
1010
0001
0101
,
2000
0100
0010
3100
,
0002
0010
0100
0013
,
2000
0100
0001
3100
,
0002
0100
1000
0103
,
0010
1100
0010
0001
,
0100
0110
0100
0001
,
1000
1100
0010
0001
,
0100
0110
1000
0001
,
2000
0001
0002
3003
,
0001
0000
0000
1000
0000
0000
0000
0000
0001
0000
0000
1000
0000
0000
0000
0000
,
0001
0010
0100
1000
,
1000
0000
0000
0001
0000
0000
0000
0000
1000
0000
0000
0001
0000
0000
0000
0000
,
1000
0010
0100
0001
,
0100
0110
0010
0110
,
0010
1000
0100
0001
,
1000
1001
0010
1001
,
1000
0100
0001
0100
,
0001
0101
1000
1100
,
0010
0100
0002
2003
,
3002
1003
0010
0100
,
0001
0101
0010
0110
,
0002
0013
2000
3100
,
0001
1000
0001
0000
1000
0001
1000
0000
,
2000
3010
0002
0103
,
1000
0001
1000
0000
0001
1000
0001
0000
,
0120
0000
0000
0000
,
2030
0000
0000
0000
,
3002
0000
0000
0000
,
0023
0000
0000
0000
,
0130
0000
0100
0000
0100
0010
0100
0000
,
0010
0000
0010
0000
0010
0001
0100
0000
,
0010
0000
0010
0000
0010
0100
0010
0000
,
0010
0000
0010
0000
0010
1000
0100
0000
,
2000
3100
0001
0011
,
0001
0100
1000
0010
,
0002
0013
1000
1010
,
1000
0100
0001
0010
,
0100
0010
0100
0000
0010
0000
0001
0000
,
0100
0010
0100
0000
0010
0000
1000
0000
,
0001
1100
1000
0101
,
0100
0010
1000
0001
,
2000
0000
0000
0000
,
3002
0000
0000
0000
,
0013
0000
0000
0010
0000
0000
0020
0000
0000
0000
0000
0000
0000
0000
0000
0000
,
0000
0030
0000
0000
0000
0000
0000
0000
0000
0000
0000
0000
0000
0000
0000
0000
0000
0000
0000
0000
0000
0000
0000
0000
0000
0000
0000
0000
0000
0000
0000
0000
0000
0000
0000
0000
0000
0000
0000
0000
0000
0000
0000
0000
0000
0000
0000
0000
0000
0000
0000
0000
0000
0000
0000
0000
0000
0000
0000
0000
0000
0000
0000
0000
0000
0000
0000
0000
0000
0000
0000
0000
0000
0000
0000
0000
0000
0000
0000
0000
0000
0000
0000
0000
0000
0000
0000
0000
0000
0000
0000
0000
0000
0000
0000
0000
0000
0000
0000
0000
0000
0000
0000
0000
0000
0000
0000
0000
0000
0000
0000
0000
0000
0000
0000
0000
0000
0000
0000
0000
0000
0000
0000
0000
0000
0000
0000
0000
0000
0000
0000
0000
0000
0000
0000
0000
0000
0000
0000
0000
0000
0000
0000
0000
0000
0000
0000
0000
0000
0000
0000
0000
0000
0000
0000
0000
0000
0000
0000
0000
0000
0000
0000
0000
0000
0000
0000
0000
0000
0000
0000
0000
0000
0000
0000
0000
0000
0000
0000
0000
0000
0000
0000
0000
0000
0000
0000
0000
0000
0000
0000
0000
;

//---------------dance-single - Chewi----------------
#NOTES:
     dance-single:
     Chewi:
     Hard:
     11:
     0.507,0.531,0.167,0.088,0.157:
0000
0000
0000
0000
,
0000
0000
0000
0000
,
0000
0000
0000
0000
,
0000
0000
0000
0000
,
1000
0000
0100
0000
0010
0000
0001
0000
1000
0000
0000
1000
0000
0000
1000
0000
,
0001
0000
0100
0000
0010
0100
0000
0010
0100
0000
0010
0100
0000
0010
0100
0000
,
0001
0000
0010
0000
0100
0000
1000
0000
0010
0000
0000
0010
0000
0000
0010
0000
,
1000
0000
0001
0000
1000
0100
0000
1000
0100
0000
1000
0100
0000
1000
0100
0000
,
2000
0001
0010
0001
,
3002
0100
1000
0100
,
2003
0010
0100
0001
,
3002
0100
0010
1000
,
0013
0001
0010
0000
0001
0100
0001
0000
,
0100
1000
0100
0000
1000
0010
1000
0000
,
0010
1000
0010
0000
0010
0100
0010
0000
,
0010
0001
0100
0001
0010
0100
1000
0001
,
1000
0100
1000
0000
0001
0000
0101
0000
,
0001
0100
0001
0000
1000
0000
1100
0000
,
0001
1000
0010
0000
0100
0000
0110
0000
,
1000
0001
0010
0000
0100
0000
0110
0000
,
0010
0001
0100
0001
0010
0100
1000
0000
,
0010
1000
0100
1000
0010
1000
0100
0000
,
0010
0001
0100
0000
0010
1000
0100
0000
,
0010
0100
0010
0100
0001
1000
0001
1000
,
2000
0000
0000
0000
,
3001
0000
0000
0010
0000
0000
0100
0000
1000
0000
0000
0010
0000
0000
0100
0000
,
0001
0000
0000
0100
0000
0000
0010
0000
0000
0000
1000
0000
0001
0000
1000
0000
,
0001
0000
0000
0010
0000
0000
0100
0000
0010
0000
0000
0001
0000
0000
0100
0000
,
0010
0100
0001
0100
0010
1000
0100
1000
,
0010
0000
0000
1000
0000
0000
0100
0000
0010
0000
0001
0000
0010
0000
0100
0000
,
0010
0000
0000
0001
0000
0000
0010
0000
0100
0000
1000
0000
0001
0000
0100
0000
,
0010
0100
0101
0000
0010
0100
1100
0000
,
0001
1000
0100
1000
0001
0100
1000
0010
,
0100
0010
0001
0000
0010
0100
1000
0000
,
0001
1000
0001
1000
0010
0100
0010
0000
,
0001
0100
0010
0000
1000
0100
0010
0000
,
0001
0010
0001
0010
0100
1000
0100
1000
,
0001
1000
1100
0000
1000
0001
0010
0000
,
0001
1000
1010
0000
1000
0010
0100
0000
,
0001
0100
0110
0000
1000
0001
0010
0000
,
0100
0010
0110
0000
0010
0001
1000
0010
,
0100
0000
0000
0001
0000
0000
0010
0000
0001
0000
0000
0100
0000
0000
0010
0000
,
1000
0000
0000
0100
0000
0000
1000
0000
0010
0000
0000
0000
0101
0000
0000
0000
,
0010
0000
0000
0100
0000
0000
0010
0000
0001
0000
0000
1000
0000
0000
0010
0000
,
0100
0000
0000
0001
0000
0000
0100
0000
0010
0000
0000
0000
1001
0000
0000
0000
,
1000
0100
0010
0001
0010
0100
1100
0000
,
0001
0100
1000
0100
0001
0100
1000
0000
,
0001
0010
0100
1000
0001
0010
0110
0000
,
1000
0010
0001
0010
1000
0010
0001
0000
,
0010
0000
0000
0100
0000
0000
0001
0000
0010
0000
0000
0100
0000
0000
1000
0000
,
0010
0000
0000
1000
0000
0000
0001
0000
0000
0000
1000
0000
0100
0000
0010
0000
,
0001
0000
0000
0010
0000
0000
0100
0000
0010
0000
0000
0001
0000
0000
0100
0000
,
0010
0000
0000
1000
0000
0000
0001
0000
0010
0000
0100
0000
0010
0000
0100
0000
,
0010
0001
1000
0000
0010
0000
0101
0000
,
0100
0010
1000
0000
0001
0000
1100
0000
,
1000
0000
0000
0100
0000
0000
0010
0000
0001
0000
0000
0100
0000
0000
0010
0000
,
0100
0001
0100
0001
0100
1000
0100
1000
,
0020
0000
0000
0000
,
0002
0000
0000
0000
0000
0000
0000
0033
,
0001
0000
0000
1000
0000
0000
2002
0000
0000
0000
0000
0000
0000
0000
0000
0000
,
3003
0000
0000
0000
;

//---------------dance-double - Chewi----------------
#NOTES:
     dance-double:
     Chewi:
     Easy:
     5:
     0.251,0.261,0.059,0.138,0.000: // measure 1
00000000
00000000
00000000
00000000
,  // measure 2
00000000
00000000
00000000
00000000
,  // measure 3
00000000
00000000
00000000
00000000
,  // measure 4
00000000
00000000
00000000
00000000
,  // measure 5
10000000
10000000
00010000
10000000
,  // measure 6
00010000
00010000
00100000
00010000
,  // measure 7
00100000
00100000
00010000
00001000
,  // measure 8
00001000
00001000
00000010
00001000
,  // measure 9
00000002
00000000
00000000
00000000
,  // measure 10
00002003
00000000
00000000
00000000
,  // measure 11
00003200
00000000
00000000
00000000
,  // measure 12
00002300
00000000
00000000
00000000
,  // measure 13
00003010
00001000
00010000
00000000
,  // measure 14
00010000
00001000
00010000
00000000
,  // measure 15
00001000
00010000
01000000
00000000
,  // measure 16
00100000
01000000
00010000
00000000
,  // measure 17
10000000
10000000
10000000
10000000
,  // measure 18
01000000
01000000
01000000
01000000
,  // measure 19
00100000
00100000
00100000
00100000
,  // measure 20
00010000
00010000
00010000
00010000
,  // measure 21
00020000
00000000
00000000
00030000
,  // measure 22
00002000
00000000
00000000
00003000
,  // measure 23
00010000
00001000
00000010
00000000
,  // measure 24
00001000
00000001
00001000
00000001
,  // measure 25
00001001
00000000
00000000
00000000
,  // measure 26
00000001
00000100
00001000
00000100
,  // measure 27
00000001
00001000
00000001
00000000
,  // measure 28
00001000
00000100
00010000
00001000
,  // measure 29
00010000
00100000
10000000
00000000
,  // measure 30
00200000
00000000
02300000
00000000
,  // measure 31
03100000
10000000
00010000
00000000
,  // measure 32
10010000
00000000
01100000
00000000
,  // measure 33
10010000
00000000
10000000
00000000
,  // measure 34
10000000
10000000
01000000
01000000
,  // measure 35
00010000
00010000
00200000
00000000
,  // measure 36
00310000
00000000
00020000
00000000
,  // measure 37
01030000
00000000
00000000
00000000
,  // measure 38
01000000
00010000
00100000
00010000
,  // measure 39
00001000
00010000
00001000
00000010
,  // measure 40
00000001
00000010
00001000
00000010
,  // measure 41
00001000
00000100
00001000
00000100
,  // measure 42
00002000
00000000
00000000
00000000
,  // measure 43
00023000
00000000
00000000
00000000
,  // measure 44
02030000
00000000
00000000
00000000
,  // measure 45
03020000
00000000
00000000
00000000
,  // measure 46
10030000
00100000
00010000
00100000
,  // measure 47
10000000
01000000
00010000
01000000
,  // measure 48
10000000
00010000
00100000
00001000
,  // measure 49
00010000
00010000
00001000
00001000
,  // measure 50
00001000
00000010
00000001
00000010
,  // measure 51
00001000
00000100
00000001
00000100
,  // measure 52
00001000
00000001
00000100
00000010
,  // measure 53
00001000
00000100
00001000
00000010
,  // measure 54
00001000
00000000
00010000
00000000
,  // measure 55
00001000
00000000
00100000
00000000
,  // measure 56
00010000
01000000
10000000
00000000
,  // measure 57
10000000
00100000
00010000
00000000
,  // measure 58
00100000
00100000
01000000
01000000
,  // measure 59
01100000
00000000
00000000
00000000
,  // measure 60
10010000
00000000
00000000
00000000
;

//---------------dance-double - Chewi----------------
#NOTES:
     dance-double:
     Chewi:
     Medium:
     7:
     0.344,0.413,0.226,0.177,0.000:
00000000
00000000
00000000
00000000
,
00000000
00000000
00000000
00000000
,
00000000
00000000
00000000
00000000
,
00000000
00000000
00000000
00000000
,
10000000
00000000
01000000
00000000
00010000
01000000
10000000
00000000
,
00100000
00000000
00010000
00000000
00100000
10000000
00100000
00000000
,
00010000
00100000
00001000
00010000
,
00000100
00001000
00000010
00000100
,
00000102
00000000
00000000
00000000
,
00002003
00000000
00000000
00000000
,
00003020
00000000
00000000
00000000
,
00002030
00000000
00000000
00000000
,
00013000
00000000
00001000
00000000
00010000
00001000
00010000
00000000
,
00010000
01000000
10000000
01000000
,
00100000
00000000
00010000
00000000
00100000
00010000
00100000
00000000
,
00100000
00010000
00001000
00000100
,
00001000
00000000
00000101
00000000
00000001
00001000
00000001
00000000
,
00001000
00000000
00001100
00000000
00000001
00001000
00000001
00000000
,
00001000
00000010
00001000
00010000
,
01000000
00010000
00100000
10000000
,
01000000
00000000
00100000
00000000
00010000
10000000
00010000
00000000
,
01000000
00000000
00100000
00000000
10000000
00100000
10000000
00000000
,
00010000
00100000
00001000
00010000
,
00000100
00000000
00000000
00000010
00001000
00000000
00000001
00000000
,
00002002
00000000
00000000
00003003
,
00000001
00000000
00000001
00000000
00001000
00000001
00001000
00000000
,
00000010
00000100
00000110
00000000
,
00001000
00000000
00001000
00000000
00010000
00001000
00010000
00000000
,
00001000
00010000
00011000
00000000
,
00010000
01000000
00100000
00010000
,
01000000
00100000
00010000
01010000
,
01000000
00010000
00001000
00010000
,
00001000
00000010
00000100
00000001
,
00001001
00000010
00001001
00000100
,
00001010
00000100
00000011
00000011
,
00000011
00000100
00001010
00000100
,
00000001
00001000
00000100
00001000
00000001
00000000
00000000
00000000
,
00000001
00000000
00000100
00000000
00000010
00000010
00000010
00000000
,
00001000
00010000
01000000
00010000
,
00100000
00000000
01000000
00000000
00010000
00010000
00010000
00000000
,
00100000
01000000
10000000
00100000
,
20020000
00000000
00000000
30000000
,
02000000
00000000
00000000
00030000
,
00200000
00000000
00000000
03000000
,
00020000
00000000
00000000
00330000
,
00100000
00010000
00001000
00000010
,
00000001
00000000
00000100
00000000
00001000
00000010
00000100
00000000
,
00000001
00000100
00000010
00001000
,
00000001
00000000
00001000
00000000
00000100
00000100
00000100
00000000
,
00001000
00001001
00000001
00001001
,
00000010
00001000
00010000
01000000
,
00100000
00110000
00010000
01010000
,
00010000
01000000
10000000
00000000
10000000
00100000
00010000
00000000
,
00100000
00100000
00100000
00000000
01000000
00000000
00100000
00000000
,
01000000
01000000
01000000
00000000
00010000
00000000
00100000
00000000
,
00002000
00000000
00023000
00000000
,
00032000
00000000
00003000
00000000
,
00010000
00011000
00000010
00001010
,
00002002
00000000
00000000
00003003
,
00000010
00000000
00000000
00000220
00000000
00000000
00000000
00000000
,
00000330
00000000
00000000
00000000
;

//---------------dance-double - Chewi----------------
#NOTES:
     dance-double:
     Chewi:
     Hard:
     11:
     0.490,0.560,0.167,0.167,0.118:
00000000
00000000
00000000
00000000
,
00000000
00000000
00000000
00000000
,
00000000
00000000
00000000
00000000
,
00000000
00000000
00000000
00000000
,
10000000
00000000
10000000
00000000
00100000
01000000
00010000
00000000
,
00100000
11000000
00100000
01010000
,
00100000
00000000
00100000
00000000
00100000
00001000
00010000
00000000
,
00001000
00011000
00001000
00001010
,
00001002
00000000
00000000
00000000
,
00000203
00000000
00000000
00000000
,
00000320
00000000
00000000
00000000
,
00002030
00000000
00000000
00000000
,
00003001
00000000
00001000
00000000
00000100
00001000
00000001
00000000
,
00000100
00000000
00000010
00000000
00001000
00010000
00001000
00000000
,
00010000
00000000
00001000
00000000
00010000
01000000
00100000
00000000
,
10000000
00010000
00100000
01000000
,
10000000
00000000
11000000
00000000
00010000
00100000
00010000
00100000
,
00010000
00000000
01010000
00000000
10000000
00100000
10000000
00100000
,
01000000
00010000
00100000
00000000
00100000
00001000
00010000
00000000
,
00010000
00001000
00000010
00000000
00000010
00000100
00000001
00000000
,
00001000
00000100
00000001
00000100
00001000
00000010
00000010
00000000
,
00001000
00000010
00000001
00000010
00001000
00000100
00000100
00000000
,
00000001
00000100
00000010
00001000
00000100
00010000
00001000
00100000
,
00010000
01000000
00100000
10000000
00010000
00100000
01000000
00100000
,
00220000
00000000
00000000
00330000
,
10000000
00000000
00000000
01000000
00000000
00000000
00100000
00000000
00010000
00000000
00000000
00100000
00000000
00000000
00010000
00000000
,
00100000
00000000
00000000
00010000
00000000
00000000
00001000
00000000
00000000
00000000
00000000
00000000
00000000
00000000
00000000
00000000
,
00001000
00000000
00000000
00000100
00000000
00000000
00000001
00000000
00000010
00000000
00000000
00000100
00000000
00000000
00000100
00000000
,
00000010
00000000
00000000
00000100
00000000
00000000
00000001
00000000
00001000
00000000
00000000
00000000
00000000
00000000
00000000
00000000
,
00000002
00000203
00000320
00002030
,
00003200
00002300
00003200
00020300
,
00031000
00000000
00000000
00010000
00000000
00000000
00010000
00000000
00010000
00000000
00000000
00001000
00000000
00000000
00001000
00000000
,
00010000
00000000
00000000
01000000
00000000
00000000
00100000
00000000
10000000
00000000
00000000
00000000
10010000
00000000
00000000
00000000
,
00100000
01000000
00100000
00000000
00010000
10000000
00010000
00000000
,
10000000
00100000
10000000
00000000
10100000
00000000
01010000
00000000
,
00110000
00000000
01000000
00100000
00010000
00000000
00010000
00100000
,
01000000
10000000
00100000
01000000
00010000
00010000
00010000
00000000
,
00010000
00100000
00001000
00010000
00000100
00010000
00001000
00000000
,
00010000
00001000
00000010
00001000
00010000
00001000
00000010
00000000
,
00000010
00000100
00000001
00000100
00000010
00001000
00000100
00000000
,
00001000
00000100
00000001
00000100
00001000
00000010
00000100
00000000
,
00000010
00000000
00000000
00001000
00000000
00000000
00000100
00000000
00010000
00000000
00000000
00001000
00000000
00000000
00010000
00000000
,
00000100
00000000
00000000
00010000
00000000
00000000
00001000
00000000
00100000
00000000
00000000
00000000
00110000
00000000
00000000
00000000
,
00010000
00000000
00000000
00100000
00000000
00000000
00001000
00000000
00010000
00000000
00000000
01000000
00000000
00000000
00010000
00000000
,
00100000
01000000
10000000
10000000
10100000
00000000
00000000
00000000
,
10000000
00000000
00010000
00000000
00100000
00000000
01000000
00000000
00100000
01000000
00100000
00000000
01000000
00100000
01000000
00000000
,
00100000
00010000
01000000
00100000
01000000
00010000
00100000
00001000
,
00010000
00000000
00000100
00000000
00010000
00000000
00001000
00000000
00001000
00000010
00001000
00000000
00000010
00000100
00000010
00000000
,
00000010
00000100
00000001
00000100
00000010
00000010
00001000
00001000
,
00000001
00000010
00000100
00001000
00000001
00000010
00000100
00001000
,
00000001
00001000
00000001
00001000
00000010
00000100
00000010
00000000
,
00000100
00000010
00001000
00000100
00010000
00001000
00100000
00010000
,
01000000
10000000
00100000
10000000
01000000
00010000
00100000
00000000
,
01000000
00000000
01000000
00000000
00100000
00000000
00100000
00000000
00010000
10000000
00010000
00000000
10000000
00000000
00000000
00000000
,
00100000
00000000
00100000
00000000
01000000
00000000
01000000
00000000
00010000
10000000
00010000
00000000
10000000
00000000
00000000
00000000
,
00010000
00000000
00000000
00100000
00000000
00000000
01000000
00000000
00100000
00000000
00000000
00010000
00000000
00000000
00100000
00000000
,
00001000
00000000
00000000
00010000
00000000
00000000
00001000
00000000
00000010
00000000
00001000
00000000
00000010
00000000
00001000
00000000
,
00000010
00000010
00000100
00000100
00000010
00000010
00001000
00001000
,
00000002
00000000
00000003
00000000
,
00000110
00000000
00000000
00001001
00000000
00000000
00002002
00000000
00000000
00000000
00000000
00000000
00000000
00000000
00000000
00000000
,
00003003
00000000
00000000
00000000
;
